osu file format v14

[General]
AudioFilename: audio.mp3
AudioLeadIn: 0
PreviewTime: 235290
Countdown: 1
SampleSet: Normal
StackLeniency: 0.7
Mode: 0
LetterboxInBreaks: 0
WidescreenStoryboard: 0

[Editor]
DistanceSpacing: 1.1
BeatDivisor: 4
GridSize: 4
TimelineZoom: 2

[Metadata]
Title:Extends Levant
TitleUnicode:Extends Levant
Artist:2A03 PURITANS [2A03+, FamiTracker]
ArtistUnicode:2A03 PURITANS [2A03+, FamiTracker]
Creator:My Angel Hibiki
Version:wat
Source:
Tags:
BeatmapID:1911642
BeatmapSetID:915310

[Difficulty]
HPDrainRate:5
CircleSize:4.5
OverallDifficulty:9.5
ApproachRate:10
SliderMultiplier:1.6
SliderTickRate:1

[Events]
//Background and Video events
//Break Periods
//Storyboard Layer 0 (Background)
//Storyboard Layer 1 (Fail)
//Storyboard Layer 2 (Pass)
//Storyboard Layer 3 (Foreground)
//Storyboard Sound Samples

[TimingPoints]
53,560.747663551402,5,1,0,10,1,0
5660,526.315789473684,4,1,0,10,1,0
7765,530.973451327434,4,1,0,10,1,0
9888,508.474576271186,4,1,0,10,1,0
11921,526.315789473684,4,1,0,10,1,0
18236,545.454545454546,4,1,0,10,1,0
20417,526.315789473684,4,1,0,10,1,0
24627,545.454545454546,4,1,0,10,1,0
26808,530.973451327434,4,1,0,10,1,0
33179,545.454545454546,4,1,0,10,1,0
38898,332.871012482663,4,1,0,10,1,0
222487,331.491712707182,4,1,0,10,1,0
235290,332.871012482663,4,1,0,10,1,0
307153,400,4,1,0,30,1,0
326353,400,4,1,0,10,1,0
351911,332.871012482663,4,1,0,10,1,0
434463,576.923076923077,4,1,0,10,1,0
436770,631.578947368421,4,1,0,10,1,0
439296,545.454545454546,3,1,0,10,1,0
440932,508.474576271186,4,1,0,10,1,0
442965,545.454545454546,4,1,0,10,1,0
445164,526.315789473684,4,1,0,10,1,0
451479,545.454545454546,4,1,0,10,1,0
453660,530.973451327434,4,1,0,10,1,0
460031,545.454545454546,4,1,0,10,1,0
462212,508.474576271186,4,1,0,10,1,0
464245,530.973451327434,4,1,0,10,1,0
468492,600,4,1,0,10,1,0
473292,666.666666666667,4,1,0,10,1,0
481292,722.89156626506,4,1,0,10,1,0
484183,731.707317073171,4,1,0,10,1,0
498085,810.810810810811,4,1,0,10,1,0

[HitObjects]
256,192,53,12,0,1454,0:0:0:0:
256,192,2856,12,0,5380,0:0:0:0:
256,192,5520,6,0,L|256:172,2,20
256,192,5791,12,0,7502,0:0:0:0:
224,124,7589,6,0,L|256:124,1,26.6666666666667
256,192,7765,6,0,L|284:208,1,26.6666666666667
256,192,7965,12,0,9756,0:0:0:0:
396,104,10015,6,0,P|376:60|376:20,2,80
328,164,10777,2,0,L|312:244,1,80
292,328,11286,1,0,0:0:0:0:
256,192,11604,1,0,0:0:0:0:
216,64,11921,6,0,L|204:28,2,20
328,164,12973,6,0,L|340:128,2,20
184,220,14026,5,0,0:0:0:0:
328,164,15078,5,0,0:0:0:0:
368,48,16131,6,0,L|352:96,1,40
200,324,17710,1,0,0:0:0:0:
156,192,18236,6,0,L|144:156,2,20
288,60,18781,1,0,0:0:0:0:
288,60,19326,1,0,0:0:0:0:
288,136,19599,1,0,0:0:0:0:
232,192,19872,1,0,0:0:0:0:
156,192,20145,1,0,0:0:0:0:
196,256,20417,6,0,L|168:332,1,80
284,252,20943,2,0,L|276:332,1,80
368,204,21469,2,0,L|380:284,1,80
440,132,21995,2,0,L|476:208,1,80
484,40,22522,5,0,0:0:0:0:
72,84,23574,5,0,0:0:0:0:
268,64,24101,1,0,0:0:0:0:
180,144,24627,5,0,0:0:0:0:
56,236,25172,1,0,0:0:0:0:
152,248,25445,2,0,L|320:268,1,160
180,144,26536,2,0,L|264:156,1,80
360,172,27073,5,0,0:0:0:0:
440,16,27338,2,0,L|440:108,1,80
360,172,28135,5,0,0:0:0:0:
440,16,28400,2,0,L|440:108,1,80
440,244,28931,5,0,0:0:0:0:
360,172,29197,5,0,0:0:0:0:
440,16,29462,2,0,L|440:112,1,80
440,244,30259,6,0,L|440:340,1,80
360,172,30790,1,0,0:0:0:0:
280,88,31055,6,0,L|248:184,1,80
160,44,31586,2,0,L|192:140,1,80
280,88,32117,2,0,L|248:184,1,80
212,288,32648,1,0,0:0:0:0:
187,213,32914,1,0,0:0:0:0:
254,163,33179,6,0,L|280:88,1,80
448,48,33724,1,0,0:0:0:0:
372,104,33997,2,0,L|344:180,1,80
187,213,34542,1,0,0:0:0:0:
263,269,34815,2,0,L|288:344,1,80
256,192,35360,5,0,0:0:0:0:
256,192,35497,12,0,37406,0:0:0:0:
140,64,38898,6,0,L|144:108,1,40
232,152,39064,2,0,L|204:188,1,40
248,172,39230,2,0,L|211:199,1,40
256,192,39397,2,0,L|213:209,1,40
76,236,39563,6,0,L|112:240,1,40
76,264,39730,2,0,L|116:261,1,40
84,292,39896,2,0,L|122:278,1,40
100,312,40063,2,0,L|133:289,1,40
256,320,40229,6,0,L|225:293,1,40
268,291,40395,2,0,L|231:272,1,40
275,262,40562,2,0,L|235:253,1,40
271,237,40728,2,0,L|230:239,1,40
256,64,40895,6,0,L|286:90,1,40
244,93,41061,2,0,L|280:111,1,40
237,122,41228,2,0,L|276:130,1,40
241,147,41394,2,0,L|281:144,1,40
