osu file format v14

[General]
AudioFilename: audio.mp3
AudioLeadIn: 0
PreviewTime: 18556
Countdown: 0
SampleSet: Soft
StackLeniency: 0.3
Mode: 0
LetterboxInBreaks: 0
WidescreenStoryboard: 1

[Editor]
DistanceSpacing: 1.2
BeatDivisor: 16
GridSize: 4
TimelineZoom: 1

[Metadata]
Title:zimnie nochi
TitleUnicode:zimnie nochi
Artist:27.4beats
ArtistUnicode:27.4beats
Creator:Signum
Version:frost
Source:
Tags:winter nights зимние ночи beats daughter smother
BeatmapID:1132726
BeatmapSetID:534752

[Difficulty]
HPDrainRate:5.2
CircleSize:4.7
OverallDifficulty:5.5
ApproachRate:6.8
SliderMultiplier:1.7
SliderTickRate:1

[Events]
//Background and Video events
0,0,"gZwCuMSC0ag.jpg",0,0
//Break Periods
//Storyboard Layer 0 (Background)
//Storyboard Layer 1 (Fail)
//Storyboard Layer 2 (Pass)
//Storyboard Layer 3 (Foreground)
//Storyboard Sound Samples

[TimingPoints]
4421,759.533333333333,4,2,1,15,1,0
5848,817.433333333333,4,2,1,15,1,0
6358,817.433333333333,4,2,1,15,1,0
7482,903.642388059701,4,2,1,15,1,0
8385,750.187546886722,4,2,1,15,1,0
9885,-100,4,2,1,5,0,0
9968,750.187546886722,4,2,1,15,1,0
10725,800,4,2,1,15,1,0
13951,789.473684210526,4,2,1,30,1,0
18687,-100,4,2,1,15,0,0
20255,789.473684210526,4,2,1,30,1,0
43889,789.473684210526,4,2,1,30,1,0
68757,-100,4,2,1,25,0,0
69152,-100,4,2,1,15,0,0
69546,-100,4,2,1,5,0,0

[Colours]
Combo1 : 103,121,169
Combo2 : 27,101,129

[HitObjects]
187,119,4421,6,0,P|193:149|90:222,1,170
98,225,5848,1,0,0:0:0:0:
213,325,6256,1,0,0:0:0:0:
213,325,6358,6,0,B|246:329|246:329|300:316,1,85
380,259,7175,2,0,P|384:242|385:224,1,31.875
350,188,7482,6,0,P|347:160|363:105,1,85
271,188,8385,2,0,P|274:216|258:271,1,85
173,214,9135,2,0,P|151:234|110:139,1,189
175,70,10343,1,0,0:0:0:0:
261,175,10725,6,0,P|273:206|267:263,1,85
171,227,11525,2,0,P|159:196|165:139,1,85
239,77,12325,1,0,0:0:0:0:
332,116,12725,1,0,0:0:0:0:
423,161,13125,2,0,B|431:189|431:189|430:238|398:283,1,127.5
352,328,13951,6,0,P|318:317|264:317,1,85,2|2,0:0|0:0,0:0:0:0:
171,345,14740,1,4,0:0:0:0:
108,264,15135,2,0,P|111:232|108:218,1,42.5,2|2,0:0|0:0,0:0:0:0:
159,165,15529,6,0,L|245:180,2,85,2|2|8,0:0|0:0|0:0,0:0:0:0:
84,94,16714,1,0,0:0:0:0:
58,244,17108,6,0,P|44:269|28:281,2,42.5,2|4|0,0:0|0:0|0:0,0:0:0:0:
144,188,17898,2,0,P|171:203|231:205,1,85,8|0,0:0|0:0,0:0:0:0:
358,132,18687,6,0,P|387:184|378:255,1,127.5
327,303,19477,2,0,P|292:291|280:288,1,42.5
208,194,19872,2,0,P|219:216|225:239,1,42.5
131,198,20255,6,0,P|135:171|261:140,2,170,4|0|0,0:1|0:0|0:0,0:0:0:0:
77,285,22228,1,2,0:0:0:0:
164,338,22623,2,0,P|195:344|250:334,1,85,8|0,0:0|0:0,0:0:0:0:
357,228,23412,6,0,P|352:203|352:183,1,42.5,0|4,0:0|0:0,0:0:0:0:
254,67,24202,2,0,P|224:95|174:104,1,85,8|0,0:0|0:0,0:0:0:0:
83,79,24991,1,2,0:1:0:0:
83,79,25189,2,0,P|57:71|37:69,2,42.5,4|2|2,0:0|0:0|0:0,0:0:0:0:
125,132,25781,2,0,P|137:165|129:216,1,85,8|0,0:0|0:0,0:0:0:0:
239,296,26570,6,0,P|281:285|321:294,1,85,2|2,0:0|0:0,0:0:0:0:
393,221,27360,2,0,P|382:179|391:139,1,85,8|0,0:0|0:0,0:0:0:0:
362,96,27952,1,2,0:0:0:0:
362,96,28149,6,0,P|330:111|274:106,1,85,2|0,0:0|0:0,0:0:0:0:
185,65,28939,1,8,0:0:0:0:
102,124,29333,1,0,0:0:0:0:
189,249,29728,6,0,L|198:297,1,42.5,2|4,0:0|0:0,0:0:0:0:
196,290,30518,2,0,P|237:298|281:290,1,85,8|0,0:0|0:0,0:0:0:0:
367,240,31307,2,0,P|357:270|355:286,1,42.5,2|4,0:1|0:0,0:0:0:0:
418,316,31702,2,0,P|428:286|430:270,1,42.5,2|2,0:0|0:0,0:0:0:0:
407,181,32097,2,0,P|361:170|321:185,1,85,8|0,0:0|0:0,0:0:0:0:
177,218,32886,6,0,B|163:175|183:137|183:137|157:104|157:104|170:59,1,170
268,36,34070,1,0,0:0:0:0:
268,36,34268,1,2,0:0:0:0:
268,36,34465,2,0,P|301:45|350:33,1,85,2|2,0:0|0:0,0:0:0:0:
421,105,35254,2,0,P|412:138|424:187,1,85,8|0,0:0|0:0,0:0:0:0:
324,303,36044,5,2,0:0:0:0:
324,303,36241,1,4,0:0:0:0:
324,303,36833,2,0,P|303:313|238:304,1,85,8|0,0:0|0:0,0:0:0:0:
178,232,37623,1,0,0:0:0:0:
178,232,37820,2,0,L|185:184,1,42.5,4|2,0:0|0:0,0:0:0:0:
120,124,38215,1,2,0:0:0:0:
120,124,38412,2,0,L|103:209,1,85,8|0,0:0|0:0,0:0:0:0:
225,316,39202,6,0,B|269:326|269:306|310:312,2,85,2|2|8,0:0|0:0|0:0,0:0:0:0:
147,249,40386,2,0,P|154:224|150:200,1,42.5,0|2,0:0|0:0,0:0:0:0:
183,167,40781,2,0,P|221:181|269:177,1,85,2|2,0:0|0:0,0:0:0:0:
353,126,41570,1,8,0:0:0:0:
450,155,41965,1,0,0:0:0:0:
406,301,42360,5,2,0:0:0:0:
406,301,42557,1,4,0:0:0:0:
179,263,43149,2,0,P|188:218|175:176,1,85,8|0,0:0|0:0,0:0:0:0:
253,112,43889,5,2,0:1:0:0:
410,163,44284,1,0,0:0:0:0:
253,214,44678,1,0,0:0:0:0:
351,80,45073,1,0,0:0:0:0:
351,246,45467,1,0,0:0:0:0:
434,188,45862,6,0,P|451:227|448:269,2,85,2|8|0,0:0|0:0|0:0,0:0:0:0:
400,150,46850,1,2,0:0:0:0:
400,150,47047,6,0,P|354:169|319:164,1,85
262,80,47836,2,0,P|308:61|343:66,1,85,8|0,0:0|0:0,0:0:0:0:
459,164,48626,6,0,P|458:187|460:208,1,42.5,2|4,0:0|0:0,0:0:0:0:
269,325,49415,2,0,L|182:313,1,85,8|0,0:0|0:0,0:0:0:0:
76,205,50205,6,0,P|72:175|75:157,2,42.5,2|4|2,0:1|0:0|0:0,0:0:0:0:
109,244,50797,1,2,0:0:0:0:
109,244,50994,2,0,P|154:237|202:247,1,85,8|0,0:0|0:0,0:0:0:0:
317,155,51783,6,0,P|308:111|409:51,1,170,0|8,0:0|0:0,0:0:0:0:
477,112,52968,1,0,0:0:0:0:
477,112,53165,1,2,0:0:0:0:
477,112,53363,2,0,P|468:157|478:196,1,85,2|2,0:0|0:0,0:0:0:0:
391,249,54152,2,0,P|400:207|391:166,1,85,8|0,0:0|0:0,0:0:0:0:
259,87,54942,6,0,L|216:96,1,42.5,2|4,0:0|0:0,0:0:0:0:
217,95,55731,2,0,P|224:137|210:178,1,85,8|0,0:0|0:0,0:0:0:0:
270,318,56521,1,2,0:1:0:0:
270,318,56718,2,0,P|293:326|318:325,1,42.5,4|2,0:0|0:0,0:0:0:0:
377,287,57113,1,2,0:0:0:0:
377,287,57310,2,0,L|394:202,1,85,8|0,0:0|0:0,0:0:0:0:
294,87,58099,6,0,P|257:104|207:98,1,85,2|2,0:0|0:0,0:0:0:0:
123,53,58888,1,8,0:0:0:0:
70,140,59283,2,0,P|74:162|72:186,1,42.5,0|2,0:0|0:0,0:0:0:0:
126,236,59678,6,0,P|165:229|213:245,2,85,2|2|8,0:0|0:0|0:0,0:0:0:0:
44,297,60862,1,0,0:0:0:0:
188,348,61257,5,2,0:0:0:0:
188,348,61454,1,4,0:0:0:0:
317,267,62046,2,0,P|353:274|400:262,1,85,8|0,0:0|0:0,0:0:0:0:
436,113,62836,1,2,0:1:0:0:
436,113,63034,2,0,P|444:87|446:67,2,42.5,4|2|2,0:0|0:0|0:0,0:0:0:0:
398,146,63626,2,0,P|365:158|314:150,1,85,8|0,0:0|0:0,0:0:0:0:
175,211,64415,6,0,P|182:252|172:297,2,85,2|2|8,0:0|0:0|0:0,0:0:0:0:
112,130,65599,2,0,P|104:101|105:82,1,42.5,0|2,0:0|0:0,0:0:0:0:
164,41,65994,6,0,L|255:55,1,85,2|2,0:0|0:0,0:0:0:0:
304,139,66783,2,0,L|213:125,1,85,8|0,0:0|0:0,0:0:0:0:
140,257,67573,6,0,L|131:298,1,42.5,2|4,0:0|0:0,0:0:0:0:
130,298,68362,1,8,0:0:0:0:
256,192,68757,12,0,69941,0:0:0:0:
