osu file format v14

[General]
AudioFilename: audio.mp3
AudioLeadIn: 0
PreviewTime: 18556
Countdown: 0
SampleSet: Soft
StackLeniency: 0.3
Mode: 0
LetterboxInBreaks: 0
WidescreenStoryboard: 1

[Editor]
DistanceSpacing: 1.5
BeatDivisor: 16
GridSize: 4
TimelineZoom: 1

[Metadata]
Title:zimnie nochi
TitleUnicode:zimnie nochi
Artist:27.4beats
ArtistUnicode:27.4beats
Creator:Signum
Version:cold
Source:
Tags:winter nights зимние ночи beats daughter smother
BeatmapID:1132725
BeatmapSetID:534752

[Difficulty]
HPDrainRate:3.2
CircleSize:3.7
OverallDifficulty:3.5
ApproachRate:4.3
SliderMultiplier:1.1
SliderTickRate:2

[Events]
//Background and Video events
0,0,"gZwCuMSC0ag.jpg",0,0
//Break Periods
//Storyboard Layer 0 (Background)
//Storyboard Layer 1 (Fail)
//Storyboard Layer 2 (Pass)
//Storyboard Layer 3 (Foreground)
//Storyboard Sound Samples

[TimingPoints]
4421,759.533333333333,4,2,1,15,1,0
5848,817.433333333333,4,2,1,15,1,0
6358,817.433333333333,4,2,1,15,1,0
7482,903.642388059701,4,2,1,15,1,0
8385,750.187546886722,4,2,1,15,1,0
9968,750.187546886722,4,2,1,15,1,0
10725,800,4,2,1,15,1,0
13951,789.473684210526,4,2,1,30,1,0
18687,-100,4,2,1,15,0,0
20255,789.473684210526,4,2,1,30,1,0
43889,789.473684210526,4,2,1,30,1,0
68757,-100,4,2,1,25,0,0
69152,-100,4,2,1,15,0,0
69546,-100,4,2,1,5,0,0

[Colours]
Combo1 : 103,121,169
Combo2 : 27,101,129

[HitObjects]
256,192,10725,12,2,13125,0:0:0:0:
79,186,13951,6,0,P|73:155|77:128,1,55,2|2,0:0|0:0,0:0:0:0:
150,95,14740,2,0,P|156:126|152:153,1,55,4|2,0:0|0:0,0:0:0:0:
207,211,15529,2,0,P|249:203|315:213,1,110,2|8,0:0|0:0,0:0:0:0:
386,171,16714,1,0,0:0:0:0:
444,228,17108,6,0,L|447:260,1,27.5,2|4,0:0|0:0,0:0:0:0:
355,338,17898,1,8,0:0:0:0:
355,338,20255,6,0,P|368:306|351:233,1,110,4|0,0:1|0:0,0:0:0:0:
216,140,21833,2,0,P|178:145|157:141,1,55,0|2,0:0|0:0,0:0:0:0:
94,94,22623,2,0,P|83:117|78:148,1,55,8|0,0:0|0:0,0:0:0:0:
116,219,23412,6,0,L|102:248,1,27.5,0|4,0:0|0:0,0:0:0:0:
184,336,24202,2,0,P|237:324|294:340,1,110,8|2,0:0|0:1,0:0:0:0:
368,364,25386,1,2,0:0:0:0:
431,311,25781,1,8,0:0:0:0:
431,311,26570,6,0,P|438:253|423:205,1,110,2|8,0:0|0:0,0:0:0:0:
374,137,27754,1,0,0:0:0:0:
297,167,28149,2,0,P|272:175|244:174,1,55,2|0,0:0|0:0,0:0:0:0:
172,130,28939,2,0,P|147:122|119:123,1,55,8|0,0:0|0:0,0:0:0:0:
54,174,29728,6,0,L|45:202,1,27.5,2|4,0:0|0:0,0:0:0:0:
127,292,30518,2,0,P|155:266|178:200,1,110,8|2,0:0|0:1,0:0:0:0:
240,145,31702,1,2,0:0:0:0:
317,174,32097,1,8,0:0:0:0:
317,174,32886,6,0,B|365:198|375:157|425:178,1,110
489,227,34070,1,0,0:0:0:0:
426,280,34465,2,0,P|390:292|320:277,1,110,2|8,0:0|0:0,0:0:0:0:
190,176,36044,6,0,L|157:176,1,27.5,2|4,0:0|0:0,0:0:0:0:
267,109,36833,2,0,P|308:115|370:84,1,110,8|0,0:0|0:0,0:0:0:0:
440,46,38018,1,2,0:0:0:0:
487,113,38412,1,8,0:0:0:0:
487,113,39202,6,0,P|490:151|489:173,2,55,2|2|8,0:0|0:0|0:0,0:0:0:0:
418,66,40386,1,0,0:0:0:0:
339,91,40781,2,0,L|283:96,1,55,2|2,0:0|0:0,0:0:0:0:
232,160,41570,2,0,L|176:165,1,55,8|0,0:0|0:0,0:0:0:0:
106,208,42360,6,0,L|108:239,1,27.5,2|4,0:0|0:0,0:0:0:0:
190,327,43149,2,0,P|232:317|294:325,1,103.125,8|2,0:0|0:1,0:0:0:0:
357,275,44283,5,0,0:0:0:0:
426,229,44678,2,0,L|484:229,2,55,0|0|0,0:0|0:0|0:0,0:0:0:0:
380,159,45862,1,2,0:0:0:0:
302,186,46257,6,0,P|250:202|195:191,1,110,8|0,0:0|0:0,0:0:0:0:
127,145,47441,1,0,0:0:0:0:
64,199,47836,2,0,P|55:221|53:255,1,55,8|0,0:0|0:0,0:0:0:0:
110,310,48625,6,0,L|141:316,1,27.5,2|4,0:0|0:0,0:0:0:0:
249,263,49415,2,0,B|286:272|286:272|357:261,1,110,8|2,0:0|0:1,0:0:0:0:
417,204,50599,1,2,0:0:0:0:
496,227,50994,1,8,0:0:0:0:
496,227,51783,6,0,B|471:178|512:168|491:118,1,110,0|8,0:0|0:0,0:0:0:0:
428,67,52967,1,0,0:0:0:0:
349,41,53362,2,0,P|307:37|292:37,2,55,2|2|8,0:0|0:0|0:0,0:0:0:0:
428,67,54546,1,0,0:0:0:0:
478,137,54941,6,0,L|475:167,1,27.5,2|4,0:0|0:0,0:0:0:0:
402,264,55731,2,0,P|370:273|290:264,1,110,8|2,0:0|0:1,0:0:0:0:
221,227,56915,1,2,0:0:0:0:
142,252,57310,1,8,0:0:0:0:
142,252,58099,6,0,B|152:210|149:186|149:186|131:146,1,110,2|8,0:0|0:0,0:0:0:0:
180,80,59283,1,0,0:0:0:0:
258,104,59678,2,0,P|302:110|314:107,1,55,2|2,0:0|0:0,0:0:0:0:
370,166,60467,2,0,P|364:210|367:222,1,55,8|0,0:0|0:0,0:0:0:0:
310,280,61257,6,0,L|284:293,1,27.5,2|4,0:0|0:0,0:0:0:0:
162,277,62046,2,0,P|125:293|59:275,1,110,8|2,0:0|0:1,0:0:0:0:
13,207,63231,1,2,0:0:0:0:
51,134,63625,1,8,0:0:0:0:
51,134,64415,6,0,P|38:99|35:78,2,55,2|2|8,0:0|0:0|0:0,0:0:0:0:
103,197,65599,1,0,0:0:0:0:
180,169,65994,2,0,L|190:112,1,55,2|2,0:0|0:0,0:0:0:0:
259,158,66783,2,0,L|249:215,1,55,8|0,0:0|0:0,0:0:0:0:
301,276,67573,6,0,L|330:289,1,27.5,2|4,0:0|0:0,0:0:0:0:
437,232,68362,1,8,0:0:0:0:
380,171,68757,2,0,P|360:184|354:105,1,165
