osu file format v14

[General]
AudioFilename: audio.ogg
AudioLeadIn: 0
PreviewTime: 46478
Countdown: 0
SampleSet: Soft
StackLeniency: 0.7
Mode: 3
LetterboxInBreaks: 0
EpilepsyWarning: 1
SpecialStyle: 0
WidescreenStoryboard: 1

[Editor]
DistanceSpacing: 0.8
BeatDivisor: 2
GridSize: 16
TimelineZoom: 1.8

[Metadata]
Title:Bug
TitleUnicode:バグ
Artist:25-ji, Nightcord de. x Kagamine Len
ArtistUnicode:25時、ナイトコードで。 × 鏡音レン
Creator:Ryu Sei
Version:[e[]a[[[s][]]y
Source:プロジェクトセカイ カラフルステージ! feat. 初音ミク
Tags:Project SEKAI Colorful Stage! feat. Hatsune Miku pjsk prsk proseka vocaloid かいりきベア Kairiki Bear Asahina Mafuyu 朝比奈まふゆ Tanabe Rui 田辺留依 Yoisaki Kanade 宵崎奏 Kusunoki Tomori 楠木ともり Shinonome Ena 東雲絵名 Suzuki Minori 鈴木みのり Akiyama Mizuki 暁山瑞希 Satou Hinata 佐藤日向 N25 ニーゴ Nightcord at 25:00 迷い子の手を引く、そのさきは mayoiko no te o hiku, sono saki wa SEGA electronic japanese bagu 株式会社 Palette SV slider velocity gimmick colourful jpop j-pop pop ft. featuring
BeatmapID:3825243
BeatmapSetID:1860586

[Difficulty]
HPDrainRate:6.9
CircleSize:4
OverallDifficulty:6.9
ApproachRate:5
SliderMultiplier:1.4
SliderTickRate:1

[Events]
//Background and Video events
Video,-33,"video.mp4"
0,0,"bugbg-easy.jpg",0,0
//Break Periods
//Storyboard Layer 0 (Background)
//Storyboard Layer 1 (Fail)
//Storyboard Layer 2 (Pass)
//Storyboard Layer 3 (Foreground)
//Storyboard Layer 4 (Overlay)
//Storyboard Sound Samples
Sample,1317,0,"8bitcrash.wav",100
Sample,1639,0,"8bitcrash.wav",100
Sample,1962,0,"8bitcrash.wav",100
Sample,2284,0,"8bitcrash.wav",100
Sample,2446,0,"8bitkick.wav",100
Sample,2526,0,"8bitkick.wav",100
Sample,2768,0,"8bitkick.wav",100
Sample,2849,0,"8bitkick.wav",100
Sample,3091,0,"8bitkick.wav",100
Sample,3171,0,"8bitkick.wav",100
Sample,3897,0,"8bitcrash.wav",100
Sample,4865,0,"8bitsnare.wav",100
Sample,6478,0,"8bitcrash.wav",100
Sample,7446,0,"8bitsnare.wav",100
Sample,9058,0,"8bitcrash.wav",100
Sample,10026,0,"8bitsnare.wav",100
Sample,11639,0,"8bitcrash.wav",100
Sample,12607,0,"8bitsnare.wav",100
Sample,14220,0,"8bitcrash.wav",100
Sample,16478,0,"8bitsnare.wav",100
Sample,17768,0,"8bitkick.wav",100
Sample,18091,0,"8bitkick.wav",100
Sample,18413,0,"8bitcrash.wav",100
Sample,18736,0,"8bitsnare.wav",100
Sample,19220,0,"8bitsnare.wav",100
Sample,19381,0,"8bitcrash.wav",100
Sample,21639,0,"8bitsnare.wav",100
Sample,23575,0,"8bitcrash.wav",100
Sample,23575,0,"8bitkick.wav",100
Sample,24058,0,"8bitkick.wav",100
Sample,24381,0,"8bitkick.wav",100
Sample,24542,0,"8bitcrash.wav",100
Sample,25349,0,"8bitkick.wav",100
Sample,25671,0,"8bitkick.wav",100
Sample,25994,0,"8bitkick.wav",100
Sample,26316,0,"8bitsnare.wav",100
Sample,27123,0,"8bitcrash.wav",100
Sample,27929,0,"8bitkick.wav",100
Sample,28252,0,"8bitcrash.wav",100
Sample,28252,0,"8bitkick.wav",100
Sample,28575,0,"8bitkick.wav",100
Sample,28897,0,"8bitsnare.wav",100
Sample,29704,0,"8bitcrash.wav",100
Sample,30510,0,"8bitkick.wav",100
Sample,30833,0,"8bitkick.wav",100
Sample,31155,0,"8bitkick.wav",100
Sample,32284,0,"8bitcrash.wav",100
Sample,33091,0,"8bitkick.wav",100
Sample,33413,0,"8bitkick.wav",100
Sample,33736,0,"8bitkick.wav",100
Sample,34865,0,"8bitcrash.wav",100
Sample,35833,0,"8bitsnare.wav",100
Sample,37123,0,"8bitsnare.wav",100
Sample,38413,0,"8bitsnare.wav",100
Sample,39542,0,"8bitkick.wav",100
Sample,39704,0,"8bitsnare.wav",100
Sample,40994,0,"8bitsnare.wav",100
Sample,42284,0,"8bitsnare.wav",100
Sample,42284,0,"8bitkick.wav",100
Sample,42607,0,"8bitcrash.wav",100
Sample,42929,0,"8bitkick.wav",100
Sample,43575,0,"8bitkick.wav",100
Sample,43736,0,"8bitsnare.wav",100
Sample,44704,0,"8bitkick.wav",100
Sample,44784,0,"8bitkick.wav",100
Sample,44865,0,"8bitsnare.wav",100
Sample,45349,0,"8bitkick.wav",100
Sample,45671,0,"8bitkick.wav",100
Sample,46478,0,"8bitcrash.wav",100
Sample,46800,0,"8bitsnare.wav",100
Sample,47446,0,"8bitsnare.wav",100
Sample,48091,0,"8bitsnare.wav",100
Sample,48736,0,"8bitsnare.wav",100
Sample,49058,0,"8bitcrash.wav",100
Sample,49381,0,"8bitsnare.wav",100
Sample,50026,0,"8bitsnare.wav",100
Sample,51236,0,"8bitkick.wav",100
Sample,51639,0,"8bitcrash.wav",100
Sample,51962,0,"8bitsnare.wav",100
Sample,52607,0,"8bitsnare.wav",100
Sample,53252,0,"8bitsnare.wav",100
Sample,53897,0,"8bitsnare.wav",100
Sample,54220,0,"8bitcrash.wav",100
Sample,54542,0,"8bitsnare.wav",100
Sample,55187,0,"8bitsnare.wav",100
Sample,56316,0,"8bitkick.wav",100
Sample,56397,0,"8bitkick.wav",100
Sample,56800,0,"8bitcrash.wav",100
Sample,57123,0,"8bitsnare.wav",100
Sample,57768,0,"8bitkick.wav",100
Sample,57768,0,"8bitsnare.wav",100
Sample,58091,0,"8bitkick.wav",100
Sample,58413,0,"8bitsnare.wav",100
Sample,59381,0,"8bitcrash.wav",100
Sample,59704,0,"8bitsnare.wav",100
Sample,60349,0,"8bitsnare.wav",100
Sample,60833,0,"8bitkick.wav",100
Sample,60913,0,"8bitkick.wav",100
Sample,61155,0,"8bitkick.wav",100
Sample,61478,0,"8bitkick.wav",100
Sample,61558,0,"8bitkick.wav",100
Sample,61962,0,"8bitcrash.wav",100
Sample,62284,0,"8bitsnare.wav",100
Sample,62929,0,"8bitkick.wav",100
Sample,62929,0,"8bitsnare.wav",100
Sample,63252,0,"8bitkick.wav",100
Sample,63575,0,"8bitsnare.wav",100
Sample,64542,0,"8bitcrash.wav",100
Sample,64865,0,"8bitsnare.wav",100
Sample,65510,0,"8bitsnare.wav",100
Sample,66639,0,"8bitkick.wav",100
Sample,66720,0,"8bitkick.wav",100
Sample,67284,0,"8bitkick.wav",100
Sample,67607,0,"8bitkick.wav",100
Sample,68413,0,"8bitcrash.wav",100
Sample,69381,0,"8bitsnare.wav",100
Sample,70994,0,"8bitcrash.wav",100
Sample,71962,0,"8bitsnare.wav",100
Sample,73575,0,"8bitcrash.wav",100
Sample,74542,0,"8bitsnare.wav",100
Sample,76155,0,"8bitcrash.wav",100
Sample,77123,0,"8bitsnare.wav",100
Sample,79220,0,"8bitkick.wav",100
Sample,79300,0,"8bitkick.wav",100
Sample,79462,0,"8bitsnare.wav",100
Sample,79623,0,"8bitsnare.wav",100
Sample,80752,0,"8bitsnare.wav",100
Sample,80833,0,"8bitkick.wav",100
Sample,81155,0,"8bitkick.wav",100
Sample,82042,0,"8bitsnare.wav",100
Sample,82607,0,"8bitcrash.wav",100
Sample,83333,0,"8bitsnare.wav",100
Sample,83413,0,"8bitkick.wav",100
Sample,83736,0,"8bitkick.wav",100
Sample,84542,0,"8bitcrash.wav",100
Sample,84623,0,"8bitsnare.wav",100
Sample,85268,0,"8bitkick.wav",100
Sample,85349,0,"8bitkick.wav",100
Sample,85429,0,"8bitkick.wav",100
Sample,85913,0,"8bitsnare.wav",100
Sample,85994,0,"8bitkick.wav",100
Sample,86316,0,"8bitkick.wav",100
Sample,87204,0,"8bitsnare.wav",100
Sample,87768,0,"8bitcrash.wav",100
Sample,88494,0,"8bitsnare.wav",100
Sample,88575,0,"8bitkick.wav",100
Sample,88897,0,"8bitkick.wav",100
Sample,89704,0,"8bitcrash.wav",100
Sample,89784,0,"8bitsnare.wav",100
Sample,91478,0,"8bitsnare.wav",100
Sample,92607,0,"8bitsnare.wav",100
Sample,92929,0,"8bitcrash.wav",100
Sample,95187,0,"8bitsnare.wav",100
Sample,96478,0,"8bitkick.wav",100
Sample,96800,0,"8bitkick.wav",100
Sample,97123,0,"8bitcrash.wav",100
Sample,97446,0,"8bitsnare.wav",100
Sample,97929,0,"8bitsnare.wav",100
Sample,98091,0,"8bitcrash.wav",100
Sample,100671,0,"8bitcrash.wav",100
Sample,102284,0,"8bitcrash.wav",100
Sample,102284,0,"8bitkick.wav",100
Sample,102768,0,"8bitkick.wav",100
Sample,103091,0,"8bitkick.wav",100
Sample,104058,0,"8bitkick.wav",100
Sample,104381,0,"8bitkick.wav",100
Sample,105349,0,"8bitkick.wav",100
Sample,105671,0,"8bitkick.wav",100
Sample,106639,0,"8bitkick.wav",100
Sample,106962,0,"8bitkick.wav",100
Sample,107929,0,"8bitkick.wav",100
Sample,108252,0,"8bitkick.wav",100
Sample,109220,0,"8bitkick.wav",100
Sample,109542,0,"8bitkick.wav",100
Sample,110510,0,"8bitkick.wav",100
Sample,110833,0,"8bitkick.wav",100
Sample,113091,0,"8bitkick.wav",100
Sample,113171,0,"8bitkick.wav",100
Sample,114381,0,"8bitkick.wav",100
Sample,114462,0,"8bitkick.wav",100
Sample,114542,0,"8bitsnare.wav",100
Sample,115026,0,"8bitkick.wav",100
Sample,115349,0,"8bitkick.wav",100
Sample,115671,0,"8bitkick.wav",100
Sample,115752,0,"8bitkick.wav",100
Sample,115833,0,"8bitsnare.wav",100
Sample,116316,0,"8bitkick.wav",100
Sample,116639,0,"8bitkick.wav",100
Sample,116962,0,"8bitkick.wav",100
Sample,117284,0,"8bitkick.wav",100
Sample,118252,0,"8bitkick.wav",100
Sample,118333,0,"8bitkick.wav",100
Sample,120187,0,"8bitkick.wav",100
Sample,120510,0,"8bitkick.wav",100
Sample,123494,0,"8bitkick.wav",100
Sample,128575,0,"8bitkick.wav",100
Sample,128655,0,"8bitkick.wav",100
Sample,128736,0,"8bitsnare.wav",100
Sample,129220,0,"8bitkick.wav",100
Sample,129542,0,"8bitkick.wav",100
Sample,129865,0,"8bitkick.wav",100
Sample,129946,0,"8bitkick.wav",100
Sample,130349,0,"8bitcrash.wav",100
Sample,130671,0,"8bitsnare.wav",100
Sample,131316,0,"8bitsnare.wav",100
Sample,131962,0,"8bitsnare.wav",100
Sample,132607,0,"8bitsnare.wav",100
Sample,132929,0,"8bitcrash.wav",100
Sample,133252,0,"8bitsnare.wav",100
Sample,133897,0,"8bitsnare.wav",100
Sample,135107,0,"8bitkick.wav",100
Sample,135510,0,"8bitcrash.wav",100
Sample,135833,0,"8bitsnare.wav",100
Sample,136478,0,"8bitsnare.wav",100
Sample,137123,0,"8bitsnare.wav",100
Sample,137768,0,"8bitsnare.wav",100
Sample,138091,0,"8bitcrash.wav",100
Sample,138413,0,"8bitsnare.wav",100
Sample,139058,0,"8bitsnare.wav",100
Sample,140187,0,"8bitkick.wav",100
Sample,140268,0,"8bitkick.wav",100
Sample,140671,0,"8bitcrash.wav",100
Sample,140994,0,"8bitsnare.wav",100
Sample,141639,0,"8bitsnare.wav",100
Sample,141639,0,"8bitkick.wav",100
Sample,141962,0,"8bitkick.wav",100
Sample,142284,0,"8bitsnare.wav",100
Sample,143252,0,"8bitcrash.wav",100
Sample,143575,0,"8bitsnare.wav",100
Sample,144220,0,"8bitsnare.wav",100
Sample,144704,0,"8bitkick.wav",100
Sample,144784,0,"8bitkick.wav",100
Sample,145026,0,"8bitkick.wav",100
Sample,145349,0,"8bitkick.wav",100
Sample,145429,0,"8bitkick.wav",100
Sample,145833,0,"8bitcrash.wav",100
Sample,146155,0,"8bitsnare.wav",100
Sample,146800,0,"8bitkick.wav",100
Sample,146800,0,"8bitsnare.wav",100
Sample,147123,0,"8bitkick.wav",100
Sample,147446,0,"8bitsnare.wav",100
Sample,148413,0,"8bitcrash.wav",100
Sample,148736,0,"8bitsnare.wav",100
Sample,149381,0,"8bitsnare.wav",100
Sample,150510,0,"8bitkick.wav",100
Sample,150591,0,"8bitkick.wav",100
Sample,151155,0,"8bitkick.wav",100
Sample,151478,0,"8bitkick.wav",100
Sample,152929,0,"8bitsnare.wav",100
Sample,153252,0,"8bitsnare.wav",100
Sample,153575,0,"8bitcrash.wav",100
Sample,153736,0,"8bitkick.wav",100
Sample,153897,0,"8bitcrash.wav",100
Sample,154058,0,"8bitkick.wav",100
Sample,154220,0,"8bitcrash.wav",100
Sample,154381,0,"8bitkick.wav",100
Sample,154542,0,"8bitcrash.wav",100
Sample,154704,0,"8bitkick.wav",100
Sample,154865,0,"8bitcrash.wav",100
Sample,156155,0,"8bitcrash.wav",100
Sample,157123,0,"8bitsnare.wav",100
Sample,158736,0,"8bitcrash.wav",100
Sample,159704,0,"8bitsnare.wav",100
Sample,161316,0,"8bitcrash.wav",100
Sample,162284,0,"8bitsnare.wav",100
Sample,163897,0,"8bitcrash.wav",100
Sample,164865,0,"8bitsnare.wav",100
Sample,167042,0,"8bitkick.wav",100
Sample,167204,0,"8bitsnare.wav",100
Sample,167365,0,"8bitsnare.wav",100

[TimingPoints]
1317,322.58064516129,4,2,1,80,1,0
46478,-100,4,2,1,80,0,1
56478,-100,4,2,1,80,0,0
56800,-100,4,2,1,80,0,1
68413,-100,4,2,1,80,0,0
130349,-100,4,2,1,80,0,1
140349,-100,4,2,1,80,0,0
140671,-100,4,2,1,80,0,1
155510,-100,4,2,1,80,0,0

[HitObjects]
64,192,1317,5,0,0:0:0:100:8bitkick.wav
192,192,1639,1,0,0:0:0:100:8bitkick.wav
320,192,1962,1,0,0:0:0:100:8bitkick.wav
448,192,2284,1,0,0:0:0:100:8bitkick.wav
192,192,2607,1,0,0:0:0:0:
64,192,2607,1,0,0:0:0:100:8bitsnare.wav
320,192,2929,1,0,0:0:0:0:
448,192,2929,1,0,0:0:0:100:8bitsnare.wav
192,192,3252,1,0,0:0:0:0:
64,192,3252,1,0,0:0:0:100:8bitsnare.wav
448,192,3575,1,0,0:0:0:100:8bitsnare.wav
320,192,3575,1,0,0:0:0:100:8bitkick.wav
64,192,3897,128,0,4220:0:0:0:100:8bitkick.wav
448,192,4220,1,0,0:0:0:100:8bitsnare.wav
320,192,4542,1,0,0:0:0:100:8bitkick.wav
192,192,4704,1,0,0:0:0:100:8bitkick.wav
320,192,5026,1,0,0:0:0:100:8bitkick.wav
64,192,5349,1,0,0:0:0:100:8bitkick.wav
448,192,5510,1,0,0:0:0:100:8bitsnare.wav
192,192,5671,1,0,0:0:0:100:8bitsnare.wav
448,192,5833,1,0,0:0:0:100:8bitkick.wav
320,192,6155,1,0,0:0:0:100:8bitsnare.wav
64,192,6478,128,0,6800:0:0:0:100:8bitkick.wav
448,192,6800,1,0,0:0:0:100:8bitsnare.wav
320,192,7123,1,0,0:0:0:100:8bitkick.wav
192,192,7284,1,0,0:0:0:100:8bitkick.wav
448,192,7607,1,0,0:0:0:100:8bitkick.wav
64,192,7929,1,0,0:0:0:100:8bitkick.wav
448,192,8091,1,0,0:0:0:100:8bitsnare.wav
64,192,8252,1,0,0:0:0:100:8bitsnare.wav
320,192,8413,1,0,0:0:0:100:8bitkick.wav
64,192,8736,1,0,0:0:0:100:8bitsnare.wav
448,192,9058,128,0,9381:0:0:0:100:8bitkick.wav
64,192,9381,1,0,0:0:0:100:8bitsnare.wav
192,192,9704,1,0,0:0:0:100:8bitkick.wav
320,192,9865,1,0,0:0:0:100:8bitkick.wav
192,192,10187,1,0,0:0:0:100:8bitkick.wav
448,192,10510,1,0,0:0:0:100:8bitkick.wav
64,192,10671,1,0,0:0:0:100:8bitsnare.wav
320,192,10833,1,0,0:0:0:0:
192,192,10994,1,0,0:0:0:100:8bitkick.wav
64,192,11316,1,0,0:0:0:100:8bitsnare.wav
448,192,11639,128,0,11962:0:0:0:100:8bitkick.wav
64,192,11962,1,0,0:0:0:100:8bitsnare.wav
192,192,12284,1,0,0:0:0:100:8bitkick.wav
320,192,12446,1,0,0:0:0:100:8bitkick.wav
64,192,12768,1,0,0:0:0:100:8bitkick.wav
448,192,13091,1,0,0:0:0:100:8bitkick.wav
64,192,13252,1,0,0:0:0:100:8bitsnare.wav
320,192,13413,1,0,0:0:0:0:
192,192,13575,1,0,0:0:0:100:8bitkick.wav
448,192,13897,1,0,0:0:0:100:8bitsnare.wav
64,192,14220,1,0,0:0:0:100:8bitkick.wav
64,192,14542,1,0,0:0:0:100:8bitkick.wav
448,192,14865,1,0,0:0:0:100:8bitkick.wav
448,192,15187,1,0,0:0:0:100:8bitkick.wav
192,192,15510,1,0,0:0:0:100:8bitkick.wav
192,192,15833,1,0,0:0:0:100:8bitkick.wav
320,192,16155,1,0,0:0:0:100:8bitkick.wav
320,192,16478,1,0,0:0:0:100:8bitkick.wav
64,192,16800,128,0,17123:0:0:0:100:8bitkick.wav
448,192,17123,128,0,17446:0:0:0:100:8bitkick.wav
64,192,17446,1,0,0:0:0:100:8bitkick.wav
320,192,17607,1,0,0:0:0:0:
192,192,17929,128,0,18252:0:0:0:100:8bitsnare.wav
448,192,18252,1,0,0:0:0:100:8bitsnare.wav
320,192,18413,1,0,0:0:0:100:8bitkick.wav
192,192,18575,1,0,0:0:0:100:8bitsnare.wav
64,192,18736,1,0,0:0:0:100:8bitkick.wav
64,192,19058,1,0,0:0:0:0:
448,192,19058,1,0,0:0:0:100:8bitkick.wav
448,192,19381,1,0,0:0:0:100:8bitkick.wav
448,192,19704,1,0,0:0:0:100:8bitkick.wav
64,192,20026,1,0,0:0:0:100:8bitkick.wav
64,192,20349,1,0,0:0:0:100:8bitkick.wav
320,192,20671,1,0,0:0:0:100:8bitkick.wav
320,192,20994,1,0,0:0:0:100:8bitkick.wav
192,192,21316,1,0,0:0:0:100:8bitkick.wav
192,192,21639,1,0,0:0:0:100:8bitkick.wav
64,192,21962,1,0,0:0:0:100:8bitcrash.wav
448,192,21962,1,0,0:0:0:100:8bitsnare.wav
320,192,23091,1,0,0:0:0:100:8bitsnare.wav
448,192,23091,1,0,0:0:0:100:8bitkick.wav
64,192,23413,1,0,0:0:0:0:
192,192,23413,1,0,0:0:0:100:8bitsnare.wav
320,192,23736,1,0,0:0:0:0:
448,192,23736,1,0,0:0:0:100:8bitsnare.wav
192,192,23897,1,0,0:0:0:100:8bitcrash.wav
64,192,23897,1,0,0:0:0:100:8bitsnare.wav
320,192,24220,1,0,0:0:0:100:8bitsnare.wav
448,192,24220,1,0,0:0:0:100:8bitkick.wav
64,192,24542,1,0,0:0:0:100:8bitkick.wav
448,192,24865,1,0,0:0:0:100:8bitsnare.wav
64,192,25187,1,0,0:0:0:100:8bitkick.wav
320,192,25510,1,0,0:0:0:100:8bitsnare.wav
192,192,25833,1,0,0:0:0:0:
448,192,26155,1,0,0:0:0:100:8bitsnare.wav
64,192,26478,1,0,0:0:0:100:8bitkick.wav
448,192,26800,1,0,0:0:0:100:8bitsnare.wav
64,192,27123,128,0,27446:0:0:0:100:8bitkick.wav
448,192,27446,1,0,0:0:0:100:8bitsnare.wav
192,192,27768,128,0,28091:0:0:0:100:8bitkick.wav
448,192,28091,1,0,0:0:0:100:8bitsnare.wav
64,192,28413,128,0,28736:0:0:0:0:
320,192,28736,1,0,0:0:0:100:8bitsnare.wav
192,192,29058,1,0,0:0:0:100:8bitkick.wav
64,192,29381,1,0,0:0:0:100:8bitsnare.wav
448,192,29704,1,0,0:0:0:100:8bitkick.wav
64,192,30026,1,0,0:0:0:100:8bitsnare.wav
448,192,30349,1,0,0:0:0:100:8bitkick.wav
192,192,30671,1,0,0:0:0:100:8bitsnare.wav
320,192,30994,1,0,0:0:0:0:
64,192,31316,1,0,0:0:0:100:8bitsnare.wav
448,192,31639,1,0,0:0:0:100:8bitkick.wav
64,192,31962,1,0,0:0:0:100:8bitsnare.wav
448,192,32284,128,0,32607:0:0:0:100:8bitkick.wav
64,192,32607,1,0,0:0:0:100:8bitsnare.wav
320,192,32929,128,0,33252:0:0:0:100:8bitkick.wav
64,192,33252,1,0,0:0:0:100:8bitsnare.wav
448,192,33575,128,0,33897:0:0:0:0:
192,192,33897,1,0,0:0:0:100:8bitsnare.wav
320,192,34220,1,0,0:0:0:100:8bitkick.wav
448,192,34542,1,0,0:0:0:100:8bitsnare.wav
64,192,34865,1,0,0:0:0:100:8bitkick.wav
192,192,35187,1,0,0:0:0:100:8bitsnare.wav
320,192,35510,1,0,0:0:0:100:8bitkick.wav
448,192,35671,1,0,0:0:0:0:
64,192,35994,128,0,36316:0:0:0:100:8bitkick.wav
192,192,36316,128,0,36639:0:0:0:100:8bitkick.wav
320,192,36639,1,0,0:0:0:100:8bitsnare.wav
448,192,36800,128,0,37123:0:0:0:100:8bitkick.wav
448,192,37446,1,0,0:0:0:100:8bitkick.wav
320,192,37768,1,0,0:0:0:100:8bitsnare.wav
192,192,38091,1,0,0:0:0:100:8bitkick.wav
64,192,38252,1,0,0:0:0:0:
448,192,38575,128,0,38897:0:0:0:100:8bitkick.wav
320,192,38897,128,0,39220:0:0:0:100:8bitkick.wav
192,192,39220,1,0,0:0:0:100:8bitsnare.wav
64,192,39381,128,0,39704:0:0:0:100:8bitsnare.wav
64,192,40026,1,0,0:0:0:100:8bitkick.wav
192,192,40349,1,0,0:0:0:100:8bitsnare.wav
320,192,40671,1,0,0:0:0:100:8bitkick.wav
448,192,40833,1,0,0:0:0:0:
64,192,41155,128,0,41478:0:0:0:100:8bitkick.wav
192,192,41478,128,0,41800:0:0:0:100:8bitkick.wav
320,192,41800,1,0,0:0:0:100:8bitsnare.wav
448,192,41962,128,0,42284:0:0:0:100:8bitkick.wav
64,192,42607,128,0,43252:0:0:0:100:8bitkick.wav
448,192,43252,128,0,43897:0:0:0:100:8bitkick.wav
64,192,43897,128,0,44220:0:0:0:100:8bitkick.wav
448,192,44220,128,0,44542:0:0:0:100:8bitkick.wav
64,192,44542,128,0,44865:0:0:0:100:8bitkick.wav
448,192,45187,128,0,45510:0:0:0:100:8bitsnare.wav
64,192,45510,128,0,45833:0:0:0:100:8bitsnare.wav
448,192,45833,1,0,0:0:0:100:8bitsnare.wav
320,192,46478,128,0,46800:0:0:0:100:8bitkick.wav
448,192,46800,1,0,0:0:0:100:8bitkick.wav
320,192,47123,128,0,47446:0:0:0:100:8bitkick.wav
192,192,47446,1,0,0:0:0:100:8bitkick.wav
64,192,47768,128,0,48091:0:0:0:100:8bitkick.wav
448,192,48091,1,0,0:0:0:100:8bitkick.wav
320,192,48413,128,0,48736:0:0:0:100:8bitkick.wav
192,192,48736,1,0,0:0:0:100:8bitkick.wav
448,192,49058,1,0,0:0:0:100:8bitkick.wav
320,192,49381,1,0,0:0:0:100:8bitkick.wav
192,192,49704,1,0,0:0:0:100:8bitkick.wav
64,192,50026,1,0,0:0:0:100:8bitkick.wav
448,192,50349,1,0,0:0:0:100:8bitkick.wav
320,192,50510,1,0,0:0:0:100:8bitsnare.wav
192,192,50671,1,0,0:0:0:100:8bitkick.wav
64,192,50833,1,0,0:0:0:100:8bitsnare.wav
192,192,51155,1,0,0:0:0:100:8bitkick.wav
320,192,51316,1,0,0:0:0:100:8bitsnare.wav
192,192,51639,128,0,51962:0:0:0:100:8bitkick.wav
64,192,51962,1,0,0:0:0:100:8bitkick.wav
192,192,52284,128,0,52607:0:0:0:100:8bitkick.wav
320,192,52607,1,0,0:0:0:100:8bitkick.wav
448,192,52929,128,0,53252:0:0:0:100:8bitkick.wav
64,192,53252,1,0,0:0:0:100:8bitkick.wav
192,192,53575,128,0,53897:0:0:0:100:8bitkick.wav
320,192,53897,1,0,0:0:0:100:8bitkick.wav
64,192,54220,128,0,54542:0:0:0:100:8bitkick.wav
448,192,54542,128,0,54865:0:0:0:100:8bitkick.wav
64,192,54865,128,0,55187:0:0:0:100:8bitkick.wav
448,192,55187,1,0,0:0:0:100:8bitkick.wav
320,192,55510,1,0,0:0:0:100:8bitkick.wav
320,192,55833,1,0,0:0:0:100:8bitkick.wav
320,192,56155,1,0,0:0:0:100:8bitkick.wav
192,192,56478,1,0,0:0:0:0:
448,192,56478,1,0,0:0:0:100:8bitsnare.wav
64,192,56800,1,0,0:0:0:100:8bitkick.wav
64,192,57123,1,0,0:0:0:100:8bitkick.wav
64,192,57446,1,0,0:0:0:100:8bitkick.wav
448,192,57607,1,0,0:0:0:0:
64,192,57929,1,0,0:0:0:0:
64,192,58252,1,0,0:0:0:0:
448,192,58413,1,0,0:0:0:100:8bitkick.wav
64,192,58575,1,0,0:0:0:0:
448,192,58736,1,0,0:0:0:100:8bitkick.wav
320,192,59058,1,0,0:0:0:100:8bitsnare.wav
192,192,59058,1,0,0:0:0:100:8bitkick.wav
448,192,59381,128,0,59704:0:0:0:100:8bitkick.wav
64,192,59704,128,0,60026:0:0:0:100:8bitkick.wav
448,192,60026,128,0,60349:0:0:0:100:8bitkick.wav
64,192,60349,1,0,0:0:0:100:8bitkick.wav
192,192,60671,1,0,0:0:0:100:8bitsnare.wav
192,192,60994,1,0,0:0:0:100:8bitsnare.wav
192,192,61316,1,0,0:0:0:100:8bitsnare.wav
320,192,61639,1,0,0:0:0:0:
64,192,61639,1,0,0:0:0:100:8bitsnare.wav
448,192,61962,1,0,0:0:0:100:8bitkick.wav
448,192,62284,1,0,0:0:0:100:8bitkick.wav
448,192,62607,1,0,0:0:0:100:8bitkick.wav
64,192,62768,1,0,0:0:0:0:
448,192,63091,1,0,0:0:0:0:
448,192,63413,1,0,0:0:0:0:
64,192,63575,1,0,0:0:0:100:8bitkick.wav
448,192,63736,1,0,0:0:0:0:
64,192,63897,1,0,0:0:0:100:8bitkick.wav
192,192,64220,1,0,0:0:0:100:8bitsnare.wav
320,192,64220,1,0,0:0:0:100:8bitkick.wav
64,192,64542,128,0,64865:0:0:0:100:8bitkick.wav
448,192,64865,128,0,65187:0:0:0:100:8bitkick.wav
64,192,65187,128,0,65510:0:0:0:100:8bitkick.wav
448,192,65510,1,0,0:0:0:100:8bitkick.wav
320,192,65833,1,0,0:0:0:100:8bitkick.wav
320,192,66155,1,0,0:0:0:100:8bitkick.wav
320,192,66478,1,0,0:0:0:100:8bitkick.wav
448,192,66800,1,0,0:0:0:0:
64,192,66800,1,0,0:0:0:100:8bitsnare.wav
192,192,67123,1,0,0:0:0:100:8bitsnare.wav
192,192,67446,1,0,0:0:0:100:8bitsnare.wav
192,192,67768,1,0,0:0:0:100:8bitsnare.wav
448,192,68413,128,0,68736:0:0:0:100:8bitkick.wav
64,192,68736,1,0,0:0:0:100:8bitsnare.wav
192,192,69058,1,0,0:0:0:100:8bitkick.wav
320,192,69220,1,0,0:0:0:100:8bitkick.wav
192,192,69542,1,0,0:0:0:100:8bitkick.wav
448,192,69865,1,0,0:0:0:100:8bitkick.wav
64,192,70026,1,0,0:0:0:100:8bitsnare.wav
320,192,70187,1,0,0:0:0:100:8bitsnare.wav
192,192,70349,1,0,0:0:0:100:8bitkick.wav
320,192,70671,1,0,0:0:0:100:8bitsnare.wav
448,192,70994,128,0,71316:0:0:0:100:8bitkick.wav
64,192,71316,1,0,0:0:0:100:8bitsnare.wav
192,192,71639,1,0,0:0:0:100:8bitkick.wav
320,192,71800,1,0,0:0:0:100:8bitkick.wav
64,192,72123,1,0,0:0:0:100:8bitkick.wav
448,192,72446,1,0,0:0:0:100:8bitkick.wav
64,192,72607,1,0,0:0:0:100:8bitsnare.wav
320,192,72768,1,0,0:0:0:100:8bitsnare.wav
192,192,72929,1,0,0:0:0:100:8bitkick.wav
192,192,73252,1,0,0:0:0:100:8bitsnare.wav
64,192,73575,128,0,73897:0:0:0:100:8bitkick.wav
448,192,73897,1,0,0:0:0:100:8bitsnare.wav
320,192,74220,1,0,0:0:0:100:8bitkick.wav
192,192,74381,1,0,0:0:0:100:8bitkick.wav
320,192,74704,1,0,0:0:0:100:8bitkick.wav
64,192,75026,1,0,0:0:0:100:8bitkick.wav
448,192,75187,1,0,0:0:0:100:8bitsnare.wav
192,192,75349,1,0,0:0:0:0:
448,192,75510,1,0,0:0:0:100:8bitkick.wav
320,192,75833,1,0,0:0:0:100:8bitsnare.wav
64,192,76155,128,0,76478:0:0:0:100:8bitkick.wav
448,192,76478,1,0,0:0:0:100:8bitsnare.wav
320,192,76800,1,0,0:0:0:100:8bitkick.wav
192,192,76962,1,0,0:0:0:100:8bitkick.wav
448,192,77284,1,0,0:0:0:100:8bitkick.wav
64,192,77607,1,0,0:0:0:100:8bitkick.wav
448,192,77768,1,0,0:0:0:100:8bitsnare.wav
64,192,77929,1,0,0:0:0:0:
320,192,78091,1,0,0:0:0:100:8bitkick.wav
192,192,78413,1,0,0:0:0:100:8bitsnare.wav
64,192,78736,1,0,0:0:0:0:
448,192,78736,1,0,0:0:0:100:8bitkick.wav
448,192,79381,1,0,0:0:0:100:8bitsnare.wav
320,192,79542,1,0,0:0:0:100:8bitsnare.wav
64,192,79704,1,0,0:0:0:100:8bitkick.wav
192,192,79865,1,0,0:0:0:100:8bitsnare.wav
448,192,80026,1,0,0:0:0:100:8bitkick.wav
448,192,80349,1,0,0:0:0:100:8bitcrash.wav
64,192,80349,1,0,0:0:0:100:8bitsnare.wav
448,192,80671,1,0,0:0:0:100:8bitkick.wav
192,192,80994,1,0,0:0:0:100:8bitsnare.wav
64,192,81316,1,0,0:0:0:100:8bitkick.wav
448,192,81639,1,0,0:0:0:100:8bitsnare.wav
64,192,81962,1,0,0:0:0:100:8bitkick.wav
192,192,82123,1,0,0:0:0:100:8bitkick.wav
320,192,82284,1,0,0:0:0:100:8bitsnare.wav
448,192,82446,1,0,0:0:0:100:8bitkick.wav
64,192,82607,1,0,0:0:0:100:8bitkick.wav
320,192,82929,1,0,0:0:0:100:8bitsnare.wav
192,192,83252,1,0,0:0:0:100:8bitkick.wav
448,192,83575,1,0,0:0:0:100:8bitsnare.wav
64,192,83897,1,0,0:0:0:100:8bitkick.wav
320,192,84220,1,0,0:0:0:100:8bitsnare.wav
64,192,84542,1,0,0:0:0:100:8bitkick.wav
192,192,84704,1,0,0:0:0:100:8bitkick.wav
320,192,84865,1,0,0:0:0:100:8bitsnare.wav
448,192,85026,1,0,0:0:0:100:8bitkick.wav
64,192,85187,128,0,85510:0:0:0:100:8bitkick.wav
320,192,85510,1,0,0:0:0:100:8bitcrash.wav
448,192,85510,1,0,0:0:0:100:8bitsnare.wav
64,192,85833,1,0,0:0:0:100:8bitkick.wav
320,192,86155,1,0,0:0:0:100:8bitsnare.wav
448,192,86478,1,0,0:0:0:100:8bitkick.wav
64,192,86800,1,0,0:0:0:100:8bitsnare.wav
448,192,87123,1,0,0:0:0:100:8bitkick.wav
320,192,87284,1,0,0:0:0:100:8bitkick.wav
192,192,87446,1,0,0:0:0:100:8bitsnare.wav
64,192,87607,1,0,0:0:0:100:8bitkick.wav
448,192,87768,1,0,0:0:0:100:8bitkick.wav
192,192,88091,1,0,0:0:0:100:8bitsnare.wav
320,192,88413,1,0,0:0:0:100:8bitkick.wav
64,192,88736,1,0,0:0:0:100:8bitsnare.wav
448,192,89058,1,0,0:0:0:100:8bitkick.wav
192,192,89381,1,0,0:0:0:100:8bitsnare.wav
448,192,89704,1,0,0:0:0:100:8bitkick.wav
320,192,89865,1,0,0:0:0:100:8bitkick.wav
192,192,90026,1,0,0:0:0:100:8bitsnare.wav
64,192,90187,1,0,0:0:0:100:8bitkick.wav
320,192,91478,1,0,0:0:0:100:8bitcrash.wav
192,192,91478,1,0,0:0:0:100:8bitkick.wav
64,192,92123,1,0,0:0:0:100:8bitkick.wav
448,192,92284,1,0,0:0:0:100:8bitsnare.wav
64,192,92607,1,0,0:0:0:100:8bitkick.wav
448,192,92929,1,0,0:0:0:100:8bitkick.wav
448,192,93252,1,0,0:0:0:100:8bitkick.wav
64,192,93575,1,0,0:0:0:100:8bitkick.wav
64,192,93897,1,0,0:0:0:100:8bitkick.wav
320,192,94220,1,0,0:0:0:100:8bitkick.wav
320,192,94542,1,0,0:0:0:100:8bitkick.wav
192,192,94865,1,0,0:0:0:100:8bitkick.wav
192,192,95187,1,0,0:0:0:100:8bitkick.wav
448,192,95510,128,0,95833:0:0:0:100:8bitkick.wav
64,192,95833,128,0,96155:0:0:0:100:8bitkick.wav
448,192,96155,1,0,0:0:0:100:8bitkick.wav
192,192,96316,1,0,0:0:0:0:
320,192,96639,128,0,96962:0:0:0:100:8bitsnare.wav
64,192,96962,1,0,0:0:0:100:8bitsnare.wav
192,192,97123,1,0,0:0:0:100:8bitkick.wav
320,192,97284,1,0,0:0:0:100:8bitsnare.wav
448,192,97446,1,0,0:0:0:100:8bitkick.wav
64,192,97768,1,0,0:0:0:0:
448,192,97768,1,0,0:0:0:100:8bitkick.wav
64,192,98091,1,0,0:0:0:100:8bitkick.wav
64,192,98413,1,0,0:0:0:100:8bitkick.wav
448,192,98736,1,0,0:0:0:100:8bitkick.wav
448,192,99058,1,0,0:0:0:100:8bitkick.wav
192,192,99381,1,0,0:0:0:100:8bitkick.wav
192,192,99704,1,0,0:0:0:100:8bitkick.wav
320,192,100026,1,0,0:0:0:100:8bitkick.wav
320,192,100349,1,0,0:0:0:100:8bitkick.wav
64,192,100671,1,0,0:0:0:100:8bitsnare.wav
448,192,100671,1,0,0:0:0:100:8bitkick.wav
64,192,101800,1,0,0:0:0:100:8bitsnare.wav
448,192,101800,1,0,0:0:0:100:8bitkick.wav
192,192,102123,1,0,0:0:0:0:
320,192,102123,1,0,0:0:0:100:8bitsnare.wav
64,192,102446,1,0,0:0:0:0:
192,192,102446,1,0,0:0:0:100:8bitsnare.wav
448,192,102607,1,0,0:0:0:0:
320,192,102607,1,0,0:0:0:100:8bitsnare.wav
192,192,102929,1,0,0:0:0:0:
320,192,102929,1,0,0:0:0:100:8bitsnare.wav
448,192,103252,128,0,105510:0:0:0:100:8bitcrash.wav
64,192,103252,1,0,0:0:0:100:8bitsnare.wav
64,192,103575,1,0,0:0:0:100:8bitsnare.wav
64,192,103897,1,0,0:0:0:100:8bitsnare.wav
64,192,104220,1,0,0:0:0:100:8bitsnare.wav
192,192,104542,1,0,0:0:0:100:8bitsnare.wav
192,192,104865,1,0,0:0:0:100:8bitsnare.wav
192,192,105187,1,0,0:0:0:100:8bitsnare.wav
192,192,105510,1,0,0:0:0:100:8bitsnare.wav
64,192,105833,128,0,108091:0:0:0:0:
320,192,105833,1,0,0:0:0:100:8bitsnare.wav
320,192,106155,1,0,0:0:0:100:8bitsnare.wav
320,192,106478,1,0,0:0:0:100:8bitsnare.wav
320,192,106800,1,0,0:0:0:100:8bitsnare.wav
448,192,107123,1,0,0:0:0:100:8bitsnare.wav
448,192,107446,1,0,0:0:0:100:8bitsnare.wav
448,192,107768,1,0,0:0:0:100:8bitsnare.wav
448,192,108091,1,0,0:0:0:100:8bitsnare.wav
320,192,108413,128,0,109381:0:0:0:0:
192,192,108413,1,0,0:0:0:100:8bitsnare.wav
192,192,108736,1,0,0:0:0:100:8bitsnare.wav
64,192,109058,1,0,0:0:0:100:8bitsnare.wav
64,192,109381,1,0,0:0:0:100:8bitsnare.wav
192,192,109704,128,0,110671:0:0:0:0:
448,192,109704,1,0,0:0:0:100:8bitsnare.wav
448,192,110026,1,0,0:0:0:100:8bitsnare.wav
320,192,110349,1,0,0:0:0:100:8bitsnare.wav
320,192,110671,1,0,0:0:0:100:8bitsnare.wav
448,192,110994,1,0,0:0:0:100:8bitcrash.wav
64,192,110994,1,0,0:0:0:100:8bitkick.wav
64,192,112123,1,0,0:0:0:100:8bitcrash.wav
192,192,112123,1,0,0:0:0:100:8bitkick.wav
320,192,112446,1,0,0:0:0:100:8bitcrash.wav
448,192,112446,1,0,0:0:0:100:8bitkick.wav
64,192,112768,1,0,0:0:0:100:8bitcrash.wav
192,192,112768,1,0,0:0:0:100:8bitkick.wav
320,192,112929,1,0,0:0:0:0:
448,192,112929,1,0,0:0:0:100:8bitsnare.wav
192,192,113252,1,0,0:0:0:0:
64,192,113252,1,0,0:0:0:100:8bitsnare.wav
448,192,113575,128,0,114220:0:0:0:100:8bitkick.wav
320,192,113897,1,0,0:0:0:100:8bitkick.wav
192,192,114220,1,0,0:0:0:100:8bitkick.wav
64,192,114865,128,0,115510:0:0:0:100:8bitsnare.wav
192,192,115187,1,0,0:0:0:100:8bitsnare.wav
320,192,115510,1,0,0:0:0:100:8bitsnare.wav
448,192,116155,128,0,116800:0:0:0:100:8bitsnare.wav
64,192,116478,128,0,116800:0:0:0:100:8bitsnare.wav
320,192,116800,128,0,117446:0:0:0:100:8bitsnare.wav
192,192,117123,128,0,117446:0:0:0:100:8bitsnare.wav
64,192,117446,1,0,0:0:0:0:
448,192,117446,1,0,0:0:0:100:8bitsnare.wav
64,192,117768,1,0,0:0:0:100:8bitsnare.wav
448,192,118091,1,0,0:0:0:100:8bitsnare.wav
64,192,118413,1,0,0:0:0:100:8bitsnare.wav
320,192,118736,1,0,0:0:0:100:8bitsnare.wav
448,192,118736,1,0,0:0:0:100:8bitkick.wav
192,192,119381,1,0,0:0:0:100:8bitsnare.wav
64,192,119381,1,0,0:0:0:100:8bitkick.wav
320,192,120026,1,0,0:0:0:0:
448,192,120026,1,0,0:0:0:100:8bitsnare.wav
192,192,120349,1,0,0:0:0:0:
64,192,120349,1,0,0:0:0:100:8bitsnare.wav
320,192,120671,1,0,0:0:0:0:
448,192,120671,1,0,0:0:0:100:8bitsnare.wav
64,192,122607,1,0,0:0:0:100:8bitkick.wav
192,192,122768,1,0,0:0:0:100:8bitsnare.wav
320,192,122929,1,0,0:0:0:100:8bitkick.wav
448,192,123091,1,0,0:0:0:100:8bitsnare.wav
64,192,123413,1,0,0:0:0:100:8bitkick.wav
448,192,123575,1,0,0:0:0:100:8bitsnare.wav
192,192,123897,1,0,0:0:0:100:8bitkick.wav
320,192,124220,1,0,0:0:0:100:8bitkick.wav
64,192,124542,1,0,0:0:0:100:8bitkick.wav
320,192,124865,1,0,0:0:0:100:8bitkick.wav
192,192,125187,1,0,0:0:0:100:8bitkick.wav
448,192,125510,1,0,0:0:0:100:8bitkick.wav
192,192,125833,1,0,0:0:0:100:8bitkick.wav
320,192,126155,1,0,0:0:0:100:8bitkick.wav
64,192,126478,1,0,0:0:0:100:8bitsnare.wav
192,192,126478,1,0,0:0:0:100:8bitkick.wav
320,192,126639,1,0,0:0:0:100:8bitsnare.wav
448,192,126639,1,0,0:0:0:100:8bitkick.wav
64,192,127123,1,0,0:0:0:100:8bitsnare.wav
192,192,127123,1,0,0:0:0:100:8bitkick.wav
448,192,127446,1,0,0:0:0:100:8bitkick.wav
192,192,127768,1,0,0:0:0:0:
64,192,127768,1,0,0:0:0:100:8bitkick.wav
320,192,128091,1,0,0:0:0:0:
192,192,128091,1,0,0:0:0:100:8bitkick.wav
64,192,128413,1,0,0:0:0:0:
192,192,128413,1,0,0:0:0:100:8bitkick.wav
320,192,129058,1,0,0:0:0:0:
448,192,129058,1,0,0:0:0:100:8bitsnare.wav
320,192,129381,1,0,0:0:0:0:
192,192,129381,1,0,0:0:0:100:8bitsnare.wav
320,192,129704,1,0,0:0:0:0:
448,192,129704,1,0,0:0:0:100:8bitsnare.wav
64,192,130026,1,0,0:0:0:100:8bitsnare.wav
192,192,130349,128,0,130671:0:0:0:100:8bitkick.wav
64,192,130671,1,0,0:0:0:100:8bitkick.wav
192,192,130994,128,0,131316:0:0:0:100:8bitkick.wav
320,192,131316,1,0,0:0:0:100:8bitkick.wav
448,192,131639,128,0,131962:0:0:0:100:8bitkick.wav
64,192,131962,1,0,0:0:0:100:8bitkick.wav
192,192,132284,128,0,132607:0:0:0:100:8bitkick.wav
320,192,132607,1,0,0:0:0:100:8bitkick.wav
64,192,132929,1,0,0:0:0:100:8bitkick.wav
192,192,133252,1,0,0:0:0:100:8bitkick.wav
320,192,133575,1,0,0:0:0:100:8bitkick.wav
448,192,133897,1,0,0:0:0:100:8bitkick.wav
64,192,134220,1,0,0:0:0:100:8bitkick.wav
192,192,134381,1,0,0:0:0:100:8bitsnare.wav
320,192,134542,1,0,0:0:0:100:8bitkick.wav
448,192,134704,1,0,0:0:0:100:8bitsnare.wav
320,192,135026,1,0,0:0:0:100:8bitkick.wav
192,192,135187,1,0,0:0:0:100:8bitsnare.wav
320,192,135510,128,0,135833:0:0:0:100:8bitkick.wav
448,192,135833,1,0,0:0:0:100:8bitkick.wav
320,192,136155,128,0,136478:0:0:0:100:8bitkick.wav
192,192,136478,1,0,0:0:0:100:8bitkick.wav
64,192,136800,128,0,137123:0:0:0:100:8bitkick.wav
448,192,137123,1,0,0:0:0:100:8bitkick.wav
320,192,137446,128,0,137768:0:0:0:100:8bitkick.wav
192,192,137768,1,0,0:0:0:100:8bitkick.wav
448,192,138091,128,0,138413:0:0:0:100:8bitkick.wav
64,192,138413,128,0,138736:0:0:0:100:8bitkick.wav
448,192,138736,128,0,139058:0:0:0:100:8bitkick.wav
64,192,139058,1,0,0:0:0:100:8bitkick.wav
192,192,139381,1,0,0:0:0:100:8bitkick.wav
192,192,139704,1,0,0:0:0:100:8bitkick.wav
192,192,140026,1,0,0:0:0:100:8bitkick.wav
64,192,140349,1,0,0:0:0:0:
320,192,140349,1,0,0:0:0:100:8bitsnare.wav
448,192,140671,1,0,0:0:0:100:8bitkick.wav
448,192,140994,1,0,0:0:0:100:8bitkick.wav
448,192,141316,1,0,0:0:0:100:8bitkick.wav
64,192,141478,1,0,0:0:0:0:
448,192,141800,1,0,0:0:0:0:
448,192,142123,1,0,0:0:0:0:
64,192,142284,1,0,0:0:0:100:8bitkick.wav
448,192,142446,1,0,0:0:0:0:
64,192,142607,1,0,0:0:0:100:8bitkick.wav
320,192,142929,1,0,0:0:0:100:8bitsnare.wav
192,192,142929,1,0,0:0:0:100:8bitkick.wav
64,192,143252,128,0,143575:0:0:0:100:8bitkick.wav
448,192,143575,128,0,143897:0:0:0:100:8bitkick.wav
64,192,143897,128,0,144220:0:0:0:100:8bitkick.wav
448,192,144220,1,0,0:0:0:100:8bitkick.wav
320,192,144542,1,0,0:0:0:100:8bitsnare.wav
320,192,144865,1,0,0:0:0:100:8bitsnare.wav
320,192,145187,1,0,0:0:0:100:8bitsnare.wav
448,192,145510,1,0,0:0:0:0:
192,192,145510,1,0,0:0:0:100:8bitsnare.wav
64,192,145833,1,0,0:0:0:100:8bitkick.wav
64,192,146155,1,0,0:0:0:100:8bitkick.wav
64,192,146478,1,0,0:0:0:100:8bitkick.wav
448,192,146639,1,0,0:0:0:0:
64,192,146962,1,0,0:0:0:0:
64,192,147284,1,0,0:0:0:0:
448,192,147446,1,0,0:0:0:100:8bitkick.wav
64,192,147607,1,0,0:0:0:0:
448,192,147768,1,0,0:0:0:100:8bitkick.wav
192,192,148091,1,0,0:0:0:100:8bitsnare.wav
320,192,148091,1,0,0:0:0:100:8bitkick.wav
448,192,148413,128,0,148736:0:0:0:100:8bitkick.wav
64,192,148736,128,0,149058:0:0:0:100:8bitkick.wav
448,192,149058,128,0,149381:0:0:0:100:8bitkick.wav
64,192,149381,1,0,0:0:0:100:8bitkick.wav
192,192,149704,1,0,0:0:0:100:8bitkick.wav
192,192,150026,1,0,0:0:0:100:8bitkick.wav
192,192,150349,1,0,0:0:0:100:8bitkick.wav
448,192,150671,1,0,0:0:0:0:
64,192,150671,1,0,0:0:0:100:8bitsnare.wav
320,192,150994,1,0,0:0:0:100:8bitsnare.wav
320,192,151316,1,0,0:0:0:100:8bitsnare.wav
320,192,151639,1,0,0:0:0:100:8bitsnare.wav
192,192,152284,1,0,0:0:0:100:8bitkick.wav
192,192,152607,1,0,0:0:0:100:8bitkick.wav
320,192,152929,1,0,0:0:0:100:8bitkick.wav
320,192,153252,1,0,0:0:0:100:8bitkick.wav
192,192,153575,1,0,0:0:0:100:8bitsnare.wav
64,192,153575,1,0,0:0:0:100:8bitkick.wav
192,192,153897,1,0,0:0:0:100:8bitsnare.wav
64,192,153897,1,0,0:0:0:100:8bitkick.wav
320,192,154220,1,0,0:0:0:100:8bitsnare.wav
448,192,154220,1,0,0:0:0:100:8bitkick.wav
320,192,154542,1,0,0:0:0:100:8bitsnare.wav
448,192,154542,1,0,0:0:0:100:8bitkick.wav
192,192,154865,1,0,0:0:0:100:8bitsnare.wav
64,192,154865,1,0,0:0:0:100:8bitkick.wav
448,192,155187,1,0,0:0:0:100:8bitsnare.wav
192,192,155510,1,0,0:0:0:0:
320,192,155510,1,0,0:0:0:100:8bitkick.wav
64,192,156155,128,0,156478:0:0:0:100:8bitkick.wav
448,192,156478,1,0,0:0:0:100:8bitsnare.wav
320,192,156800,1,0,0:0:0:100:8bitkick.wav
192,192,156962,1,0,0:0:0:100:8bitkick.wav
320,192,157284,1,0,0:0:0:100:8bitkick.wav
64,192,157607,1,0,0:0:0:100:8bitkick.wav
448,192,157768,1,0,0:0:0:100:8bitsnare.wav
192,192,157929,1,0,0:0:0:100:8bitsnare.wav
448,192,158091,1,0,0:0:0:100:8bitkick.wav
192,192,158413,1,0,0:0:0:100:8bitsnare.wav
64,192,158736,128,0,159058:0:0:0:100:8bitkick.wav
448,192,159058,1,0,0:0:0:100:8bitsnare.wav
320,192,159381,1,0,0:0:0:100:8bitkick.wav
192,192,159542,1,0,0:0:0:100:8bitkick.wav
448,192,159865,1,0,0:0:0:100:8bitkick.wav
64,192,160187,1,0,0:0:0:100:8bitkick.wav
448,192,160349,1,0,0:0:0:100:8bitsnare.wav
64,192,160510,1,0,0:0:0:100:8bitsnare.wav
320,192,160671,1,0,0:0:0:100:8bitkick.wav
64,192,160994,1,0,0:0:0:100:8bitsnare.wav
448,192,161316,128,0,161639:0:0:0:100:8bitkick.wav
64,192,161639,1,0,0:0:0:100:8bitsnare.wav
192,192,161962,1,0,0:0:0:100:8bitkick.wav
320,192,162123,1,0,0:0:0:100:8bitkick.wav
192,192,162446,1,0,0:0:0:100:8bitkick.wav
448,192,162768,1,0,0:0:0:100:8bitkick.wav
64,192,162929,1,0,0:0:0:100:8bitsnare.wav
320,192,163091,1,0,0:0:0:0:
64,192,163252,1,0,0:0:0:100:8bitkick.wav
320,192,163575,1,0,0:0:0:100:8bitsnare.wav
448,192,163897,128,0,164220:0:0:0:100:8bitkick.wav
64,192,164220,1,0,0:0:0:100:8bitsnare.wav
192,192,164542,1,0,0:0:0:100:8bitkick.wav
320,192,164704,1,0,0:0:0:100:8bitkick.wav
64,192,165026,1,0,0:0:0:100:8bitkick.wav
448,192,165349,1,0,0:0:0:100:8bitkick.wav
64,192,165510,1,0,0:0:0:100:8bitsnare.wav
448,192,165671,1,0,0:0:0:0:
192,192,165833,1,0,0:0:0:100:8bitkick.wav
448,192,166155,1,0,0:0:0:100:8bitsnare.wav
320,192,166478,1,0,0:0:0:0:
192,192,166478,1,0,0:0:0:100:8bitkick.wav
192,192,166962,1,0,0:0:0:100:8bitkick.wav
448,192,167123,1,0,0:0:0:100:8bitsnare.wav
320,192,167284,1,0,0:0:0:100:8bitsnare.wav
64,192,167446,1,0,0:0:0:100:8bitkick.wav
192,192,167607,1,0,0:0:0:100:8bitsnare.wav
448,192,167768,1,0,0:0:0:0:
320,192,167768,1,0,0:0:0:100:8bitkick.wav
