osu file format v14

[General]
AudioFilename: audio.ogg
AudioLeadIn: 0
PreviewTime: 46478
Countdown: 0
SampleSet: Soft
StackLeniency: 0.7
Mode: 3
LetterboxInBreaks: 0
EpilepsyWarning: 1
SpecialStyle: 0
WidescreenStoryboard: 1

[Editor]
DistanceSpacing: 0.8
BeatDivisor: 2
GridSize: 16
TimelineZoom: 1.3

[Metadata]
Title:Bug
TitleUnicode:バグ
Artist:25-ji, Nightcord de. x Kagamine Len
ArtistUnicode:25時、ナイトコードで。 × 鏡音レン
Creator:Ryu Sei
Version:[e[][r[][r
Source:プロジェクトセカイ カラフルステージ! feat. 初音ミク
Tags:Project SEKAI Colorful Stage! feat. Hatsune Miku pjsk prsk proseka vocaloid かいりきベア Kairiki Bear Asahina Mafuyu 朝比奈まふゆ Tanabe Rui 田辺留依 Yoisaki Kanade 宵崎奏 Kusunoki Tomori 楠木ともり Shinonome Ena 東雲絵名 Suzuki Minori 鈴木みのり Akiyama Mizuki 暁山瑞希 Satou Hinata 佐藤日向 N25 ニーゴ Nightcord at 25:00 迷い子の手を引く、そのさきは mayoiko no te o hiku, sono saki wa SEGA electronic japanese bagu 株式会社 Palette SV slider velocity gimmick colourful jpop j-pop pop ft. featuring
BeatmapID:3825242
BeatmapSetID:1860586

[Difficulty]
HPDrainRate:7.9
CircleSize:4
OverallDifficulty:7.9
ApproachRate:5
SliderMultiplier:1.4
SliderTickRate:1

[Events]
//Background and Video events
Video,-33,"video.mp4"
0,0,"bugbg-top-glitched.jpg",0,0
//Break Periods
//Storyboard Layer 0 (Background)
//Storyboard Layer 1 (Fail)
//Storyboard Layer 2 (Pass)
//Storyboard Layer 3 (Foreground)
//Storyboard Layer 4 (Overlay)
//Storyboard Sound Samples
Sample,92607,0,"8bitsnare.wav",100
Sample,143252,0,"8bitcrash.wav",100
Sample,143575,0,"8bitsnare.wav",100
Sample,144220,0,"8bitsnare.wav",100
Sample,148413,0,"8bitcrash.wav",100
Sample,148736,0,"8bitsnare.wav",100
Sample,149381,0,"8bitsnare.wav",100

[TimingPoints]
1317,322.58064516129,4,2,1,60,1,0
46155,-100,4,2,1,25,0,0
46478,-101.010101010101,4,2,1,40,0,1
50833,-11.7785630153121,4,2,1,40,0,1
50853,-204.081632653061,4,2,1,40,0,1
51155,-101.010101010101,4,2,1,40,0,1
56478,-100,4,2,1,40,0,0
56800,-10,4,2,1,40,0,1
56803,-101.010101010101,4,2,1,40,0,1
57123,-10,4,2,1,40,0,1
57126,-101.010101010101,4,2,1,40,0,1
57446,-10,4,2,1,40,0,1
57449,-101.010101010101,4,2,1,40,0,1
57607,-10,4,2,1,40,0,1
57610,-101.010101010101,4,2,1,40,0,1
57929,-10,4,2,1,40,0,1
57932,-101.010101010101,4,2,1,40,0,1
58252,-10,4,2,1,40,0,1
58255,-101.010101010101,4,2,1,40,0,1
58413,-10,4,2,1,40,0,1
58416,-101.010101010101,4,2,1,40,0,1
58575,-10,4,2,1,40,0,1
58578,-101.010101010101,4,2,1,40,0,1
58736,-10,4,2,1,40,0,1
58739,-101.010101010101,4,2,1,40,0,1
61962,-10,4,2,1,40,0,1
61965,-101.010101010101,4,2,1,40,0,1
62285,-10,4,2,1,40,0,1
62288,-101.010101010101,4,2,1,40,0,1
62608,-10,4,2,1,40,0,1
62611,-101.010101010101,4,2,1,40,0,1
62769,-10,4,2,1,40,0,1
62772,-101.010101010101,4,2,1,40,0,1
63091,-10,4,2,1,40,0,1
63094,-101.010101010101,4,2,1,40,0,1
63414,-10,4,2,1,40,0,1
63417,-101.010101010101,4,2,1,40,0,1
63575,-10,4,2,1,40,0,1
63578,-101.010101010101,4,2,1,40,0,1
63737,-10,4,2,1,40,0,1
63740,-101.010101010101,4,2,1,40,0,1
63898,-10,4,2,1,40,0,1
63901,-101.010101010101,4,2,1,40,0,1
68413,-100,4,2,1,60,0,0
80187,-10000,4,2,1,60,0,0
80329,-12.6103404791929,4,2,1,60,0,0
80349,-100,4,2,1,40,0,0
85187,-25.1889168765743,4,2,1,40,0,0
85208,-10000,4,2,1,40,0,0
85268,-25.1889168765743,4,2,1,40,0,0
85288,-10000,4,2,1,40,0,0
85349,-25.1889168765743,4,2,1,40,0,0
85369,-10000,4,2,1,40,0,0
85429,-25.1889168765743,4,2,1,40,0,0
85450,-10000,4,2,1,40,0,0
85510,-100,4,2,1,40,0,0
90349,-100,4,2,1,80,0,0
91478,-50.251256281407,4,2,1,60,0,0
91498,-10000,4,2,1,60,0,0
91518,-50.5050505050505,4,2,1,60,0,0
91538,-5000,4,2,1,60,0,0
91558,-50.761421319797,4,2,1,60,0,0
91579,-3333.33333333333,4,2,1,60,0,0
91599,-51.0204081632653,4,2,1,60,0,0
91619,-2500,4,2,1,60,0,0
91639,-51.2820512820513,4,2,1,60,0,0
91659,-2000,4,2,1,60,0,0
91679,-51.5463917525773,4,2,1,60,0,0
91700,-1666.66666666667,4,2,1,60,0,0
91720,-51.8134715025907,4,2,1,60,0,0
91740,-1428.57142857143,4,2,1,60,0,0
91760,-52.0833333333333,4,2,1,60,0,0
91780,-1250,4,2,1,60,0,0
91800,-52.3560209424084,4,2,1,60,0,0
91821,-1111.11111111111,4,2,1,60,0,0
91841,-52.6315789473684,4,2,1,60,0,0
91861,-1000,4,2,1,60,0,0
91881,-52.9100529100529,4,2,1,60,0,0
91901,-909.090909090909,4,2,1,60,0,0
91921,-53.1914893617021,4,2,1,60,0,0
91941,-833.333333333333,4,2,1,60,0,0
91961,-53.475935828877,4,2,1,60,0,0
91982,-769.230769230769,4,2,1,60,0,0
92002,-53.763440860215,4,2,1,60,0,0
92022,-714.285714285714,4,2,1,60,0,0
92042,-54.054054054054,4,2,1,60,0,0
92062,-666.666666666667,4,2,1,60,0,0
92082,-54.3478260869565,4,2,1,60,0,0
92103,-625,4,2,1,60,0,0
92123,-100,4,2,1,60,0,0
103252,-5000,4,2,1,60,0,0
103272,-100,4,2,1,60,0,0
103575,-5000,4,2,1,60,0,0
103595,-100,4,2,1,60,0,0
103897,-5000,4,2,1,60,0,0
103917,-100,4,2,1,60,0,0
104058,-5000,4,2,1,60,0,0
104079,-100,4,2,1,60,0,0
104220,-5000,4,2,1,60,0,0
104240,-100,4,2,1,60,0,0
104381,-5000,4,2,1,60,0,0
104401,-100,4,2,1,60,0,0
104542,-5000,4,2,1,60,0,0
104562,-100,4,2,1,60,0,0
104865,-5000,4,2,1,60,0,0
104885,-100,4,2,1,60,0,0
105187,-5000,4,2,1,60,0,0
105207,-100,4,2,1,60,0,0
105348,-5000,4,2,1,60,0,0
105369,-100,4,2,1,60,0,0
105510,-5000,4,2,1,60,0,0
105530,-100,4,2,1,60,0,0
105671,-5000,4,2,1,60,0,0
105691,-100,4,2,1,60,0,0
105832,-5000,4,2,1,60,0,0
105852,-100,4,2,1,60,0,0
106155,-5000,4,2,1,60,0,0
106175,-100,4,2,1,60,0,0
106477,-5000,4,2,1,60,0,0
106497,-100,4,2,1,60,0,0
106638,-5000,4,2,1,60,0,0
106659,-100,4,2,1,60,0,0
106800,-5000,4,2,1,60,0,0
106820,-100,4,2,1,60,0,0
106961,-5000,4,2,1,60,0,0
106981,-100,4,2,1,60,0,0
107122,-5000,4,2,1,60,0,0
107142,-100,4,2,1,60,0,0
107445,-5000,4,2,1,60,0,0
107465,-100,4,2,1,60,0,0
107767,-5000,4,2,1,60,0,0
107787,-100,4,2,1,60,0,0
107928,-5000,4,2,1,60,0,0
107949,-100,4,2,1,60,0,0
108090,-5000,4,2,1,60,0,0
108110,-100,4,2,1,60,0,0
108251,-5000,4,2,1,60,0,0
108271,-100,4,2,1,60,0,0
108412,-5000,4,2,1,60,0,0
108432,-100,4,2,1,60,0,0
108735,-5000,4,2,1,60,0,0
108755,-100,4,2,1,60,0,0
109057,-5000,4,2,1,60,0,0
109077,-100,4,2,1,60,0,0
109218,-5000,4,2,1,60,0,0
109239,-100,4,2,1,60,0,0
109380,-5000,4,2,1,60,0,0
109400,-100,4,2,1,60,0,0
109541,-5000,4,2,1,60,0,0
109561,-100,4,2,1,60,0,0
109702,-5000,4,2,1,60,0,0
109722,-100,4,2,1,60,0,0
110025,-5000,4,2,1,60,0,0
110045,-100,4,2,1,60,0,0
110347,-5000,4,2,1,60,0,0
110367,-100,4,2,1,60,0,0
110508,-5000,4,2,1,60,0,0
110529,-100,4,2,1,60,0,0
110670,-5000,4,2,1,60,0,0
110690,-100,4,2,1,60,0,0
110831,-5000,4,2,1,60,0,0
110851,-100,4,2,1,40,0,0
121316,-10.01001001001,4,2,1,40,0,0
121337,-131.578947368421,4,2,1,40,0,0
122607,-100,4,2,1,40,0,0
123897,-100,4,2,1,60,0,0
126478,-100,4,2,1,40,0,0
130349,-101.010101010101,4,2,1,40,0,1
134704,-11.7785630153121,4,2,1,40,0,1
134724,-204.081632653061,4,2,1,40,0,1
135026,-101.010101010101,4,2,1,40,0,1
140349,-100,4,2,1,40,0,0
140671,-10,4,2,1,40,0,1
140674,-101.010101010101,4,2,1,40,0,1
140994,-10,4,2,1,40,0,1
140997,-101.010101010101,4,2,1,40,0,1
141317,-10,4,2,1,40,0,1
141320,-101.010101010101,4,2,1,40,0,1
141478,-10,4,2,1,40,0,1
141481,-101.010101010101,4,2,1,40,0,1
141800,-10,4,2,1,40,0,1
141803,-101.010101010101,4,2,1,40,0,1
142123,-10,4,2,1,40,0,1
142126,-101.010101010101,4,2,1,40,0,1
142284,-10,4,2,1,40,0,1
142287,-101.010101010101,4,2,1,40,0,1
142446,-10,4,2,1,40,0,1
142449,-101.010101010101,4,2,1,40,0,1
142607,-10,4,2,1,40,0,1
142610,-101.010101010101,4,2,1,40,0,1
145833,-10,4,2,1,40,0,1
145836,-101.010101010101,4,2,1,40,0,1
146156,-10,4,2,1,40,0,1
146159,-101.010101010101,4,2,1,40,0,1
146479,-10,4,2,1,40,0,1
146482,-101.010101010101,4,2,1,40,0,1
146640,-10,4,2,1,40,0,1
146643,-101.010101010101,4,2,1,40,0,1
146962,-10,4,2,1,40,0,1
146965,-101.010101010101,4,2,1,40,0,1
147285,-10,4,2,1,40,0,1
147288,-101.010101010101,4,2,1,40,0,1
147446,-10,4,2,1,40,0,1
147449,-101.010101010101,4,2,1,40,0,1
147608,-10,4,2,1,40,0,1
147611,-101.010101010101,4,2,1,40,0,1
147769,-10,4,2,1,40,0,1
147772,-101.010101010101,4,2,1,40,0,1
155510,-100,4,2,1,60,0,0

[HitObjects]
64,192,994,5,0,0:0:0:0:
192,192,1075,1,0,0:0:0:0:
320,192,1155,1,0,0:0:0:0:
448,192,1236,1,0,0:0:0:0:
192,192,1317,1,0,0:0:0:0:
320,192,1317,1,0,0:0:0:100:8bitcrash.wav
64,192,1317,128,0,1478:0:0:0:100:8bitkick.wav
192,192,1478,1,0,0:0:0:0:
448,192,1639,128,0,1800:0:0:0:0:
320,192,1639,1,0,0:0:0:100:8bitcrash.wav
192,192,1639,1,0,0:0:0:100:8bitkick.wav
320,192,1800,1,0,0:0:0:0:
320,192,1962,1,0,0:0:0:0:
64,192,1962,128,0,2123:0:0:0:100:8bitcrash.wav
192,192,1962,1,0,0:0:0:100:8bitkick.wav
448,192,2123,1,0,0:0:0:0:
320,192,2204,1,0,0:0:0:0:
448,192,2284,1,0,0:0:0:0:
192,192,2284,128,0,2446:0:0:0:100:8bitcrash.wav
64,192,2284,1,0,0:0:0:100:8bitkick.wav
64,192,2446,1,0,0:0:0:100:8bitkick.wav
192,192,2526,1,0,0:0:0:100:8bitkick.wav
320,192,2607,1,0,0:0:0:0:
448,192,2607,1,0,0:0:0:100:8bitsnare.wav
448,192,2768,1,0,0:0:0:100:8bitkick.wav
320,192,2849,1,0,0:0:0:100:8bitkick.wav
192,192,2929,1,0,0:0:0:0:
64,192,2929,1,0,0:0:0:100:8bitsnare.wav
64,192,3091,1,0,0:0:0:100:8bitkick.wav
192,192,3171,1,0,0:0:0:100:8bitkick.wav
448,192,3252,1,0,0:0:0:0:
320,192,3252,1,0,0:0:0:0:
64,192,3252,1,0,0:0:0:100:8bitsnare.wav
192,192,3575,128,0,3655:0:0:0:100:8bitsnare.wav
320,192,3575,128,0,3655:0:0:0:100:8bitkick.wav
320,192,3897,1,0,0:0:0:100:8bitcrash.wav
448,192,3897,1,0,0:0:0:100:8bitkick.wav
64,192,3897,128,0,4058:0:0:0:0:
448,192,4220,128,0,4381:0:0:0:0:
320,192,4220,1,0,0:0:0:0:
192,192,4220,1,0,0:0:0:100:8bitsnare.wav
320,192,4542,128,0,4704:0:0:0:0:
64,192,4542,1,0,0:0:0:100:8bitkick.wav
192,192,4704,128,0,4865:0:0:0:0:
64,192,4704,1,0,0:0:0:100:8bitkick.wav
448,192,4865,1,0,0:0:0:0:
320,192,4865,1,0,0:0:0:100:8bitsnare.wav
320,192,5026,128,0,5187:0:0:0:0:
64,192,5026,1,0,0:0:0:100:8bitkick.wav
64,192,5349,1,0,0:0:0:0:
448,192,5349,1,0,0:0:0:100:8bitkick.wav
192,192,5429,1,0,0:0:0:0:
320,192,5510,1,0,0:0:0:0:
64,192,5510,1,0,0:0:0:100:8bitsnare.wav
320,192,5671,1,0,0:0:0:0:
448,192,5671,1,0,0:0:0:100:8bitsnare.wav
64,192,5752,1,0,0:0:0:0:
192,192,5833,1,0,0:0:0:100:8bitkick.wav
320,192,5994,1,0,0:0:0:0:
192,192,6075,1,0,0:0:0:0:
448,192,6155,1,0,0:0:0:0:
64,192,6155,1,0,0:0:0:100:8bitsnare.wav
320,192,6316,1,0,0:0:0:0:
192,192,6478,1,0,0:0:0:100:8bitcrash.wav
448,192,6478,128,0,6639:0:0:0:0:
64,192,6478,1,0,0:0:0:100:8bitkick.wav
320,192,6800,1,0,0:0:0:0:
64,192,6800,128,0,6962:0:0:0:0:
192,192,6800,1,0,0:0:0:100:8bitsnare.wav
192,192,7123,128,0,7284:0:0:0:0:
448,192,7123,1,0,0:0:0:100:8bitkick.wav
320,192,7284,128,0,7446:0:0:0:0:
448,192,7284,1,0,0:0:0:100:8bitkick.wav
64,192,7446,1,0,0:0:0:0:
192,192,7446,1,0,0:0:0:100:8bitsnare.wav
192,192,7607,128,0,7768:0:0:0:0:
448,192,7607,1,0,0:0:0:100:8bitkick.wav
448,192,7929,1,0,0:0:0:0:
64,192,7929,1,0,0:0:0:100:8bitkick.wav
320,192,8010,1,0,0:0:0:0:
192,192,8091,1,0,0:0:0:0:
448,192,8091,1,0,0:0:0:100:8bitsnare.wav
192,192,8252,1,0,0:0:0:0:
64,192,8252,1,0,0:0:0:100:8bitsnare.wav
448,192,8333,1,0,0:0:0:0:
320,192,8413,1,0,0:0:0:100:8bitkick.wav
192,192,8575,1,0,0:0:0:0:
320,192,8655,1,0,0:0:0:0:
64,192,8736,1,0,0:0:0:0:
448,192,8736,1,0,0:0:0:100:8bitsnare.wav
192,192,8897,1,0,0:0:0:0:
448,192,9058,1,0,0:0:0:100:8bitkick.wav
320,192,9058,1,0,0:0:0:100:8bitcrash.wav
64,192,9058,128,0,9220:0:0:0:0:
192,192,9381,1,0,0:0:0:0:
448,192,9381,128,0,9542:0:0:0:0:
320,192,9381,1,0,0:0:0:100:8bitsnare.wav
192,192,9704,128,0,9865:0:0:0:0:
64,192,9704,1,0,0:0:0:100:8bitkick.wav
320,192,9865,128,0,10026:0:0:0:0:
64,192,9865,1,0,0:0:0:100:8bitkick.wav
448,192,10026,1,0,0:0:0:0:
192,192,10026,1,0,0:0:0:100:8bitsnare.wav
448,192,10187,128,0,10349:0:0:0:0:
64,192,10187,1,0,0:0:0:100:8bitkick.wav
64,192,10510,1,0,0:0:0:0:
448,192,10510,1,0,0:0:0:100:8bitkick.wav
320,192,10591,1,0,0:0:0:0:
192,192,10671,1,0,0:0:0:0:
64,192,10671,1,0,0:0:0:100:8bitsnare.wav
448,192,10833,1,0,0:0:0:0:
64,192,10913,1,0,0:0:0:0:
320,192,10994,1,0,0:0:0:100:8bitkick.wav
192,192,11155,1,0,0:0:0:0:
320,192,11236,1,0,0:0:0:0:
448,192,11316,1,0,0:0:0:0:
64,192,11316,1,0,0:0:0:100:8bitsnare.wav
192,192,11478,1,0,0:0:0:0:
320,192,11639,1,0,0:0:0:100:8bitcrash.wav
64,192,11639,1,0,0:0:0:100:8bitkick.wav
448,192,11639,128,0,11800:0:0:0:0:
192,192,11962,1,0,0:0:0:0:
64,192,11962,128,0,12123:0:0:0:0:
320,192,11962,1,0,0:0:0:100:8bitsnare.wav
320,192,12284,128,0,12446:0:0:0:0:
448,192,12284,1,0,0:0:0:100:8bitkick.wav
192,192,12446,128,0,12607:0:0:0:0:
448,192,12446,1,0,0:0:0:100:8bitkick.wav
64,192,12607,1,0,0:0:0:0:
320,192,12607,1,0,0:0:0:100:8bitsnare.wav
64,192,12768,128,0,12929:0:0:0:0:
448,192,12768,1,0,0:0:0:100:8bitkick.wav
448,192,13091,1,0,0:0:0:0:
64,192,13091,1,0,0:0:0:100:8bitkick.wav
192,192,13171,1,0,0:0:0:0:
320,192,13252,1,0,0:0:0:0:
448,192,13252,1,0,0:0:0:100:8bitsnare.wav
64,192,13413,1,0,0:0:0:0:
448,192,13494,1,0,0:0:0:0:
192,192,13575,1,0,0:0:0:100:8bitkick.wav
320,192,13736,1,0,0:0:0:0:
192,192,13816,1,0,0:0:0:0:
64,192,13897,1,0,0:0:0:0:
448,192,13897,1,0,0:0:0:100:8bitsnare.wav
320,192,14058,1,0,0:0:0:0:
448,192,14220,128,0,14381:0:0:0:0:
64,192,14220,1,0,0:0:0:100:8bitcrash.wav
192,192,14220,1,0,0:0:0:100:8bitkick.wav
192,192,14542,128,0,14704:0:0:0:0:
64,192,14542,1,0,0:0:0:100:8bitkick.wav
448,192,14865,128,0,15026:0:0:0:0:
320,192,14865,1,0,0:0:0:100:8bitkick.wav
64,192,15187,128,0,15349:0:0:0:0:
320,192,15187,1,0,0:0:0:100:8bitkick.wav
192,192,15349,128,0,15510:0:0:0:0:
448,192,15510,1,0,0:0:0:100:8bitkick.wav
320,192,15671,128,0,15833:0:0:0:0:
192,192,15833,128,0,15994:0:0:0:0:
448,192,15833,1,0,0:0:0:100:8bitkick.wav
64,192,15994,128,0,16155:0:0:0:0:
320,192,16155,1,0,0:0:0:100:8bitkick.wav
192,192,16155,128,0,16316:0:0:0:0:
64,192,16478,1,0,0:0:0:100:8bitkick.wav
192,192,16478,1,0,0:0:0:100:8bitsnare.wav
320,192,16478,128,0,16639:0:0:0:0:
64,192,16800,1,0,0:0:0:100:8bitkick.wav
448,192,16800,128,0,16881:0:0:0:0:
64,192,17123,1,0,0:0:0:100:8bitkick.wav
448,192,17123,128,0,17204:0:0:0:0:
192,192,17446,1,0,0:0:0:100:8bitkick.wav
448,192,17446,128,0,17526:0:0:0:0:
320,192,17607,128,0,17768:0:0:0:0:
192,192,17768,1,0,0:0:0:100:8bitkick.wav
64,192,17929,1,0,0:0:0:100:8bitsnare.wav
448,192,17929,128,0,18091:0:0:0:0:
192,192,18091,1,0,0:0:0:100:8bitkick.wav
64,192,18252,1,0,0:0:0:100:8bitsnare.wav
448,192,18252,128,0,18333:0:0:0:0:
192,192,18413,1,0,0:0:0:100:8bitkick.wav
448,192,18413,128,0,18494:0:0:0:100:8bitcrash.wav
64,192,18575,1,0,0:0:0:100:8bitsnare.wav
448,192,18575,128,0,18655:0:0:0:0:
192,192,18736,1,0,0:0:0:100:8bitkick.wav
448,192,18736,128,0,19058:0:0:0:0:
64,192,18736,1,0,0:0:0:100:8bitsnare.wav
192,192,19058,1,0,0:0:0:100:8bitkick.wav
192,192,19220,1,0,0:0:0:0:
320,192,19220,1,0,0:0:0:100:8bitsnare.wav
448,192,19381,1,0,0:0:0:100:8bitkick.wav
320,192,19381,1,0,0:0:0:100:8bitcrash.wav
64,192,19381,128,0,19542:0:0:0:0:
448,192,19704,1,0,0:0:0:100:8bitkick.wav
320,192,19704,128,0,19865:0:0:0:0:
64,192,20026,128,0,20187:0:0:0:0:
192,192,20026,1,0,0:0:0:100:8bitkick.wav
448,192,20349,128,0,20510:0:0:0:0:
192,192,20349,1,0,0:0:0:100:8bitkick.wav
320,192,20510,128,0,20671:0:0:0:0:
64,192,20671,1,0,0:0:0:100:8bitkick.wav
192,192,20833,128,0,20994:0:0:0:0:
64,192,20994,1,0,0:0:0:100:8bitkick.wav
320,192,20994,128,0,21155:0:0:0:0:
448,192,21155,128,0,21316:0:0:0:0:
192,192,21316,1,0,0:0:0:100:8bitkick.wav
320,192,21316,128,0,21478:0:0:0:0:
192,192,21639,128,0,21800:0:0:0:100:8bitsnare.wav
448,192,21639,1,0,0:0:0:100:8bitkick.wav
320,192,21962,1,0,0:0:0:100:8bitsnare.wav
64,192,21962,128,0,22042:0:0:0:0:
448,192,21962,1,0,0:0:0:100:8bitcrash.wav
64,192,22284,128,0,22365:0:0:0:0:
64,192,22607,128,0,22687:0:0:0:0:
192,192,22768,128,0,22929:0:0:0:0:
64,192,23091,128,0,23252:0:0:0:0:
320,192,23091,1,0,0:0:0:100:8bitsnare.wav
448,192,23091,1,0,0:0:0:100:8bitkick.wav
448,192,23413,1,0,0:0:0:0:
64,192,23413,128,0,23494:0:0:0:0:
320,192,23413,1,0,0:0:0:100:8bitsnare.wav
448,192,23575,1,0,0:0:0:100:8bitkick.wav
64,192,23575,128,0,23655:0:0:0:100:8bitcrash.wav
448,192,23736,1,0,0:0:0:0:
64,192,23736,128,0,23816:0:0:0:0:
320,192,23736,1,0,0:0:0:100:8bitsnare.wav
448,192,23897,1,0,0:0:0:100:8bitsnare.wav
320,192,23897,1,0,0:0:0:100:8bitcrash.wav
64,192,23897,128,0,24220:0:0:0:0:
192,192,24058,1,0,0:0:0:100:8bitkick.wav
320,192,24220,1,0,0:0:0:100:8bitsnare.wav
192,192,24220,1,0,0:0:0:100:8bitkick.wav
320,192,24381,1,0,0:0:0:100:8bitkick.wav
448,192,24542,128,0,24704:0:0:0:0:
320,192,24542,1,0,0:0:0:100:8bitcrash.wav
64,192,24542,1,0,0:0:0:100:8bitkick.wav
320,192,24865,128,0,25026:0:0:0:0:
64,192,24865,1,0,0:0:0:0:
192,192,24865,1,0,0:0:0:100:8bitsnare.wav
64,192,25187,128,0,25349:0:0:0:0:
448,192,25187,1,0,0:0:0:100:8bitkick.wav
448,192,25349,1,0,0:0:0:100:8bitkick.wav
64,192,25510,128,0,25671:0:0:0:0:
320,192,25510,1,0,0:0:0:0:
192,192,25510,1,0,0:0:0:100:8bitsnare.wav
192,192,25671,128,0,25833:0:0:0:0:
448,192,25671,1,0,0:0:0:100:8bitkick.wav
320,192,25994,128,0,26155:0:0:0:0:
64,192,25994,1,0,0:0:0:100:8bitkick.wav
448,192,26155,128,0,26316:0:0:0:0:
192,192,26155,1,0,0:0:0:0:
64,192,26155,1,0,0:0:0:100:8bitsnare.wav
192,192,26316,128,0,26478:0:0:0:0:
320,192,26316,1,0,0:0:0:100:8bitsnare.wav
64,192,26478,128,0,26639:0:0:0:0:
320,192,26478,1,0,0:0:0:100:8bitkick.wav
192,192,26800,128,0,26962:0:0:0:0:
448,192,26800,1,0,0:0:0:0:
64,192,26800,1,0,0:0:0:100:8bitsnare.wav
64,192,27123,1,0,0:0:0:100:8bitkick.wav
448,192,27123,128,0,27204:0:0:0:100:8bitcrash.wav
64,192,27446,1,0,0:0:0:0:
192,192,27446,1,0,0:0:0:100:8bitsnare.wav
448,192,27446,128,0,27526:0:0:0:0:
192,192,27768,1,0,0:0:0:100:8bitkick.wav
448,192,27768,128,0,27849:0:0:0:0:
192,192,27929,1,0,0:0:0:100:8bitkick.wav
320,192,27929,128,0,28091:0:0:0:0:
192,192,28091,1,0,0:0:0:0:
64,192,28091,1,0,0:0:0:100:8bitsnare.wav
64,192,28252,1,0,0:0:0:100:8bitkick.wav
448,192,28252,128,0,28413:0:0:0:100:8bitcrash.wav
64,192,28575,1,0,0:0:0:100:8bitkick.wav
448,192,28575,128,0,28655:0:0:0:0:
448,192,28736,128,0,28816:0:0:0:0:
64,192,28736,1,0,0:0:0:0:
192,192,28736,1,0,0:0:0:100:8bitsnare.wav
64,192,28897,1,0,0:0:0:0:
192,192,28897,1,0,0:0:0:100:8bitsnare.wav
448,192,28897,128,0,28978:0:0:0:0:
192,192,29058,1,0,0:0:0:100:8bitkick.wav
448,192,29058,128,0,29381:0:0:0:0:
192,192,29381,1,0,0:0:0:0:
64,192,29381,1,0,0:0:0:100:8bitsnare.wav
448,192,29704,1,0,0:0:0:100:8bitkick.wav
64,192,29704,128,0,29865:0:0:0:0:
192,192,29704,1,0,0:0:0:100:8bitcrash.wav
320,192,30026,1,0,0:0:0:0:
192,192,30026,128,0,30187:0:0:0:0:
448,192,30026,1,0,0:0:0:100:8bitsnare.wav
448,192,30349,128,0,30510:0:0:0:0:
64,192,30349,1,0,0:0:0:100:8bitkick.wav
64,192,30510,1,0,0:0:0:100:8bitkick.wav
448,192,30671,128,0,30833:0:0:0:0:
192,192,30671,1,0,0:0:0:0:
320,192,30671,1,0,0:0:0:100:8bitsnare.wav
320,192,30833,128,0,30994:0:0:0:0:
64,192,30833,1,0,0:0:0:100:8bitkick.wav
448,192,31155,1,0,0:0:0:100:8bitkick.wav
192,192,31155,128,0,31316:0:0:0:0:
64,192,31316,128,0,31478:0:0:0:0:
320,192,31316,1,0,0:0:0:0:
448,192,31316,1,0,0:0:0:100:8bitsnare.wav
320,192,31478,128,0,31639:0:0:0:0:
448,192,31639,128,0,31800:0:0:0:0:
192,192,31639,1,0,0:0:0:100:8bitkick.wav
320,192,31962,128,0,32123:0:0:0:0:
64,192,31962,1,0,0:0:0:0:
448,192,31962,1,0,0:0:0:100:8bitsnare.wav
448,192,32284,1,0,0:0:0:100:8bitkick.wav
64,192,32284,128,0,32365:0:0:0:100:8bitcrash.wav
448,192,32607,1,0,0:0:0:0:
64,192,32607,128,0,32687:0:0:0:0:
320,192,32607,1,0,0:0:0:100:8bitsnare.wav
64,192,32929,128,0,33010:0:0:0:0:
320,192,32929,1,0,0:0:0:100:8bitkick.wav
192,192,33091,128,0,33252:0:0:0:0:
320,192,33091,1,0,0:0:0:100:8bitkick.wav
320,192,33252,1,0,0:0:0:0:
448,192,33252,1,0,0:0:0:100:8bitsnare.wav
448,192,33413,1,0,0:0:0:100:8bitkick.wav
64,192,33413,128,0,33575:0:0:0:0:
448,192,33736,1,0,0:0:0:100:8bitkick.wav
64,192,33736,128,0,33816:0:0:0:0:
320,192,33897,1,0,0:0:0:0:
64,192,33897,128,0,33978:0:0:0:0:
448,192,33897,1,0,0:0:0:100:8bitsnare.wav
64,192,34058,128,0,34139:0:0:0:0:
64,192,34220,128,0,34542:0:0:0:0:
320,192,34220,1,0,0:0:0:100:8bitkick.wav
320,192,34542,1,0,0:0:0:0:
448,192,34542,1,0,0:0:0:100:8bitsnare.wav
64,192,34865,1,0,0:0:0:100:8bitkick.wav
448,192,34865,128,0,34946:0:0:0:100:8bitcrash.wav
64,192,35187,1,0,0:0:0:0:
192,192,35187,1,0,0:0:0:100:8bitsnare.wav
448,192,35187,128,0,35268:0:0:0:0:
64,192,35510,1,0,0:0:0:100:8bitkick.wav
448,192,35510,128,0,35591:0:0:0:0:
320,192,35671,128,0,35833:0:0:0:0:
64,192,35833,1,0,0:0:0:0:
192,192,35833,1,0,0:0:0:100:8bitsnare.wav
192,192,35994,1,0,0:0:0:100:8bitkick.wav
448,192,35994,128,0,36155:0:0:0:0:
192,192,36316,1,0,0:0:0:100:8bitkick.wav
448,192,36316,128,0,36397:0:0:0:0:
320,192,36478,128,0,36558:0:0:0:0:
192,192,36639,1,0,0:0:0:0:
64,192,36639,1,0,0:0:0:100:8bitsnare.wav
448,192,36639,128,0,36720:0:0:0:0:
64,192,36800,1,0,0:0:0:100:8bitkick.wav
320,192,36800,128,0,36962:0:0:0:0:
192,192,37123,1,0,0:0:0:0:
64,192,37123,1,0,0:0:0:100:8bitsnare.wav
64,192,37446,128,0,37526:0:0:0:0:
448,192,37446,1,0,0:0:0:100:8bitkick.wav
448,192,37768,1,0,0:0:0:0:
64,192,37768,128,0,37849:0:0:0:0:
320,192,37768,1,0,0:0:0:100:8bitsnare.wav
64,192,38091,128,0,38171:0:0:0:0:
448,192,38091,1,0,0:0:0:100:8bitkick.wav
192,192,38252,128,0,38413:0:0:0:0:
320,192,38413,1,0,0:0:0:0:
448,192,38413,1,0,0:0:0:100:8bitsnare.wav
64,192,38575,128,0,38736:0:0:0:0:
320,192,38575,1,0,0:0:0:100:8bitkick.wav
64,192,38897,128,0,38978:0:0:0:0:
320,192,38897,1,0,0:0:0:100:8bitkick.wav
192,192,39058,128,0,39139:0:0:0:0:
448,192,39220,1,0,0:0:0:0:
320,192,39220,1,0,0:0:0:100:8bitsnare.wav
64,192,39220,128,0,39300:0:0:0:0:
448,192,39381,1,0,0:0:0:0:
320,192,39381,1,0,0:0:0:100:8bitsnare.wav
192,192,39381,128,0,39542:0:0:0:0:
448,192,39542,1,0,0:0:0:100:8bitkick.wav
320,192,39704,1,0,0:0:0:0:
64,192,39704,128,0,39865:0:0:0:0:
448,192,39704,1,0,0:0:0:100:8bitsnare.wav
64,192,40026,1,0,0:0:0:100:8bitkick.wav
448,192,40026,128,0,40107:0:0:0:0:
192,192,40349,1,0,0:0:0:0:
64,192,40349,1,0,0:0:0:100:8bitsnare.wav
448,192,40349,128,0,40429:0:0:0:0:
64,192,40671,1,0,0:0:0:100:8bitkick.wav
448,192,40671,128,0,40752:0:0:0:0:
320,192,40833,128,0,40994:0:0:0:0:
192,192,40994,1,0,0:0:0:0:
64,192,40994,1,0,0:0:0:100:8bitsnare.wav
448,192,41155,128,0,41316:0:0:0:0:
192,192,41155,1,0,0:0:0:100:8bitkick.wav
192,192,41478,1,0,0:0:0:100:8bitkick.wav
448,192,41478,128,0,41558:0:0:0:0:
320,192,41639,128,0,41720:0:0:0:0:
64,192,41800,1,0,0:0:0:0:
192,192,41800,1,0,0:0:0:100:8bitsnare.wav
448,192,41800,128,0,41881:0:0:0:0:
64,192,41962,1,0,0:0:0:100:8bitkick.wav
320,192,41962,128,0,42284:0:0:0:0:
448,192,42284,128,0,42607:0:0:0:0:
64,192,42284,1,0,0:0:0:100:8bitsnare.wav
192,192,42284,1,0,0:0:0:100:8bitkick.wav
64,192,42607,128,0,42768:0:0:0:100:8bitcrash.wav
192,192,42607,1,0,0:0:0:100:8bitkick.wav
448,192,42768,1,0,0:0:0:0:
320,192,42929,1,0,0:0:0:100:8bitkick.wav
448,192,42929,128,0,43091:0:0:0:0:
64,192,43091,1,0,0:0:0:0:
320,192,43171,1,0,0:0:0:0:
64,192,43252,128,0,43413:0:0:0:0:
192,192,43252,1,0,0:0:0:100:8bitkick.wav
448,192,43413,1,0,0:0:0:0:
320,192,43575,1,0,0:0:0:100:8bitkick.wav
448,192,43575,128,0,43736:0:0:0:0:
64,192,43736,128,0,43897:0:0:0:100:8bitsnare.wav
192,192,43897,1,0,0:0:0:100:8bitkick.wav
320,192,43897,128,0,44058:0:0:0:0:
448,192,44058,128,0,44220:0:0:0:0:
320,192,44220,128,0,44381:0:0:0:0:
192,192,44220,1,0,0:0:0:100:8bitkick.wav
448,192,44381,128,0,44542:0:0:0:0:
320,192,44542,128,0,44704:0:0:0:0:
192,192,44542,1,0,0:0:0:100:8bitkick.wav
64,192,44704,1,0,0:0:0:100:8bitkick.wav
192,192,44784,1,0,0:0:0:100:8bitkick.wav
448,192,44865,1,0,0:0:0:0:
320,192,44865,1,0,0:0:0:100:8bitsnare.wav
64,192,45026,1,0,0:0:0:0:
448,192,45187,1,0,0:0:0:0:
320,192,45187,1,0,0:0:0:100:8bitsnare.wav
192,192,45187,128,0,45349:0:0:0:0:
64,192,45349,128,0,45510:0:0:0:100:8bitkick.wav
448,192,45510,1,0,0:0:0:0:
192,192,45510,128,0,45671:0:0:0:0:
320,192,45510,1,0,0:0:0:100:8bitsnare.wav
64,192,45671,128,0,45833:0:0:0:100:8bitkick.wav
448,192,45833,1,0,0:0:0:0:
192,192,45833,128,0,45994:0:0:0:0:
320,192,45833,1,0,0:0:0:100:8bitsnare.wav
448,192,46155,128,0,46478:0:0:0:0:
64,192,46155,128,0,46478:0:0:0:0:
320,192,46478,1,0,0:0:0:100:8bitcrash.wav
192,192,46478,1,0,0:0:0:100:8bitkick.wav
448,192,46639,1,0,0:0:0:0:
192,192,46800,1,0,0:0:0:100:8bitkick.wav
64,192,46800,128,0,46962:0:0:0:0:
320,192,46800,1,0,0:0:0:100:8bitsnare.wav
448,192,46962,1,0,0:0:0:0:
64,192,47123,1,0,0:0:0:100:8bitkick.wav
192,192,47123,128,0,47284:0:0:0:0:
320,192,47284,128,0,47446:0:0:0:0:
192,192,47446,1,0,0:0:0:100:8bitsnare.wav
64,192,47446,1,0,0:0:0:100:8bitkick.wav
448,192,47446,128,0,47607:0:0:0:0:
320,192,47607,128,0,47768:0:0:0:0:
448,192,47768,1,0,0:0:0:0:
64,192,47768,1,0,0:0:0:100:8bitkick.wav
192,192,47929,1,0,0:0:0:0:
320,192,48010,1,0,0:0:0:0:
64,192,48091,1,0,0:0:0:100:8bitsnare.wav
192,192,48091,1,0,0:0:0:100:8bitkick.wav
320,192,48252,1,0,0:0:0:0:
64,192,48413,128,0,48736:0:0:0:0:
448,192,48413,1,0,0:0:0:100:8bitkick.wav
320,192,48575,1,0,0:0:0:0:
192,192,48655,1,0,0:0:0:0:
448,192,48736,1,0,0:0:0:100:8bitsnare.wav
320,192,48736,1,0,0:0:0:100:8bitkick.wav
192,192,48897,1,0,0:0:0:0:
320,192,49058,1,0,0:0:0:100:8bitcrash.wav
64,192,49058,128,0,49220:0:0:0:0:
448,192,49058,1,0,0:0:0:100:8bitkick.wav
192,192,49220,1,0,0:0:0:0:
320,192,49300,1,0,0:0:0:0:
448,192,49381,1,0,0:0:0:100:8bitsnare.wav
64,192,49381,1,0,0:0:0:100:8bitkick.wav
320,192,49542,1,0,0:0:0:0:
192,192,49704,1,0,0:0:0:0:
64,192,49704,1,0,0:0:0:100:8bitkick.wav
448,192,49865,1,0,0:0:0:0:
320,192,50026,1,0,0:0:0:0:
64,192,50026,1,0,0:0:0:100:8bitsnare.wav
192,192,50026,1,0,0:0:0:100:8bitkick.wav
448,192,50187,1,0,0:0:0:0:
64,192,50349,128,0,50510:0:0:0:0:
192,192,50349,1,0,0:0:0:0:
448,192,50349,128,0,50510:0:0:0:0:
320,192,50349,1,0,0:0:0:100:8bitkick.wav
320,192,50510,1,0,0:0:0:0:
192,192,50510,1,0,0:0:0:100:8bitsnare.wav
64,192,50671,1,0,0:0:0:0:
192,192,50671,128,0,50833:0:0:0:0:
448,192,50671,1,0,0:0:0:100:8bitkick.wav
320,192,50671,128,0,50833:0:0:0:0:
448,192,50833,1,0,0:0:0:0:
64,192,50833,1,0,0:0:0:100:8bitsnare.wav
320,192,51155,1,0,0:0:0:100:8bitkick.wav
192,192,51236,1,0,0:0:0:100:8bitkick.wav
448,192,51316,1,0,0:0:0:0:
64,192,51316,1,0,0:0:0:100:8bitsnare.wav
320,192,51639,1,0,0:0:0:0:
192,192,51639,1,0,0:0:0:100:8bitcrash.wav
448,192,51639,1,0,0:0:0:100:8bitkick.wav
64,192,51800,1,0,0:0:0:0:
448,192,51962,128,0,52123:0:0:0:0:
192,192,51962,1,0,0:0:0:100:8bitsnare.wav
320,192,51962,1,0,0:0:0:100:8bitkick.wav
64,192,52123,1,0,0:0:0:0:
320,192,52284,128,0,52446:0:0:0:0:
448,192,52284,1,0,0:0:0:100:8bitkick.wav
192,192,52446,128,0,52607:0:0:0:0:
448,192,52607,1,0,0:0:0:100:8bitsnare.wav
64,192,52607,128,0,52768:0:0:0:0:
320,192,52607,1,0,0:0:0:100:8bitkick.wav
192,192,52768,128,0,52929:0:0:0:0:
448,192,52929,1,0,0:0:0:0:
64,192,52929,1,0,0:0:0:100:8bitkick.wav
320,192,53091,1,0,0:0:0:0:
192,192,53171,1,0,0:0:0:0:
320,192,53252,1,0,0:0:0:100:8bitsnare.wav
448,192,53252,1,0,0:0:0:100:8bitkick.wav
192,192,53413,1,0,0:0:0:0:
448,192,53575,128,0,53897:0:0:0:0:
64,192,53575,1,0,0:0:0:100:8bitkick.wav
192,192,53736,1,0,0:0:0:0:
320,192,53816,1,0,0:0:0:0:
192,192,53897,1,0,0:0:0:100:8bitsnare.wav
64,192,53897,1,0,0:0:0:100:8bitkick.wav
320,192,54058,1,0,0:0:0:0:
320,192,54220,1,0,0:0:0:100:8bitcrash.wav
64,192,54220,128,0,54381:0:0:0:0:
448,192,54220,1,0,0:0:0:100:8bitkick.wav
192,192,54381,1,0,0:0:0:0:
64,192,54542,1,0,0:0:0:100:8bitsnare.wav
448,192,54542,128,0,54704:0:0:0:0:
192,192,54542,1,0,0:0:0:100:8bitkick.wav
320,192,54704,1,0,0:0:0:0:
320,192,54865,1,0,0:0:0:0:
64,192,54865,128,0,55026:0:0:0:0:
448,192,54865,1,0,0:0:0:100:8bitkick.wav
192,192,55026,1,0,0:0:0:0:
448,192,55187,1,0,0:0:0:0:
320,192,55187,1,0,0:0:0:100:8bitsnare.wav
64,192,55187,1,0,0:0:0:100:8bitkick.wav
192,192,55349,1,0,0:0:0:0:
64,192,55510,128,0,55833:0:0:0:0:
448,192,55510,128,0,55994:0:0:0:0:
320,192,55510,1,0,0:0:0:100:8bitkick.wav
192,192,55510,128,0,55671:0:0:0:0:
320,192,55671,128,0,55994:0:0:0:0:
192,192,55833,128,0,55994:0:0:0:100:8bitkick.wav
64,192,55994,1,0,0:0:0:0:
320,192,56155,1,0,0:0:0:0:
192,192,56155,1,0,0:0:0:0:
64,192,56155,1,0,0:0:0:100:8bitkick.wav
448,192,56316,1,0,0:0:0:100:8bitkick.wav
64,192,56397,1,0,0:0:0:100:8bitkick.wav
320,192,56478,128,0,56558:0:0:0:0:
192,192,56478,128,0,56558:0:0:0:0:
448,192,56478,1,0,0:0:0:100:8bitsnare.wav
192,192,56800,128,0,56962:0:0:0:100:8bitcrash.wav
64,192,56800,128,0,56962:0:0:0:100:8bitkick.wav
448,192,56962,1,0,0:0:0:0:
320,192,56962,1,0,0:0:0:0:
192,192,57123,128,0,57284:0:0:0:100:8bitsnare.wav
64,192,57123,128,0,57284:0:0:0:100:8bitkick.wav
448,192,57284,1,0,0:0:0:0:
320,192,57284,1,0,0:0:0:0:
192,192,57446,128,0,57607:0:0:0:0:
64,192,57446,128,0,57607:0:0:0:100:8bitkick.wav
320,192,57607,128,0,57768:0:0:0:0:
448,192,57607,1,0,0:0:0:0:
448,192,57768,1,0,0:0:0:100:8bitkick.wav
192,192,57768,1,0,0:0:0:100:8bitsnare.wav
64,192,57768,128,0,57849:0:0:0:0:
320,192,57929,1,0,0:0:0:0:
64,192,58010,1,0,0:0:0:0:
320,192,58091,128,0,58171:0:0:0:0:
448,192,58091,1,0,0:0:0:0:
192,192,58091,1,0,0:0:0:100:8bitkick.wav
192,192,58252,128,0,58413:0:0:0:0:
64,192,58252,128,0,58413:0:0:0:0:
448,192,58413,128,0,58575:0:0:0:100:8bitsnare.wav
320,192,58413,128,0,58575:0:0:0:100:8bitkick.wav
64,192,58575,128,0,58736:0:0:0:0:
192,192,58575,128,0,58736:0:0:0:0:
448,192,58736,128,0,58897:0:0:0:0:
320,192,58736,128,0,58897:0:0:0:100:8bitkick.wav
64,192,58897,128,0,59058:0:0:0:0:
192,192,58897,1,0,0:0:0:0:
320,192,59058,1,0,0:0:0:100:8bitsnare.wav
192,192,59058,1,0,0:0:0:100:8bitkick.wav
64,192,59220,1,0,0:0:0:0:
192,192,59381,1,0,0:0:0:100:8bitcrash.wav
320,192,59381,1,0,0:0:0:100:8bitkick.wav
448,192,59381,128,0,59542:0:0:0:0:
192,192,59542,1,0,0:0:0:0:
320,192,59704,1,0,0:0:0:100:8bitkick.wav
64,192,59704,128,0,59865:0:0:0:0:
192,192,59704,1,0,0:0:0:100:8bitsnare.wav
320,192,59865,1,0,0:0:0:0:
320,192,60026,1,0,0:0:0:0:
192,192,60026,1,0,0:0:0:100:8bitkick.wav
448,192,60026,128,0,60187:0:0:0:0:
192,192,60187,1,0,0:0:0:0:
64,192,60349,1,0,0:0:0:0:
192,192,60349,1,0,0:0:0:100:8bitsnare.wav
448,192,60349,1,0,0:0:0:100:8bitkick.wav
320,192,60510,1,0,0:0:0:0:
192,192,60671,1,0,0:0:0:0:
64,192,60671,1,0,0:0:0:100:8bitsnare.wav
448,192,60833,1,0,0:0:0:100:8bitkick.wav
320,192,60913,1,0,0:0:0:100:8bitkick.wav
64,192,60994,1,0,0:0:0:0:
192,192,60994,1,0,0:0:0:100:8bitsnare.wav
320,192,61155,1,0,0:0:0:100:8bitkick.wav
448,192,61316,1,0,0:0:0:0:
320,192,61316,1,0,0:0:0:100:8bitsnare.wav
64,192,61478,1,0,0:0:0:100:8bitkick.wav
192,192,61558,1,0,0:0:0:100:8bitkick.wav
448,192,61639,1,0,0:0:0:0:
320,192,61639,1,0,0:0:0:100:8bitsnare.wav
320,192,61962,128,0,62123:0:0:0:100:8bitcrash.wav
64,192,61962,128,0,62123:0:0:0:100:8bitkick.wav
448,192,62123,1,0,0:0:0:0:
192,192,62123,1,0,0:0:0:0:
320,192,62284,128,0,62446:0:0:0:100:8bitsnare.wav
64,192,62284,128,0,62446:0:0:0:100:8bitkick.wav
448,192,62446,1,0,0:0:0:0:
192,192,62446,1,0,0:0:0:0:
320,192,62607,128,0,62768:0:0:0:0:
64,192,62607,128,0,62768:0:0:0:100:8bitkick.wav
192,192,62768,128,0,62929:0:0:0:0:
448,192,62768,1,0,0:0:0:0:
320,192,62929,1,0,0:0:0:100:8bitsnare.wav
64,192,62929,128,0,63010:0:0:0:0:
448,192,62929,1,0,0:0:0:100:8bitkick.wav
192,192,63091,1,0,0:0:0:0:
64,192,63171,1,0,0:0:0:0:
320,192,63252,1,0,0:0:0:0:
192,192,63252,128,0,63333:0:0:0:0:
448,192,63252,1,0,0:0:0:100:8bitkick.wav
320,192,63413,128,0,63575:0:0:0:0:
64,192,63413,128,0,63575:0:0:0:0:
448,192,63575,128,0,63736:0:0:0:100:8bitsnare.wav
192,192,63575,128,0,63736:0:0:0:100:8bitkick.wav
64,192,63736,128,0,63897:0:0:0:0:
320,192,63736,128,0,63897:0:0:0:0:
448,192,63897,128,0,64058:0:0:0:0:
192,192,63897,128,0,64058:0:0:0:100:8bitkick.wav
64,192,64058,128,0,64220:0:0:0:0:
320,192,64058,1,0,0:0:0:0:
192,192,64220,1,0,0:0:0:100:8bitsnare.wav
320,192,64220,1,0,0:0:0:100:8bitkick.wav
64,192,64381,1,0,0:0:0:0:
448,192,64542,128,0,64704:0:0:0:0:
320,192,64542,1,0,0:0:0:100:8bitcrash.wav
192,192,64542,1,0,0:0:0:100:8bitkick.wav
192,192,64704,5,0,0:0:0:0:
320,192,64865,1,0,0:0:0:100:8bitkick.wav
64,192,64865,128,0,65026:0:0:0:0:
192,192,64865,1,0,0:0:0:100:8bitsnare.wav
320,192,65026,1,0,0:0:0:0:
320,192,65187,1,0,0:0:0:0:
448,192,65187,128,0,65349:0:0:0:0:
192,192,65187,1,0,0:0:0:100:8bitkick.wav
192,192,65349,1,0,0:0:0:0:
192,192,65510,1,0,0:0:0:0:
448,192,65510,1,0,0:0:0:100:8bitsnare.wav
64,192,65510,1,0,0:0:0:100:8bitkick.wav
320,192,65671,1,0,0:0:0:0:
64,192,65833,128,0,66316:0:0:0:0:
448,192,65833,128,0,66155:0:0:0:0:
192,192,65833,1,0,0:0:0:100:8bitkick.wav
320,192,65833,128,0,65994:0:0:0:0:
192,192,65994,128,0,66316:0:0:0:0:
320,192,66155,128,0,66316:0:0:0:100:8bitkick.wav
448,192,66316,1,0,0:0:0:0:
192,192,66478,1,0,0:0:0:0:
320,192,66478,1,0,0:0:0:0:
448,192,66478,1,0,0:0:0:100:8bitkick.wav
64,192,66639,1,0,0:0:0:100:8bitkick.wav
448,192,66720,1,0,0:0:0:100:8bitkick.wav
192,192,66800,128,0,66881:0:0:0:0:
320,192,66800,128,0,66881:0:0:0:0:
64,192,66800,1,0,0:0:0:100:8bitsnare.wav
64,192,67123,128,0,67446:0:0:0:0:
448,192,67123,128,0,67607:0:0:0:0:
192,192,67123,128,0,67284:0:0:0:0:
320,192,67123,1,0,0:0:0:100:8bitsnare.wav
320,192,67284,128,0,67607:0:0:0:100:8bitkick.wav
192,192,67446,128,0,67607:0:0:0:100:8bitsnare.wav
64,192,67607,1,0,0:0:0:100:8bitkick.wav
320,192,67768,1,0,0:0:0:0:
192,192,67768,1,0,0:0:0:0:
64,192,67768,1,0,0:0:0:0:
448,192,67768,1,0,0:0:0:100:8bitsnare.wav
320,192,68091,1,0,0:0:0:0:
64,192,68413,1,0,0:0:0:100:8bitcrash.wav
192,192,68413,1,0,0:0:0:100:8bitkick.wav
320,192,68413,128,0,68575:0:0:0:0:
64,192,68736,1,0,0:0:0:0:
448,192,68736,1,0,0:0:0:100:8bitsnare.wav
192,192,68736,128,0,68897:0:0:0:0:
64,192,69058,128,0,69220:0:0:0:0:
320,192,69058,1,0,0:0:0:100:8bitkick.wav
448,192,69220,128,0,69381:0:0:0:0:
320,192,69220,1,0,0:0:0:100:8bitkick.wav
192,192,69381,1,0,0:0:0:0:
64,192,69381,1,0,0:0:0:100:8bitsnare.wav
192,192,69542,128,0,69704:0:0:0:0:
320,192,69542,1,0,0:0:0:100:8bitkick.wav
192,192,69865,1,0,0:0:0:0:
320,192,69865,1,0,0:0:0:100:8bitkick.wav
448,192,69946,1,0,0:0:0:0:
64,192,70026,1,0,0:0:0:0:
320,192,70026,1,0,0:0:0:100:8bitsnare.wav
64,192,70187,1,0,0:0:0:0:
192,192,70187,1,0,0:0:0:100:8bitsnare.wav
320,192,70268,1,0,0:0:0:0:
448,192,70349,1,0,0:0:0:100:8bitkick.wav
64,192,70510,1,0,0:0:0:0:
448,192,70591,1,0,0:0:0:0:
192,192,70671,1,0,0:0:0:0:
320,192,70671,1,0,0:0:0:100:8bitsnare.wav
64,192,70833,1,0,0:0:0:0:
192,192,70994,128,0,71155:0:0:0:0:
448,192,70994,1,0,0:0:0:100:8bitcrash.wav
320,192,70994,1,0,0:0:0:100:8bitkick.wav
448,192,71316,1,0,0:0:0:0:
64,192,71316,1,0,0:0:0:100:8bitsnare.wav
320,192,71316,128,0,71478:0:0:0:0:
192,192,71639,1,0,0:0:0:100:8bitkick.wav
448,192,71639,128,0,71800:0:0:0:0:
64,192,71800,128,0,71962:0:0:0:0:
192,192,71800,1,0,0:0:0:100:8bitkick.wav
448,192,71962,1,0,0:0:0:0:
320,192,71962,1,0,0:0:0:100:8bitsnare.wav
320,192,72123,128,0,72284:0:0:0:0:
192,192,72123,1,0,0:0:0:100:8bitkick.wav
192,192,72446,1,0,0:0:0:0:
320,192,72446,1,0,0:0:0:100:8bitkick.wav
64,192,72526,1,0,0:0:0:0:
448,192,72607,1,0,0:0:0:0:
192,192,72607,1,0,0:0:0:100:8bitsnare.wav
448,192,72768,1,0,0:0:0:0:
320,192,72768,1,0,0:0:0:100:8bitsnare.wav
192,192,72849,1,0,0:0:0:0:
64,192,72929,1,0,0:0:0:100:8bitkick.wav
448,192,73091,1,0,0:0:0:0:
64,192,73171,1,0,0:0:0:0:
192,192,73252,1,0,0:0:0:0:
320,192,73252,1,0,0:0:0:100:8bitsnare.wav
448,192,73413,1,0,0:0:0:0:
192,192,73575,1,0,0:0:0:100:8bitcrash.wav
64,192,73575,1,0,0:0:0:100:8bitkick.wav
320,192,73575,128,0,73736:0:0:0:0:
64,192,73897,1,0,0:0:0:0:
448,192,73897,1,0,0:0:0:100:8bitsnare.wav
192,192,73897,128,0,74058:0:0:0:0:
320,192,74220,1,0,0:0:0:100:8bitkick.wav
448,192,74220,128,0,74381:0:0:0:0:
320,192,74381,1,0,0:0:0:100:8bitkick.wav
64,192,74381,128,0,74542:0:0:0:0:
192,192,74542,1,0,0:0:0:0:
448,192,74542,1,0,0:0:0:100:8bitsnare.wav
192,192,74704,128,0,74865:0:0:0:0:
320,192,74704,1,0,0:0:0:100:8bitkick.wav
320,192,75026,1,0,0:0:0:0:
192,192,75026,1,0,0:0:0:100:8bitkick.wav
64,192,75107,1,0,0:0:0:0:
320,192,75187,1,0,0:0:0:0:
448,192,75187,1,0,0:0:0:100:8bitsnare.wav
192,192,75349,1,0,0:0:0:0:
320,192,75429,1,0,0:0:0:0:
64,192,75510,1,0,0:0:0:100:8bitkick.wav
448,192,75671,1,0,0:0:0:0:
64,192,75752,1,0,0:0:0:0:
320,192,75833,1,0,0:0:0:0:
192,192,75833,1,0,0:0:0:100:8bitsnare.wav
448,192,75994,1,0,0:0:0:0:
448,192,76155,1,0,0:0:0:100:8bitcrash.wav
192,192,76155,128,0,76316:0:0:0:0:
320,192,76155,1,0,0:0:0:100:8bitkick.wav
320,192,76478,128,0,76639:0:0:0:0:
64,192,76478,1,0,0:0:0:0:
448,192,76478,1,0,0:0:0:100:8bitsnare.wav
64,192,76800,128,0,76962:0:0:0:0:
192,192,76800,1,0,0:0:0:100:8bitkick.wav
448,192,76962,128,0,77123:0:0:0:0:
192,192,76962,1,0,0:0:0:100:8bitkick.wav
320,192,77123,1,0,0:0:0:0:
64,192,77123,1,0,0:0:0:100:8bitsnare.wav
320,192,77284,128,0,77446:0:0:0:0:
192,192,77284,1,0,0:0:0:100:8bitkick.wav
320,192,77607,1,0,0:0:0:0:
192,192,77607,1,0,0:0:0:100:8bitkick.wav
448,192,77687,1,0,0:0:0:0:
64,192,77768,1,0,0:0:0:0:
192,192,77768,1,0,0:0:0:100:8bitsnare.wav
320,192,77929,1,0,0:0:0:0:
192,192,78010,1,0,0:0:0:0:
448,192,78091,1,0,0:0:0:100:8bitkick.wav
64,192,78252,1,0,0:0:0:0:
448,192,78333,1,0,0:0:0:0:
320,192,78413,1,0,0:0:0:0:
192,192,78413,1,0,0:0:0:100:8bitsnare.wav
64,192,78575,1,0,0:0:0:0:
448,192,78736,1,0,0:0:0:0:
320,192,78736,1,0,0:0:0:100:8bitkick.wav
320,192,79220,1,0,0:0:0:100:8bitkick.wav
448,192,79300,1,0,0:0:0:100:8bitkick.wav
64,192,79381,1,0,0:0:0:0:
192,192,79381,1,0,0:0:0:100:8bitsnare.wav
448,192,79462,1,0,0:0:0:100:8bitsnare.wav
64,192,79542,1,0,0:0:0:0:
192,192,79542,1,0,0:0:0:100:8bitsnare.wav
448,192,79623,1,0,0:0:0:100:8bitsnare.wav
320,192,79704,1,0,0:0:0:100:8bitkick.wav
64,192,79865,1,0,0:0:0:0:
192,192,79865,1,0,0:0:0:100:8bitsnare.wav
448,192,80026,128,0,80187:0:0:0:100:8bitkick.wav
320,192,80349,1,0,0:0:0:0:
64,192,80349,1,0,0:0:0:100:8bitcrash.wav
192,192,80349,1,0,0:0:0:100:8bitsnare.wav
64,192,80671,128,0,80833:0:0:0:0:
448,192,80671,1,0,0:0:0:100:8bitkick.wav
192,192,80752,1,0,0:0:0:100:8bitsnare.wav
448,192,80833,1,0,0:0:0:100:8bitkick.wav
192,192,80994,128,0,81155:0:0:0:0:
320,192,80994,1,0,0:0:0:100:8bitsnare.wav
64,192,81155,1,0,0:0:0:100:8bitkick.wav
320,192,81155,128,0,81316:0:0:0:0:
192,192,81316,1,0,0:0:0:100:8bitkick.wav
64,192,81478,128,0,81639:0:0:0:0:
320,192,81639,1,0,0:0:0:0:
192,192,81639,128,0,81800:0:0:0:0:
448,192,81639,1,0,0:0:0:100:8bitsnare.wav
320,192,81800,1,0,0:0:0:0:
64,192,81962,128,0,82123:0:0:0:0:
192,192,81962,1,0,0:0:0:100:8bitkick.wav
448,192,82042,1,0,0:0:0:100:8bitsnare.wav
192,192,82123,1,0,0:0:0:100:8bitkick.wav
448,192,82284,1,0,0:0:0:0:
320,192,82284,128,0,82446:0:0:0:0:
192,192,82284,128,0,82446:0:0:0:0:
64,192,82284,1,0,0:0:0:100:8bitsnare.wav
64,192,82446,1,0,0:0:0:0:
448,192,82446,1,0,0:0:0:100:8bitkick.wav
448,192,82607,128,0,82929:0:0:0:100:8bitcrash.wav
64,192,82607,1,0,0:0:0:100:8bitkick.wav
64,192,82929,128,0,83091:0:0:0:0:
192,192,82929,1,0,0:0:0:0:
320,192,82929,1,0,0:0:0:100:8bitsnare.wav
192,192,83091,128,0,83252:0:0:0:0:
320,192,83252,1,0,0:0:0:100:8bitkick.wav
448,192,83252,128,0,83413:0:0:0:0:
64,192,83333,1,0,0:0:0:100:8bitsnare.wav
192,192,83413,1,0,0:0:0:100:8bitkick.wav
320,192,83413,128,0,83575:0:0:0:0:
448,192,83575,1,0,0:0:0:0:
64,192,83575,1,0,0:0:0:100:8bitsnare.wav
448,192,83736,128,0,83897:0:0:0:0:
192,192,83736,1,0,0:0:0:100:8bitkick.wav
64,192,83897,1,0,0:0:0:100:8bitkick.wav
320,192,84058,1,0,0:0:0:0:
192,192,84058,1,0,0:0:0:0:
448,192,84139,1,0,0:0:0:0:
64,192,84139,1,0,0:0:0:0:
320,192,84220,128,0,84381:0:0:0:0:
192,192,84220,128,0,84381:0:0:0:100:8bitsnare.wav
64,192,84381,1,0,0:0:0:0:
448,192,84381,1,0,0:0:0:0:
448,192,84542,128,0,84704:0:0:0:100:8bitcrash.wav
320,192,84542,1,0,0:0:0:100:8bitkick.wav
64,192,84623,1,0,0:0:0:100:8bitsnare.wav
320,192,84704,1,0,0:0:0:100:8bitkick.wav
64,192,84865,1,0,0:0:0:0:
192,192,84865,128,0,85026:0:0:0:0:
320,192,84865,128,0,85026:0:0:0:0:
448,192,84865,1,0,0:0:0:100:8bitsnare.wav
448,192,85026,1,0,0:0:0:0:
64,192,85026,1,0,0:0:0:100:8bitkick.wav
192,192,85187,1,0,0:0:0:100:8bitkick.wav
320,192,85268,1,0,0:0:0:100:8bitkick.wav
192,192,85349,1,0,0:0:0:100:8bitkick.wav
320,192,85429,1,0,0:0:0:100:8bitkick.wav
448,192,85510,1,0,0:0:0:100:8bitcrash.wav
64,192,85510,1,0,0:0:0:100:8bitsnare.wav
448,192,85833,128,0,85994:0:0:0:0:
64,192,85833,1,0,0:0:0:100:8bitkick.wav
320,192,85913,1,0,0:0:0:100:8bitsnare.wav
64,192,85994,1,0,0:0:0:100:8bitkick.wav
320,192,86155,128,0,86316:0:0:0:0:
192,192,86155,1,0,0:0:0:100:8bitsnare.wav
448,192,86316,1,0,0:0:0:100:8bitkick.wav
192,192,86316,128,0,86478:0:0:0:0:
320,192,86478,1,0,0:0:0:100:8bitkick.wav
448,192,86639,128,0,86800:0:0:0:0:
192,192,86800,1,0,0:0:0:0:
64,192,86800,1,0,0:0:0:100:8bitsnare.wav
320,192,86800,128,0,86962:0:0:0:0:
192,192,86962,1,0,0:0:0:0:
448,192,87123,128,0,87284:0:0:0:0:
320,192,87123,1,0,0:0:0:100:8bitkick.wav
64,192,87204,1,0,0:0:0:100:8bitsnare.wav
320,192,87284,1,0,0:0:0:100:8bitkick.wav
192,192,87446,128,0,87607:0:0:0:0:
64,192,87446,1,0,0:0:0:0:
320,192,87446,128,0,87607:0:0:0:0:
448,192,87446,1,0,0:0:0:100:8bitsnare.wav
448,192,87607,1,0,0:0:0:0:
64,192,87607,1,0,0:0:0:100:8bitkick.wav
64,192,87768,128,0,88091:0:0:0:100:8bitcrash.wav
448,192,87768,1,0,0:0:0:100:8bitkick.wav
448,192,88091,128,0,88252:0:0:0:0:
320,192,88091,1,0,0:0:0:0:
192,192,88091,1,0,0:0:0:100:8bitsnare.wav
320,192,88252,128,0,88413:0:0:0:0:
64,192,88413,128,0,88575:0:0:0:0:
192,192,88413,1,0,0:0:0:100:8bitkick.wav
448,192,88494,1,0,0:0:0:100:8bitsnare.wav
192,192,88575,128,0,88736:0:0:0:0:
320,192,88575,1,0,0:0:0:100:8bitkick.wav
64,192,88736,1,0,0:0:0:0:
448,192,88736,1,0,0:0:0:100:8bitsnare.wav
64,192,88897,128,0,89058:0:0:0:0:
320,192,88897,1,0,0:0:0:100:8bitkick.wav
448,192,89058,1,0,0:0:0:100:8bitkick.wav
320,192,89220,1,0,0:0:0:0:
192,192,89220,1,0,0:0:0:0:
448,192,89300,1,0,0:0:0:0:
64,192,89300,1,0,0:0:0:0:
320,192,89381,128,0,89542:0:0:0:0:
192,192,89381,128,0,89542:0:0:0:100:8bitsnare.wav
64,192,89542,1,0,0:0:0:0:
448,192,89542,1,0,0:0:0:0:
64,192,89704,128,0,89865:0:0:0:100:8bitcrash.wav
192,192,89704,1,0,0:0:0:100:8bitkick.wav
448,192,89784,1,0,0:0:0:100:8bitsnare.wav
192,192,89865,1,0,0:0:0:100:8bitkick.wav
64,192,90026,1,0,0:0:0:0:
192,192,90026,128,0,90187:0:0:0:0:
320,192,90026,128,0,90187:0:0:0:0:
448,192,90026,1,0,0:0:0:100:8bitsnare.wav
448,192,90187,1,0,0:0:0:0:
64,192,90187,1,0,0:0:0:100:8bitkick.wav
192,192,90349,128,0,90994:0:0:0:0:
64,192,90671,128,0,91155:0:0:0:0:
320,192,90833,128,0,91155:0:0:0:0:
448,192,90994,128,0,91155:0:0:0:0:
192,192,91155,1,0,0:0:0:0:
64,192,91478,5,0,0:0:0:0:
448,192,91478,1,0,0:0:0:100:8bitcrash.wav
320,192,91478,1,0,0:0:0:100:8bitsnare.wav
192,192,91478,1,0,0:0:0:100:8bitkick.wav
64,192,92123,1,0,0:0:0:100:8bitkick.wav
448,192,92284,1,0,0:0:0:100:8bitsnare.wav
64,192,92607,1,0,0:0:0:100:8bitkick.wav
192,192,92929,128,0,93091:0:0:0:100:8bitcrash.wav
64,192,92929,1,0,0:0:0:100:8bitkick.wav
448,192,93252,128,0,93413:0:0:0:0:
64,192,93252,1,0,0:0:0:100:8bitkick.wav
192,192,93575,128,0,93736:0:0:0:0:
64,192,93575,1,0,0:0:0:100:8bitkick.wav
320,192,93897,128,0,94058:0:0:0:0:
64,192,93897,1,0,0:0:0:100:8bitkick.wav
192,192,94058,128,0,94220:0:0:0:0:
448,192,94220,1,0,0:0:0:100:8bitkick.wav
64,192,94381,128,0,94542:0:0:0:0:
448,192,94542,5,0,0:0:0:100:8bitkick.wav
192,192,94542,128,0,94704:0:0:0:0:
320,192,94704,128,0,94865:0:0:0:0:
192,192,94865,128,0,95026:0:0:0:0:
448,192,94865,1,0,0:0:0:100:8bitkick.wav
448,192,95187,1,0,0:0:0:100:8bitsnare.wav
64,192,95187,128,0,95349:0:0:0:0:
320,192,95187,1,0,0:0:0:100:8bitkick.wav
64,192,95510,128,0,95591:0:0:0:0:
320,192,95510,1,0,0:0:0:100:8bitkick.wav
64,192,95833,128,0,95913:0:0:0:0:
320,192,95833,1,0,0:0:0:100:8bitkick.wav
64,192,96155,128,0,96236:0:0:0:0:
320,192,96155,1,0,0:0:0:100:8bitkick.wav
192,192,96316,128,0,96478:0:0:0:0:
320,192,96478,1,0,0:0:0:100:8bitkick.wav
448,192,96639,1,0,0:0:0:0:
64,192,96639,128,0,96800:0:0:0:0:
320,192,96639,1,0,0:0:0:100:8bitsnare.wav
448,192,96800,1,0,0:0:0:100:8bitkick.wav
320,192,96962,1,0,0:0:0:0:
64,192,96962,128,0,97042:0:0:0:0:
192,192,96962,1,0,0:0:0:100:8bitsnare.wav
448,192,97123,1,0,0:0:0:100:8bitkick.wav
64,192,97123,128,0,97204:0:0:0:100:8bitcrash.wav
320,192,97284,1,0,0:0:0:0:
64,192,97284,128,0,97365:0:0:0:0:
192,192,97284,1,0,0:0:0:100:8bitsnare.wav
320,192,97446,1,0,0:0:0:100:8bitsnare.wav
64,192,97446,128,0,97768:0:0:0:0:
448,192,97446,1,0,0:0:0:100:8bitkick.wav
448,192,97768,1,0,0:0:0:100:8bitkick.wav
192,192,97929,1,0,0:0:0:0:
320,192,97929,1,0,0:0:0:100:8bitsnare.wav
320,192,98091,128,0,98252:0:0:0:100:8bitcrash.wav
448,192,98091,1,0,0:0:0:100:8bitkick.wav
64,192,98413,128,0,98575:0:0:0:0:
448,192,98413,1,0,0:0:0:100:8bitkick.wav
320,192,98736,128,0,98897:0:0:0:0:
448,192,98736,1,0,0:0:0:100:8bitkick.wav
192,192,99058,128,0,99220:0:0:0:0:
448,192,99058,1,0,0:0:0:100:8bitkick.wav
320,192,99220,128,0,99381:0:0:0:0:
64,192,99381,1,0,0:0:0:100:8bitkick.wav
448,192,99542,128,0,99704:0:0:0:0:
64,192,99704,5,0,0:0:0:100:8bitkick.wav
320,192,99704,128,0,99865:0:0:0:0:
192,192,99865,128,0,100026:0:0:0:0:
320,192,100026,128,0,100187:0:0:0:0:
64,192,100026,1,0,0:0:0:100:8bitkick.wav
64,192,100349,1,0,0:0:0:0:
448,192,100349,128,0,100510:0:0:0:100:8bitkick.wav
192,192,100671,1,0,0:0:0:100:8bitcrash.wav
320,192,100671,1,0,0:0:0:100:8bitsnare.wav
64,192,100671,1,0,0:0:0:100:8bitkick.wav
448,192,100671,128,0,100833:0:0:0:0:
448,192,100994,128,0,101155:0:0:0:0:
448,192,101316,128,0,101397:0:0:0:0:
320,192,101478,128,0,101800:0:0:0:0:
64,192,101800,1,0,0:0:0:100:8bitkick.wav
448,192,101800,128,0,101962:0:0:0:0:
192,192,101800,1,0,0:0:0:100:8bitsnare.wav
448,192,102123,128,0,102204:0:0:0:0:
192,192,102123,1,0,0:0:0:0:
64,192,102123,1,0,0:0:0:100:8bitsnare.wav
448,192,102284,128,0,102446:0:0:0:100:8bitcrash.wav
64,192,102284,1,0,0:0:0:100:8bitkick.wav
64,192,102446,1,0,0:0:0:0:
192,192,102446,1,0,0:0:0:100:8bitsnare.wav
64,192,102607,1,0,0:0:0:0:
448,192,102607,128,0,102768:0:0:0:0:
192,192,102607,1,0,0:0:0:100:8bitsnare.wav
192,192,102768,1,0,0:0:0:100:8bitkick.wav
64,192,102929,1,0,0:0:0:0:
448,192,102929,128,0,103091:0:0:0:0:
192,192,102929,1,0,0:0:0:100:8bitsnare.wav
320,192,103091,1,0,0:0:0:100:8bitkick.wav
192,192,103252,1,0,0:0:0:0:
64,192,103252,1,0,0:0:0:100:8bitcrash.wav
448,192,103252,1,0,0:0:0:100:8bitsnare.wav
448,192,103575,1,0,0:0:0:0:
192,192,103575,1,0,0:0:0:0:
64,192,103575,1,0,0:0:0:100:8bitsnare.wav
448,192,103897,1,0,0:0:0:0:
64,192,103897,1,0,0:0:0:0:
192,192,103897,1,0,0:0:0:100:8bitsnare.wav
320,192,104058,1,0,0:0:0:100:8bitkick.wav
64,192,104220,1,0,0:0:0:0:
448,192,104220,1,0,0:0:0:0:
192,192,104220,1,0,0:0:0:100:8bitsnare.wav
320,192,104381,1,0,0:0:0:100:8bitkick.wav
448,192,104542,1,0,0:0:0:0:
192,192,104542,1,0,0:0:0:0:
64,192,104542,1,0,0:0:0:100:8bitsnare.wav
448,192,104865,1,0,0:0:0:0:
192,192,104865,1,0,0:0:0:0:
64,192,104865,1,0,0:0:0:100:8bitsnare.wav
448,192,105187,1,0,0:0:0:0:
64,192,105187,1,0,0:0:0:0:
192,192,105187,1,0,0:0:0:100:8bitsnare.wav
320,192,105349,1,0,0:0:0:100:8bitkick.wav
448,192,105510,1,0,0:0:0:0:
192,192,105510,1,0,0:0:0:0:
64,192,105510,1,0,0:0:0:100:8bitsnare.wav
320,192,105671,1,0,0:0:0:100:8bitkick.wav
448,192,105833,1,0,0:0:0:0:
320,192,105833,1,0,0:0:0:0:
64,192,105833,1,0,0:0:0:100:8bitsnare.wav
320,192,106155,1,0,0:0:0:0:
64,192,106155,1,0,0:0:0:0:
448,192,106155,1,0,0:0:0:100:8bitsnare.wav
448,192,106478,1,0,0:0:0:0:
64,192,106478,1,0,0:0:0:0:
320,192,106478,1,0,0:0:0:100:8bitsnare.wav
192,192,106639,1,0,0:0:0:100:8bitkick.wav
448,192,106800,1,0,0:0:0:0:
320,192,106800,1,0,0:0:0:0:
64,192,106800,1,0,0:0:0:100:8bitsnare.wav
192,192,106962,1,0,0:0:0:100:8bitkick.wav
320,192,107123,1,0,0:0:0:0:
64,192,107123,1,0,0:0:0:0:
448,192,107123,1,0,0:0:0:100:8bitsnare.wav
320,192,107446,1,0,0:0:0:0:
64,192,107446,1,0,0:0:0:0:
448,192,107446,1,0,0:0:0:100:8bitsnare.wav
320,192,107768,1,0,0:0:0:0:
448,192,107768,1,0,0:0:0:0:
64,192,107768,1,0,0:0:0:100:8bitsnare.wav
192,192,107929,1,0,0:0:0:100:8bitkick.wav
320,192,108091,1,0,0:0:0:0:
64,192,108091,1,0,0:0:0:0:
448,192,108091,1,0,0:0:0:100:8bitsnare.wav
192,192,108252,1,0,0:0:0:100:8bitkick.wav
64,192,108413,1,0,0:0:0:0:
448,192,108413,1,0,0:0:0:0:
192,192,108413,1,0,0:0:0:100:8bitsnare.wav
448,192,108736,1,0,0:0:0:0:
192,192,108736,1,0,0:0:0:0:
64,192,108736,1,0,0:0:0:100:8bitsnare.wav
448,192,109058,1,0,0:0:0:0:
64,192,109058,1,0,0:0:0:0:
192,192,109058,1,0,0:0:0:100:8bitsnare.wav
320,192,109220,1,0,0:0:0:100:8bitkick.wav
448,192,109381,1,0,0:0:0:0:
192,192,109381,1,0,0:0:0:0:
64,192,109381,1,0,0:0:0:100:8bitsnare.wav
320,192,109542,1,0,0:0:0:100:8bitkick.wav
64,192,109704,1,0,0:0:0:0:
448,192,109704,1,0,0:0:0:0:
192,192,109704,1,0,0:0:0:100:8bitsnare.wav
64,192,110026,1,0,0:0:0:0:
448,192,110026,1,0,0:0:0:0:
192,192,110026,1,0,0:0:0:100:8bitsnare.wav
448,192,110349,1,0,0:0:0:0:
64,192,110349,1,0,0:0:0:0:
192,192,110349,1,0,0:0:0:100:8bitsnare.wav
320,192,110510,1,0,0:0:0:100:8bitkick.wav
64,192,110671,1,0,0:0:0:0:
448,192,110671,1,0,0:0:0:0:
192,192,110671,1,0,0:0:0:100:8bitsnare.wav
320,192,110833,1,0,0:0:0:100:8bitkick.wav
64,192,110994,1,0,0:0:0:0:
448,192,110994,1,0,0:0:0:100:8bitcrash.wav
320,192,110994,1,0,0:0:0:100:8bitkick.wav
448,192,111316,1,0,0:0:0:0:
320,192,111316,1,0,0:0:0:0:
320,192,111639,1,0,0:0:0:0:
448,192,111639,1,0,0:0:0:0:
64,192,111800,1,0,0:0:0:0:
192,192,111800,1,0,0:0:0:0:
448,192,112123,128,0,112204:0:0:0:0:
64,192,112123,1,0,0:0:0:100:8bitcrash.wav
320,192,112123,128,0,112204:0:0:0:0:
192,192,112123,1,0,0:0:0:100:8bitkick.wav
448,192,112446,128,0,112526:0:0:0:0:
320,192,112446,128,0,112526:0:0:0:100:8bitkick.wav
64,192,112446,1,0,0:0:0:100:8bitcrash.wav
320,192,112607,128,0,112687:0:0:0:0:
192,192,112607,128,0,112687:0:0:0:0:
64,192,112768,128,0,112849:0:0:0:0:
448,192,112768,1,0,0:0:0:100:8bitcrash.wav
192,192,112768,128,0,112849:0:0:0:100:8bitkick.wav
448,192,112929,128,0,113010:0:0:0:0:
320,192,112929,128,0,113010:0:0:0:100:8bitsnare.wav
64,192,113091,1,0,0:0:0:100:8bitkick.wav
192,192,113171,1,0,0:0:0:100:8bitkick.wav
448,192,113252,1,0,0:0:0:0:
320,192,113252,1,0,0:0:0:100:8bitsnare.wav
64,192,113575,128,0,114058:0:0:0:100:8bitkick.wav
192,192,113736,128,0,114058:0:0:0:0:
320,192,113897,128,0,114058:0:0:0:100:8bitkick.wav
448,192,114058,1,0,0:0:0:0:
320,192,114220,1,0,0:0:0:0:
192,192,114220,1,0,0:0:0:0:
64,192,114220,1,0,0:0:0:100:8bitkick.wav
448,192,114381,1,0,0:0:0:100:8bitkick.wav
64,192,114462,1,0,0:0:0:100:8bitkick.wav
448,192,114542,1,0,0:0:0:0:
320,192,114542,1,0,0:0:0:0:
192,192,114542,1,0,0:0:0:100:8bitsnare.wav
64,192,114704,1,0,0:0:0:0:
448,192,114865,128,0,115349:0:0:0:100:8bitsnare.wav
320,192,115026,128,0,115349:0:0:0:100:8bitkick.wav
192,192,115187,128,0,115349:0:0:0:100:8bitsnare.wav
64,192,115349,1,0,0:0:0:100:8bitkick.wav
448,192,115510,1,0,0:0:0:0:
192,192,115510,1,0,0:0:0:0:
320,192,115510,1,0,0:0:0:100:8bitsnare.wav
64,192,115671,1,0,0:0:0:100:8bitkick.wav
448,192,115752,1,0,0:0:0:100:8bitkick.wav
192,192,115833,1,0,0:0:0:0:
320,192,115833,1,0,0:0:0:0:
64,192,115833,1,0,0:0:0:100:8bitsnare.wav
448,192,115994,1,0,0:0:0:0:
192,192,116155,5,0,0:0:0:0:
448,192,116155,128,0,116478:0:0:0:0:
320,192,116155,128,0,116316:0:0:0:0:
64,192,116155,128,0,116639:0:0:0:100:8bitsnare.wav
192,192,116316,128,0,116639:0:0:0:100:8bitkick.wav
320,192,116478,128,0,116639:0:0:0:100:8bitsnare.wav
448,192,116639,1,0,0:0:0:100:8bitkick.wav
320,192,116800,5,0,0:0:0:0:
64,192,116800,128,0,117123:0:0:0:0:
448,192,116800,128,0,117284:0:0:0:100:8bitsnare.wav
192,192,116800,128,0,116962:0:0:0:0:
320,192,116962,128,0,117284:0:0:0:100:8bitkick.wav
192,192,117123,128,0,117284:0:0:0:100:8bitsnare.wav
64,192,117284,1,0,0:0:0:100:8bitkick.wav
448,192,117446,128,0,117526:0:0:0:0:
64,192,117446,1,0,0:0:0:0:
320,192,117446,128,0,117526:0:0:0:0:
192,192,117446,1,0,0:0:0:100:8bitsnare.wav
320,192,117768,128,0,117849:0:0:0:0:
448,192,117768,1,0,0:0:0:0:
192,192,117768,128,0,117849:0:0:0:0:
64,192,117768,1,0,0:0:0:100:8bitsnare.wav
320,192,118091,1,0,0:0:0:0:
192,192,118091,128,0,118171:0:0:0:0:
64,192,118091,128,0,118171:0:0:0:0:
448,192,118091,1,0,0:0:0:100:8bitsnare.wav
448,192,118252,1,0,0:0:0:100:8bitkick.wav
64,192,118333,1,0,0:0:0:100:8bitkick.wav
320,192,118413,128,0,118494:0:0:0:0:
192,192,118413,128,0,118494:0:0:0:0:
448,192,118413,1,0,0:0:0:100:8bitsnare.wav
64,192,118736,128,0,118897:0:0:0:0:
192,192,118736,128,0,118897:0:0:0:0:
448,192,118736,1,0,0:0:0:100:8bitsnare.wav
320,192,118736,1,0,0:0:0:100:8bitkick.wav
320,192,119381,128,0,119542:0:0:0:0:
448,192,119381,128,0,119542:0:0:0:0:
64,192,119381,1,0,0:0:0:100:8bitsnare.wav
192,192,119381,1,0,0:0:0:100:8bitkick.wav
192,192,120026,1,0,0:0:0:0:
64,192,120026,1,0,0:0:0:0:
320,192,120026,1,0,0:0:0:0:
448,192,120026,1,0,0:0:0:100:8bitsnare.wav
320,192,120187,1,0,0:0:0:0:
192,192,120187,1,0,0:0:0:100:8bitkick.wav
64,192,120349,1,0,0:0:0:0:
192,192,120349,1,0,0:0:0:0:
320,192,120349,1,0,0:0:0:0:
448,192,120349,1,0,0:0:0:100:8bitsnare.wav
448,192,120510,1,0,0:0:0:0:
64,192,120510,1,0,0:0:0:100:8bitkick.wav
192,192,120671,128,0,121316:0:0:0:0:
448,192,120671,1,0,0:0:0:0:
320,192,120671,128,0,121316:0:0:0:0:
64,192,120671,1,0,0:0:0:100:8bitsnare.wav
64,192,122607,128,0,122768:0:0:0:0:
192,192,122607,128,0,122768:0:0:0:0:
448,192,122607,1,0,0:0:0:0:
320,192,122607,1,0,0:0:0:100:8bitkick.wav
448,192,122768,1,0,0:0:0:100:8bitsnare.wav
320,192,122768,1,0,0:0:0:0:
320,192,122929,128,0,123091:0:0:0:0:
448,192,122929,128,0,123091:0:0:0:0:
64,192,122929,1,0,0:0:0:0:
192,192,122929,1,0,0:0:0:100:8bitkick.wav
192,192,123091,1,0,0:0:0:0:
64,192,123091,1,0,0:0:0:100:8bitsnare.wav
192,192,123413,1,0,0:0:0:100:8bitkick.wav
320,192,123494,1,0,0:0:0:100:8bitkick.wav
64,192,123575,1,0,0:0:0:0:
448,192,123575,1,0,0:0:0:100:8bitsnare.wav
64,192,123897,5,0,0:0:0:100:8bitkick.wav
320,192,124058,128,0,124220:0:0:0:0:
64,192,124220,1,0,0:0:0:100:8bitkick.wav
448,192,124381,128,0,124542:0:0:0:0:
192,192,124542,1,0,0:0:0:100:8bitkick.wav
448,192,124704,128,0,124865:0:0:0:0:
192,192,124865,1,0,0:0:0:100:8bitkick.wav
320,192,125026,128,0,125187:0:0:0:0:
448,192,125187,1,0,0:0:0:100:8bitkick.wav
192,192,125349,128,0,125510:0:0:0:0:
448,192,125510,1,0,0:0:0:100:8bitkick.wav
64,192,125671,128,0,125833:0:0:0:0:
320,192,125833,1,0,0:0:0:100:8bitkick.wav
64,192,125994,128,0,126155:0:0:0:0:
320,192,126155,1,0,0:0:0:100:8bitkick.wav
192,192,126316,128,0,126478:0:0:0:0:
448,192,126478,1,0,0:0:0:100:8bitsnare.wav
320,192,126478,1,0,0:0:0:100:8bitkick.wav
64,192,126639,5,0,0:0:0:100:8bitkick.wav
320,192,126639,1,0,0:0:0:0:
448,192,126639,1,0,0:0:0:100:8bitsnare.wav
192,192,127123,1,0,0:0:0:0:
64,192,127123,1,0,0:0:0:100:8bitsnare.wav
448,192,127123,1,0,0:0:0:100:8bitkick.wav
320,192,127446,1,0,0:0:0:100:8bitkick.wav
448,192,127768,128,0,127849:0:0:0:0:
64,192,127768,128,0,127929:0:0:0:0:
192,192,127768,128,0,127929:0:0:0:0:
320,192,127768,128,0,127849:0:0:0:100:8bitkick.wav
448,192,127929,128,0,128091:0:0:0:0:
320,192,127929,128,0,128091:0:0:0:0:
64,192,128091,128,0,128252:0:0:0:0:
192,192,128091,128,0,128252:0:0:0:100:8bitkick.wav
448,192,128252,128,0,128413:0:0:0:0:
320,192,128252,128,0,128413:0:0:0:0:
64,192,128413,1,0,0:0:0:0:
192,192,128413,1,0,0:0:0:100:8bitkick.wav
448,192,128575,1,0,0:0:0:100:8bitkick.wav
64,192,128655,1,0,0:0:0:100:8bitkick.wav
192,192,128736,128,0,128816:0:0:0:0:
320,192,128736,128,0,128816:0:0:0:0:
448,192,128736,1,0,0:0:0:100:8bitsnare.wav
192,192,129058,128,0,129139:0:0:0:0:
320,192,129058,128,0,129220:0:0:0:0:
448,192,129058,128,0,129220:0:0:0:0:
64,192,129058,128,0,129139:0:0:0:100:8bitsnare.wav
64,192,129220,128,0,129381:0:0:0:100:8bitkick.wav
192,192,129220,128,0,129381:0:0:0:0:
320,192,129381,128,0,129542:0:0:0:0:
448,192,129381,128,0,129542:0:0:0:100:8bitsnare.wav
192,192,129542,128,0,129704:0:0:0:0:
64,192,129542,128,0,129704:0:0:0:100:8bitkick.wav
320,192,129704,1,0,0:0:0:0:
448,192,129704,1,0,0:0:0:100:8bitsnare.wav
64,192,129865,1,0,0:0:0:100:8bitkick.wav
448,192,129946,1,0,0:0:0:100:8bitkick.wav
320,192,130026,128,0,130107:0:0:0:0:
192,192,130026,128,0,130107:0:0:0:0:
64,192,130026,1,0,0:0:0:100:8bitsnare.wav
192,192,130349,1,0,0:0:0:0:
64,192,130349,1,0,0:0:0:100:8bitcrash.wav
320,192,130349,1,0,0:0:0:100:8bitkick.wav
448,192,130510,1,0,0:0:0:0:
320,192,130671,1,0,0:0:0:100:8bitkick.wav
64,192,130671,128,0,130833:0:0:0:0:
192,192,130671,1,0,0:0:0:100:8bitsnare.wav
448,192,130833,1,0,0:0:0:0:
320,192,130994,128,0,131155:0:0:0:0:
64,192,130994,1,0,0:0:0:100:8bitkick.wav
192,192,131155,128,0,131316:0:0:0:0:
64,192,131316,1,0,0:0:0:100:8bitsnare.wav
448,192,131316,128,0,131478:0:0:0:0:
320,192,131316,1,0,0:0:0:100:8bitkick.wav
192,192,131478,128,0,131639:0:0:0:0:
448,192,131639,1,0,0:0:0:0:
64,192,131639,1,0,0:0:0:100:8bitkick.wav
320,192,131800,1,0,0:0:0:0:
192,192,131881,1,0,0:0:0:0:
320,192,131962,1,0,0:0:0:100:8bitsnare.wav
64,192,131962,1,0,0:0:0:100:8bitkick.wav
192,192,132123,1,0,0:0:0:0:
64,192,132284,128,0,132607:0:0:0:0:
448,192,132284,1,0,0:0:0:100:8bitkick.wav
192,192,132446,1,0,0:0:0:0:
320,192,132526,1,0,0:0:0:0:
448,192,132607,1,0,0:0:0:100:8bitsnare.wav
192,192,132607,1,0,0:0:0:100:8bitkick.wav
320,192,132768,1,0,0:0:0:0:
192,192,132929,1,0,0:0:0:100:8bitcrash.wav
64,192,132929,128,0,133091:0:0:0:0:
448,192,132929,1,0,0:0:0:100:8bitkick.wav
320,192,133091,5,0,0:0:0:0:
192,192,133171,1,0,0:0:0:0:
448,192,133252,1,0,0:0:0:100:8bitsnare.wav
64,192,133252,1,0,0:0:0:100:8bitkick.wav
192,192,133413,1,0,0:0:0:0:
320,192,133575,1,0,0:0:0:0:
64,192,133575,1,0,0:0:0:100:8bitkick.wav
448,192,133736,1,0,0:0:0:0:
192,192,133897,1,0,0:0:0:0:
64,192,133897,1,0,0:0:0:100:8bitsnare.wav
320,192,133897,1,0,0:0:0:100:8bitkick.wav
448,192,134058,1,0,0:0:0:0:
448,192,134220,128,0,134381:0:0:0:0:
192,192,134220,1,0,0:0:0:0:
64,192,134220,128,0,134381:0:0:0:0:
320,192,134220,1,0,0:0:0:100:8bitkick.wav
320,192,134381,1,0,0:0:0:0:
192,192,134381,1,0,0:0:0:100:8bitsnare.wav
320,192,134542,128,0,134704:0:0:0:0:
448,192,134542,1,0,0:0:0:0:
192,192,134542,128,0,134704:0:0:0:0:
64,192,134542,1,0,0:0:0:100:8bitkick.wav
64,192,134704,1,0,0:0:0:0:
448,192,134704,1,0,0:0:0:100:8bitsnare.wav
320,192,135026,1,0,0:0:0:100:8bitkick.wav
192,192,135107,1,0,0:0:0:100:8bitkick.wav
64,192,135187,1,0,0:0:0:0:
448,192,135187,1,0,0:0:0:100:8bitsnare.wav
192,192,135510,1,0,0:0:0:0:
320,192,135510,1,0,0:0:0:100:8bitcrash.wav
448,192,135510,1,0,0:0:0:100:8bitkick.wav
64,192,135671,1,0,0:0:0:0:
192,192,135833,1,0,0:0:0:100:8bitkick.wav
448,192,135833,128,0,135994:0:0:0:0:
320,192,135833,1,0,0:0:0:100:8bitsnare.wav
64,192,135994,1,0,0:0:0:0:
192,192,136155,128,0,136316:0:0:0:0:
448,192,136155,1,0,0:0:0:100:8bitkick.wav
320,192,136316,128,0,136478:0:0:0:0:
448,192,136478,1,0,0:0:0:100:8bitsnare.wav
64,192,136478,128,0,136639:0:0:0:0:
192,192,136478,1,0,0:0:0:100:8bitkick.wav
320,192,136639,128,0,136800:0:0:0:0:
64,192,136800,1,0,0:0:0:0:
448,192,136800,1,0,0:0:0:100:8bitkick.wav
192,192,136962,1,0,0:0:0:0:
320,192,137042,1,0,0:0:0:0:
192,192,137123,1,0,0:0:0:100:8bitsnare.wav
448,192,137123,1,0,0:0:0:100:8bitkick.wav
320,192,137284,1,0,0:0:0:0:
448,192,137446,128,0,137768:0:0:0:0:
64,192,137446,1,0,0:0:0:100:8bitkick.wav
320,192,137607,1,0,0:0:0:0:
192,192,137687,1,0,0:0:0:0:
64,192,137768,1,0,0:0:0:100:8bitsnare.wav
320,192,137768,1,0,0:0:0:100:8bitkick.wav
192,192,137929,1,0,0:0:0:0:
64,192,138091,1,0,0:0:0:100:8bitkick.wav
448,192,138091,128,0,138252:0:0:0:0:
192,192,138091,1,0,0:0:0:100:8bitcrash.wav
192,192,138252,1,0,0:0:0:0:
64,192,138252,1,0,0:0:0:0:
320,192,138413,1,0,0:0:0:100:8bitkick.wav
64,192,138413,128,0,138575:0:0:0:0:
448,192,138413,1,0,0:0:0:100:8bitsnare.wav
320,192,138575,1,0,0:0:0:0:
448,192,138575,1,0,0:0:0:0:
192,192,138736,1,0,0:0:0:0:
448,192,138736,128,0,138897:0:0:0:0:
64,192,138736,1,0,0:0:0:100:8bitkick.wav
64,192,138897,1,0,0:0:0:0:
192,192,138897,1,0,0:0:0:0:
448,192,139058,1,0,0:0:0:100:8bitsnare.wav
64,192,139058,1,0,0:0:0:100:8bitkick.wav
320,192,139220,1,0,0:0:0:0:
64,192,139381,128,0,139462:0:0:0:0:
192,192,139381,128,0,139462:0:0:0:0:
320,192,139381,128,0,139623:0:0:0:0:
448,192,139381,1,0,0:0:0:100:8bitkick.wav
64,192,139542,128,0,139784:0:0:0:0:
192,192,139542,1,0,0:0:0:0:
448,192,139704,128,0,139946:0:0:0:0:
320,192,139704,1,0,0:0:0:100:8bitkick.wav
192,192,139865,128,0,140026:0:0:0:0:
64,192,139865,1,0,0:0:0:0:
320,192,140026,1,0,0:0:0:0:
448,192,140026,1,0,0:0:0:100:8bitkick.wav
64,192,140187,1,0,0:0:0:100:8bitkick.wav
448,192,140268,1,0,0:0:0:100:8bitkick.wav
320,192,140349,128,0,140429:0:0:0:0:
64,192,140349,1,0,0:0:0:100:8bitsnare.wav
192,192,140349,128,0,140429:0:0:0:0:
192,192,140671,128,0,140833:0:0:0:100:8bitcrash.wav
64,192,140671,128,0,140833:0:0:0:100:8bitkick.wav
448,192,140833,1,0,0:0:0:0:
320,192,140833,1,0,0:0:0:0:
192,192,140994,128,0,141155:0:0:0:100:8bitsnare.wav
64,192,140994,128,0,141155:0:0:0:100:8bitkick.wav
448,192,141155,1,0,0:0:0:0:
320,192,141155,1,0,0:0:0:0:
192,192,141316,128,0,141478:0:0:0:0:
64,192,141316,128,0,141478:0:0:0:100:8bitkick.wav
320,192,141478,128,0,141639:0:0:0:0:
448,192,141478,1,0,0:0:0:0:
192,192,141639,1,0,0:0:0:100:8bitsnare.wav
448,192,141639,1,0,0:0:0:100:8bitkick.wav
64,192,141639,128,0,141720:0:0:0:0:
320,192,141800,1,0,0:0:0:0:
64,192,141881,1,0,0:0:0:0:
448,192,141962,1,0,0:0:0:0:
192,192,141962,1,0,0:0:0:0:
320,192,141962,128,0,142042:0:0:0:100:8bitkick.wav
192,192,142123,128,0,142284:0:0:0:0:
64,192,142123,128,0,142284:0:0:0:0:
448,192,142284,128,0,142446:0:0:0:100:8bitsnare.wav
320,192,142284,128,0,142446:0:0:0:100:8bitkick.wav
64,192,142446,128,0,142607:0:0:0:0:
192,192,142446,128,0,142607:0:0:0:0:
448,192,142607,128,0,142768:0:0:0:0:
320,192,142607,128,0,142768:0:0:0:100:8bitkick.wav
64,192,142768,128,0,142929:0:0:0:0:
192,192,142768,1,0,0:0:0:0:
320,192,142929,1,0,0:0:0:100:8bitsnare.wav
192,192,142929,1,0,0:0:0:100:8bitkick.wav
64,192,143091,1,0,0:0:0:0:
448,192,143252,128,0,143575:0:0:0:100:8bitkick.wav
320,192,143413,1,0,0:0:0:0:
192,192,143413,1,0,0:0:0:0:
64,192,143413,1,0,0:0:0:0:
64,192,143575,128,0,143897:0:0:0:100:8bitkick.wav
320,192,143736,1,0,0:0:0:0:
192,192,143736,1,0,0:0:0:0:
448,192,143736,1,0,0:0:0:0:
448,192,143897,128,0,144220:0:0:0:100:8bitkick.wav
64,192,144058,1,0,0:0:0:0:
192,192,144058,1,0,0:0:0:0:
320,192,144058,1,0,0:0:0:0:
64,192,144220,128,0,144381:0:0:0:100:8bitkick.wav
448,192,144381,1,0,0:0:0:0:
320,192,144542,128,0,144865:0:0:0:0:
192,192,144542,128,0,144865:0:0:0:100:8bitsnare.wav
64,192,144704,5,0,0:0:0:100:8bitkick.wav
448,192,144784,1,0,0:0:0:100:8bitkick.wav
64,192,144865,1,0,0:0:0:100:8bitsnare.wav
320,192,145026,1,0,0:0:0:0:
192,192,145026,1,0,0:0:0:100:8bitkick.wav
448,192,145187,128,0,145510:0:0:0:0:
64,192,145187,128,0,145510:0:0:0:100:8bitsnare.wav
320,192,145349,1,0,0:0:0:100:8bitkick.wav
192,192,145429,1,0,0:0:0:100:8bitkick.wav
320,192,145510,1,0,0:0:0:100:8bitsnare.wav
64,192,145833,128,0,145994:0:0:0:100:8bitcrash.wav
320,192,145833,128,0,145994:0:0:0:100:8bitkick.wav
448,192,145994,1,0,0:0:0:0:
192,192,145994,1,0,0:0:0:0:
64,192,146155,128,0,146316:0:0:0:100:8bitsnare.wav
320,192,146155,128,0,146316:0:0:0:100:8bitkick.wav
448,192,146316,1,0,0:0:0:0:
192,192,146316,1,0,0:0:0:0:
64,192,146478,128,0,146639:0:0:0:0:
320,192,146478,128,0,146639:0:0:0:100:8bitkick.wav
192,192,146639,1,0,0:0:0:0:
448,192,146639,128,0,146800:0:0:0:0:
320,192,146800,1,0,0:0:0:100:8bitkick.wav
64,192,146800,128,0,146881:0:0:0:0:
192,192,146800,1,0,0:0:0:100:8bitsnare.wav
448,192,146962,1,0,0:0:0:0:
64,192,147042,1,0,0:0:0:0:
448,192,147123,128,0,147204:0:0:0:0:
320,192,147123,1,0,0:0:0:0:
192,192,147123,1,0,0:0:0:100:8bitkick.wav
64,192,147284,128,0,147446:0:0:0:0:
320,192,147284,128,0,147446:0:0:0:0:
448,192,147446,128,0,147607:0:0:0:100:8bitsnare.wav
192,192,147446,128,0,147607:0:0:0:100:8bitkick.wav
320,192,147607,128,0,147768:0:0:0:0:
64,192,147607,128,0,147768:0:0:0:0:
448,192,147768,128,0,147929:0:0:0:0:
192,192,147768,128,0,147929:0:0:0:100:8bitkick.wav
320,192,147929,1,0,0:0:0:0:
64,192,147929,128,0,148091:0:0:0:0:
320,192,148091,1,0,0:0:0:100:8bitsnare.wav
448,192,148091,1,0,0:0:0:100:8bitkick.wav
64,192,148252,1,0,0:0:0:0:
320,192,148413,128,0,148736:0:0:0:100:8bitkick.wav
64,192,148575,1,0,0:0:0:0:
192,192,148575,1,0,0:0:0:0:
448,192,148575,1,0,0:0:0:0:
192,192,148736,128,0,149058:0:0:0:100:8bitkick.wav
448,192,148897,1,0,0:0:0:0:
320,192,148897,1,0,0:0:0:0:
64,192,148897,1,0,0:0:0:0:
320,192,149058,128,0,149381:0:0:0:100:8bitkick.wav
448,192,149220,1,0,0:0:0:0:
64,192,149220,1,0,0:0:0:0:
192,192,149220,1,0,0:0:0:0:
192,192,149381,128,0,149542:0:0:0:100:8bitkick.wav
448,192,149542,1,0,0:0:0:0:
192,192,149704,128,0,149784:0:0:0:0:
64,192,149704,128,0,149784:0:0:0:0:
320,192,149704,128,0,149946:0:0:0:0:
448,192,149704,1,0,0:0:0:100:8bitkick.wav
192,192,149865,128,0,150107:0:0:0:0:
64,192,149865,1,0,0:0:0:0:
448,192,150026,128,0,150268:0:0:0:0:
320,192,150026,1,0,0:0:0:100:8bitkick.wav
64,192,150187,128,0,150349:0:0:0:0:
192,192,150187,1,0,0:0:0:0:
448,192,150349,1,0,0:0:0:0:
320,192,150349,1,0,0:0:0:100:8bitkick.wav
448,192,150510,1,0,0:0:0:100:8bitkick.wav
64,192,150591,1,0,0:0:0:100:8bitkick.wav
320,192,150671,128,0,150752:0:0:0:0:
448,192,150671,1,0,0:0:0:0:
192,192,150671,128,0,150752:0:0:0:100:8bitsnare.wav
320,192,150994,128,0,151075:0:0:0:0:
448,192,150994,128,0,151075:0:0:0:0:
64,192,150994,1,0,0:0:0:100:8bitsnare.wav
192,192,150994,128,0,151236:0:0:0:0:
448,192,151155,128,0,151397:0:0:0:0:
320,192,151155,1,0,0:0:0:100:8bitkick.wav
64,192,151316,128,0,151558:0:0:0:0:
192,192,151316,1,0,0:0:0:100:8bitsnare.wav
320,192,151478,128,0,151639:0:0:0:0:
448,192,151478,1,0,0:0:0:100:8bitkick.wav
192,192,151639,1,0,0:0:0:0:
64,192,151639,1,0,0:0:0:100:8bitsnare.wav
320,192,152284,128,0,152526:0:0:0:0:
192,192,152284,128,0,152365:0:0:0:0:
64,192,152284,128,0,152365:0:0:0:0:
448,192,152284,1,0,0:0:0:100:8bitkick.wav
64,192,152446,128,0,152687:0:0:0:0:
192,192,152446,1,0,0:0:0:0:
320,192,152607,128,0,152849:0:0:0:0:
448,192,152607,1,0,0:0:0:100:8bitkick.wav
64,192,152768,128,0,153010:0:0:0:0:
192,192,152768,1,0,0:0:0:0:
448,192,152929,128,0,153171:0:0:0:100:8bitkick.wav
320,192,152929,1,0,0:0:0:100:8bitsnare.wav
192,192,153091,128,0,153333:0:0:0:0:
64,192,153091,1,0,0:0:0:0:
448,192,153252,128,0,153494:0:0:0:100:8bitkick.wav
320,192,153252,1,0,0:0:0:100:8bitsnare.wav
192,192,153413,128,0,153494:0:0:0:0:
64,192,153413,1,0,0:0:0:0:
192,192,153575,128,0,153655:0:0:0:100:8bitsnare.wav
448,192,153575,1,0,0:0:0:100:8bitcrash.wav
320,192,153575,1,0,0:0:0:100:8bitkick.wav
320,192,153736,128,0,153816:0:0:0:0:
64,192,153736,1,0,0:0:0:0:
192,192,153736,1,0,0:0:0:100:8bitkick.wav
192,192,153897,128,0,153978:0:0:0:100:8bitcrash.wav
448,192,153897,128,0,153978:0:0:0:100:8bitsnare.wav
320,192,153897,1,0,0:0:0:100:8bitkick.wav
320,192,154058,128,0,154139:0:0:0:0:
192,192,154058,1,0,0:0:0:100:8bitkick.wav
64,192,154058,128,0,154139:0:0:0:0:
192,192,154220,128,0,154300:0:0:0:100:8bitcrash.wav
448,192,154220,1,0,0:0:0:100:8bitkick.wav
320,192,154220,128,0,154300:0:0:0:100:8bitsnare.wav
320,192,154381,128,0,154462:0:0:0:0:
192,192,154381,128,0,154462:0:0:0:0:
64,192,154381,1,0,0:0:0:100:8bitkick.wav
320,192,154542,128,0,154623:0:0:0:100:8bitcrash.wav
448,192,154542,128,0,154623:0:0:0:100:8bitsnare.wav
192,192,154542,1,0,0:0:0:100:8bitkick.wav
64,192,154704,128,0,154784:0:0:0:0:
192,192,154704,128,0,154784:0:0:0:0:
320,192,154704,1,0,0:0:0:100:8bitkick.wav
320,192,154865,1,0,0:0:0:0:
448,192,154865,1,0,0:0:0:100:8bitcrash.wav
64,192,154865,1,0,0:0:0:100:8bitsnare.wav
192,192,154865,1,0,0:0:0:100:8bitkick.wav
192,192,155187,1,0,0:0:0:0:
64,192,155187,1,0,0:0:0:100:8bitsnare.wav
448,192,155510,1,0,0:0:0:0:
192,192,155510,128,0,155591:0:0:0:0:
64,192,155510,128,0,155591:0:0:0:0:
320,192,155510,1,0,0:0:0:100:8bitkick.wav
64,192,156155,1,0,0:0:0:100:8bitcrash.wav
448,192,156155,128,0,156316:0:0:0:0:
320,192,156155,1,0,0:0:0:100:8bitkick.wav
320,192,156478,1,0,0:0:0:0:
64,192,156478,128,0,156639:0:0:0:0:
192,192,156478,1,0,0:0:0:100:8bitsnare.wav
192,192,156800,128,0,156962:0:0:0:0:
448,192,156800,1,0,0:0:0:100:8bitkick.wav
320,192,156962,128,0,157123:0:0:0:0:
448,192,156962,1,0,0:0:0:100:8bitkick.wav
64,192,157123,1,0,0:0:0:0:
192,192,157123,1,0,0:0:0:100:8bitsnare.wav
448,192,157284,128,0,157446:0:0:0:0:
320,192,157284,1,0,0:0:0:100:8bitkick.wav
448,192,157607,1,0,0:0:0:0:
64,192,157607,1,0,0:0:0:100:8bitkick.wav
320,192,157687,1,0,0:0:0:0:
192,192,157768,1,0,0:0:0:0:
448,192,157768,1,0,0:0:0:100:8bitsnare.wav
192,192,157929,1,0,0:0:0:0:
64,192,157929,1,0,0:0:0:100:8bitsnare.wav
448,192,158010,1,0,0:0:0:0:
320,192,158091,1,0,0:0:0:100:8bitkick.wav
192,192,158252,1,0,0:0:0:0:
320,192,158333,1,0,0:0:0:0:
64,192,158413,1,0,0:0:0:0:
448,192,158413,1,0,0:0:0:100:8bitsnare.wav
192,192,158575,1,0,0:0:0:0:
192,192,158736,1,0,0:0:0:100:8bitcrash.wav
64,192,158736,128,0,158897:0:0:0:0:
448,192,158736,1,0,0:0:0:100:8bitkick.wav
448,192,159058,128,0,159220:0:0:0:0:
320,192,159058,1,0,0:0:0:0:
192,192,159058,1,0,0:0:0:100:8bitsnare.wav
320,192,159381,128,0,159542:0:0:0:0:
64,192,159381,1,0,0:0:0:100:8bitkick.wav
192,192,159542,128,0,159704:0:0:0:0:
64,192,159542,1,0,0:0:0:100:8bitkick.wav
448,192,159704,1,0,0:0:0:0:
320,192,159704,1,0,0:0:0:100:8bitsnare.wav
64,192,159865,128,0,160026:0:0:0:0:
192,192,159865,1,0,0:0:0:100:8bitkick.wav
64,192,160187,1,0,0:0:0:0:
448,192,160187,1,0,0:0:0:100:8bitkick.wav
192,192,160268,1,0,0:0:0:0:
320,192,160349,1,0,0:0:0:0:
64,192,160349,1,0,0:0:0:100:8bitsnare.wav
320,192,160510,1,0,0:0:0:0:
448,192,160510,1,0,0:0:0:100:8bitsnare.wav
64,192,160591,1,0,0:0:0:0:
192,192,160671,1,0,0:0:0:100:8bitkick.wav
320,192,160833,1,0,0:0:0:0:
192,192,160913,1,0,0:0:0:0:
448,192,160994,1,0,0:0:0:0:
64,192,160994,1,0,0:0:0:100:8bitsnare.wav
320,192,161155,1,0,0:0:0:0:
448,192,161316,128,0,161478:0:0:0:0:
64,192,161316,1,0,0:0:0:100:8bitcrash.wav
192,192,161316,1,0,0:0:0:100:8bitkick.wav
64,192,161639,128,0,161800:0:0:0:0:
320,192,161639,1,0,0:0:0:0:
192,192,161639,1,0,0:0:0:100:8bitsnare.wav
320,192,161962,128,0,162123:0:0:0:0:
448,192,161962,1,0,0:0:0:100:8bitkick.wav
192,192,162123,128,0,162284:0:0:0:0:
448,192,162123,1,0,0:0:0:100:8bitkick.wav
64,192,162284,1,0,0:0:0:0:
320,192,162284,1,0,0:0:0:100:8bitsnare.wav
64,192,162446,128,0,162607:0:0:0:0:
448,192,162446,1,0,0:0:0:100:8bitkick.wav
448,192,162768,1,0,0:0:0:0:
64,192,162768,1,0,0:0:0:100:8bitkick.wav
192,192,162849,1,0,0:0:0:0:
320,192,162929,1,0,0:0:0:0:
448,192,162929,1,0,0:0:0:100:8bitsnare.wav
64,192,163091,1,0,0:0:0:0:
448,192,163171,1,0,0:0:0:0:
192,192,163252,1,0,0:0:0:100:8bitkick.wav
320,192,163413,1,0,0:0:0:0:
192,192,163494,1,0,0:0:0:0:
64,192,163575,1,0,0:0:0:0:
448,192,163575,1,0,0:0:0:100:8bitsnare.wav
320,192,163736,1,0,0:0:0:0:
320,192,163897,1,0,0:0:0:100:8bitcrash.wav
64,192,163897,128,0,164058:0:0:0:0:
448,192,163897,1,0,0:0:0:100:8bitkick.wav
448,192,164220,128,0,164381:0:0:0:0:
192,192,164220,1,0,0:0:0:0:
320,192,164220,1,0,0:0:0:100:8bitsnare.wav
192,192,164542,128,0,164704:0:0:0:0:
64,192,164542,1,0,0:0:0:100:8bitkick.wav
320,192,164704,128,0,164865:0:0:0:0:
64,192,164704,1,0,0:0:0:100:8bitkick.wav
448,192,164865,1,0,0:0:0:0:
192,192,164865,1,0,0:0:0:100:8bitsnare.wav
448,192,165026,128,0,165187:0:0:0:0:
64,192,165026,1,0,0:0:0:100:8bitkick.wav
64,192,165349,1,0,0:0:0:0:
448,192,165349,1,0,0:0:0:100:8bitkick.wav
320,192,165429,1,0,0:0:0:0:
192,192,165510,1,0,0:0:0:0:
64,192,165510,1,0,0:0:0:100:8bitsnare.wav
448,192,165671,1,0,0:0:0:0:
64,192,165752,1,0,0:0:0:0:
320,192,165833,1,0,0:0:0:100:8bitkick.wav
192,192,165994,1,0,0:0:0:0:
320,192,166075,1,0,0:0:0:0:
448,192,166155,1,0,0:0:0:0:
64,192,166155,1,0,0:0:0:100:8bitsnare.wav
192,192,166316,1,0,0:0:0:0:
448,192,166478,1,0,0:0:0:0:
64,192,166478,1,0,0:0:0:100:8bitkick.wav
320,192,166962,1,0,0:0:0:100:8bitkick.wav
448,192,167042,1,0,0:0:0:100:8bitkick.wav
64,192,167123,1,0,0:0:0:0:
192,192,167123,1,0,0:0:0:100:8bitsnare.wav
448,192,167204,1,0,0:0:0:100:8bitsnare.wav
64,192,167284,1,0,0:0:0:0:
192,192,167284,1,0,0:0:0:100:8bitsnare.wav
448,192,167365,1,0,0:0:0:100:8bitsnare.wav
320,192,167446,1,0,0:0:0:100:8bitkick.wav
192,192,167607,1,0,0:0:0:0:
64,192,167607,1,0,0:0:0:100:8bitsnare.wav
448,192,167768,1,0,0:0:0:0:
64,192,167768,1,0,0:0:0:100:8bitkick.wav
