osu file format v14

[General]
AudioFilename: audio.ogg
AudioLeadIn: 0
PreviewTime: 80178
Countdown: 0
SampleSet: Soft
StackLeniency: 0.2
Mode: 0
LetterboxInBreaks: 0
WidescreenStoryboard: 1

[Editor]
Bookmarks: 24849,36012,58337,80663,102989,113977
DistanceSpacing: 0.4
BeatDivisor: 4
GridSize: 16
TimelineZoom: 1.5

[Metadata]
Title:25-ji no Jounetsu
TitleUnicode:25時の情熱
Artist:25-ji, Nightcord de. x KAITO
ArtistUnicode:25時、ナイトコードで。 × KAITO
Creator:Mocaotic
Version:Insane: Mafuyu
Source:プロジェクトセカイ カラフルステージ! feat. 初音ミク
Tags:Kudou Chitose mrrrk Dailycare カンザキイオリ Kanzaki Iori HATSUNE MIKU: COLORFUL STAGE! at 25:00 NightCode Project Sekai プロセカ Proseka Puroseka vocaloid cover hatsune miku 宵崎奏 YOISAKI KANADE 朝比奈まふゆ ASAHINA MAFUYU 東雲絵名 SHINONOME ENA 暁山瑞希 AKIYAMA MIZUKI 楠木ともり TOMORI KUSUNOKI 田辺留依 TANABE RUI 鈴木みのり SUZUKI MINORI 佐藤日向 SATO HINATA Japanese Pop Jpop J-pop Video Rhythm Mobile Game
BeatmapID:4420480
BeatmapSetID:2106614

[Difficulty]
HPDrainRate:5
CircleSize:4.5
OverallDifficulty:8
ApproachRate:8.5
SliderMultiplier:2.96
SliderTickRate:1

[Events]
//Background and Video events
0,0,"mafuyu.jpg",0,0
//Break Periods
//Storyboard Layer 0 (Background)
//Storyboard Layer 1 (Fail)
//Storyboard Layer 2 (Pass)
//Storyboard Layer 3 (Foreground)
//Storyboard Layer 4 (Overlay)
//Storyboard Sound Samples

[TimingPoints]
2824,697.674418604651,4,2,2,45,1,0
2824,-200,4,2,2,45,0,0
24451,-200,4,2,2,60,0,0
25149,-200,4,2,2,80,0,0
36312,-200,4,2,2,55,0,0
37097,-200,4,2,2,5,0,0
37358,-200,4,2,2,55,0,0
37446,-200,4,2,2,5,0,0
37707,-200,4,2,2,55,0,0
39887,-200,4,2,2,5,0,0
39975,-200,4,2,2,55,0,0
40062,-200,4,2,2,5,0,0
40149,-200,4,2,2,55,0,0
40236,-200,4,2,2,5,0,0
40324,-200,4,2,2,55,0,0
40411,-200,4,2,2,5,0,0
40498,-200,4,2,2,55,0,0
42678,-200,4,2,2,5,0,0
42765,-200,4,2,2,55,0,0
42853,-200,4,2,2,5,0,0
42940,-200,4,2,2,55,0,0
43027,-200,4,2,2,5,0,0
43114,-200,4,2,2,55,0,0
43201,-200,4,2,2,5,0,0
43289,-200,4,2,2,55,0,0
45469,-200,4,2,2,5,0,0
45556,-200,4,2,2,55,0,0
45643,-200,4,2,2,5,0,0
45730,-200,4,2,2,55,0,0
45818,-200,4,2,2,5,0,0
45905,-200,4,2,2,55,0,0
45992,-200,4,2,2,5,0,0
46080,-200,4,2,2,55,0,0
48260,-200,4,2,2,5,0,0
48347,-200,4,2,2,55,0,0
48434,-200,4,2,2,5,0,0
48521,-200,4,2,2,55,0,0
48608,-200,4,2,2,5,0,0
48696,-200,4,2,2,55,0,0
48783,-200,4,2,2,5,0,0
48870,-200,4,2,2,55,0,0
50265,-200,4,2,2,65,0,0
52446,-200,4,2,2,5,0,0
52533,-200,4,2,2,65,0,0
52620,-200,4,2,2,5,0,0
52707,-200,4,2,2,65,0,0
52794,-200,4,2,2,5,0,0
52882,-200,4,2,2,65,0,0
53056,-200,4,2,2,55,0,0
53841,-200,4,2,2,5,0,0
53928,-200,4,2,2,55,0,0
54015,-200,4,2,2,5,0,0
54103,-200,4,2,2,55,0,0
54190,-200,4,2,2,5,0,0
54451,-200,4,2,2,55,0,0
56632,-200,4,2,2,5,0,0
56719,-200,4,2,2,55,0,0
56806,-200,4,2,2,5,0,0
56893,-200,4,2,2,55,0,0
56980,-200,4,2,2,5,0,0
57068,-200,4,2,2,55,0,0
57155,-200,4,2,2,5,0,0
57242,-200,4,2,2,55,0,0
58637,-200,4,2,2,65,0,0
75382,-200,4,2,2,74,0,0
77475,-200,4,2,2,50,0,0
78172,-200,4,2,2,60,0,0
78870,-200,4,2,2,70,0,0
79568,-200,4,2,2,80,0,0
80963,-200,4,2,2,86,0,1
103289,-200,4,2,2,80,0,0

[Colours]
Combo1 : 255,239,185
Combo2 : 214,204,232

[HitObjects]
492,44,2824,6,0,L|479:129,1,74,2|0,3:2|3:0,0:0:0:0:
502,210,3521,2,0,B|469:187|469:187|427:200,1,74,10|2,0:1|0:0,0:0:0:0:
437,197,4044,1,0,0:0:0:0:
458,268,4219,2,0,L|451:308,2,37,2|2|2,3:2|0:0|3:2,0:0:0:0:
503,211,4917,2,0,B|470:188|470:188|428:201,1,74,10|2,0:1|0:0,0:0:0:0:
437,197,5440,1,2,0:0:0:0:
458,268,5614,6,0,L|362:288,1,74,2|0,3:2|3:0,0:0:0:0:
316,263,6312,2,0,B|307:301|307:301|343:351,1,74,10|2,0:1|0:0,0:0:0:0:
385,283,6835,1,0,0:0:0:0:
327,329,7010,1,2,3:2:0:0:
327,329,7184,1,2,0:0:0:0:
260,306,7358,2,0,L|164:286,1,74,2|10,3:2|0:1,0:0:0:0:
61,384,8056,5,2,0:0:0:0:
61,384,8231,1,2,0:0:0:0:
61,384,8405,2,0,L|48:299,1,74,2|0,3:2|3:0,0:0:0:0:
0,230,9102,2,0,B|36:239|36:239|67:218,1,74,10|2,0:1|0:0,0:0:0:0:
65,218,9625,1,0,0:0:0:0:
22,161,9800,2,0,L|15:121,2,37,2|2|2,3:2|0:0|3:2,0:0:0:0:
0,230,10498,2,0,B|36:239|36:239|67:218,1,74,10|2,0:1|0:0,0:0:0:0:
65,218,11021,1,2,0:0:0:0:
22,161,11196,6,0,L|118:176,1,74,2|0,3:2|3:0,0:0:0:0:
163,190,11893,2,0,B|172:154|172:154|151:123,1,74,10|2,0:1|0:0,0:0:0:0:
95,172,12417,1,0,0:0:0:0:
151,123,12591,1,2,3:2:0:0:
151,123,12765,1,2,0:0:0:0:
223,138,12940,2,0,L|318:119,1,74,2|10,3:2|0:1,0:0:0:0:
441,0,13812,5,2,0:0:0:0:
441,0,13986,2,0,L|426:72,1,74,2|0,3:2|3:0,0:0:0:0:
512,132,14684,2,0,B|458:142|458:142|445:166,1,74,10|2,0:1|0:0,0:0:0:0:
448,158,15382,2,0,L|459:216,1,37,2|2,3:2|0:0,0:0:0:0:
378,173,15730,2,0,L|389:231,1,37,2|0,3:2|0:0,0:0:0:0:
378,173,16079,2,0,B|366:157|366:157|312:154,1,74,10|2,0:1|0:0,0:0:0:0:
232,123,16777,6,0,L|247:195,1,74,2|0,3:2|3:0,0:0:0:0:
247,195,17300,1,0,0:0:0:0:
314,221,17475,2,0,L|329:293,1,74,10|2,0:1|0:0,0:0:0:0:
330,293,17998,1,0,0:0:0:0:
267,333,18172,2,0,L|278:391,1,37,2|2,3:2|0:0,0:0:0:0:
197,348,18520,2,0,L|208:406,1,37,2|0,3:2|0:0,0:0:0:0:
197,348,18870,2,0,B|188:334|188:334|127:325,1,74,10|2,0:1|0:0,0:0:0:0:
0,384,19568,6,0,L|15:312,1,74,2|0,3:2|3:0,0:0:0:0:
0,218,20265,2,0,B|8:232|8:232|69:242,1,74,10|2,0:1|0:0,0:0:0:0:
65,241,20789,1,0,0:0:0:0:
121,194,20963,2,0,L|109:136,2,37,2|2|2,3:2|0:0|3:2,0:0:0:0:
0,218,21661,2,0,B|8:232|8:232|69:242,1,74,10|2,0:1|0:0,0:0:0:0:
121,194,22184,1,2,0:0:0:0:
53,165,22358,6,0,L|131:154,1,74,2|0,3:2|3:0,0:0:0:0:
141,236,23056,2,0,B|149:221|149:221|210:211,1,74,10|2,0:1|0:0,0:0:0:0:
206,212,23579,1,0,0:0:0:0:
277,200,23754,1,2,3:2:0:0:
348,186,23928,1,2,0:0:0:0:
277,200,24103,1,2,3:2:0:0:
291,279,24451,5,2,0:0:0:0:
277,200,24625,1,2,0:0:0:0:
261,122,24800,1,2,0:0:0:0:
86,0,25149,6,0,L|96:74,1,74,6|0,3:2|3:0,0:0:0:0:
18,47,25672,1,2,0:0:0:0:
163,26,25847,2,0,L|173:100,1,74,8|2,0:0|3:2,0:0:0:0:
183,169,26370,1,0,1:0:0:0:
95,73,26544,5,2,3:2:0:0:
240,52,26719,1,0,1:0:0:0:
95,73,26893,1,0,3:0:0:0:
240,52,27242,2,0,L|250:126,1,74,8|0,0:0|3:0,0:0:0:0:
260,195,27765,1,0,1:0:0:0:
317,78,27939,6,0,L|327:152,1,74,2|0,3:2|3:0,0:0:0:0:
249,125,28462,1,2,0:0:0:0:
394,104,28637,2,0,L|404:178,1,74,8|2,0:0|3:2,0:0:0:0:
414,247,29160,1,0,1:0:0:0:
471,130,29335,5,2,3:2:0:0:
326,151,29510,1,0,1:0:0:0:
471,130,29684,1,0,3:0:0:0:
471,130,30033,2,0,L|481:204,1,74,8|0,0:0|3:0,0:0:0:0:
409,236,30556,1,0,1:0:0:0:
427,384,30730,6,0,L|417:310,1,74,2|0,3:2|3:0,0:0:0:0:
495,337,31253,1,2,0:0:0:0:
350,358,31428,2,0,L|340:284,1,74,8|2,0:0|3:2,0:0:0:0:
330,215,31951,1,0,1:0:0:0:
418,311,32125,5,2,3:2:0:0:
273,332,32300,1,0,1:0:0:0:
418,311,32474,1,0,3:0:0:0:
273,332,32824,2,0,L|263:258,1,74,8|0,0:0|3:0,0:0:0:0:
253,189,33346,1,0,1:0:0:0:
196,306,33520,6,0,L|186:232,1,74,6|8,3:2|0:0,0:0:0:0:
264,259,34043,1,8,0:0:0:0:
109,206,34219,2,0,L|119:280,1,74,6|8,3:2|0:0,0:0:0:0:
129,349,34742,1,8,0:0:0:0:
98,135,34917,5,6,3:2:0:0:
38,191,35091,1,8,0:0:0:0:
38,191,35178,1,8,0:0:0:0:
38,191,35265,1,8,0:0:0:0:
172,166,35440,1,8,0:0:0:0:
131,348,35614,5,0,1:0:0:0:
120,277,35789,1,0,1:0:0:0:
109,206,35963,1,0,3:0:0:0:
298,0,36312,6,0,L|298:47,1,37,6|0,3:2|0:0,0:0:0:0:
214,0,36661,2,0,L|214:47,1,37,2|0,3:2|0:0,0:0:0:0:
364,95,37010,6,0,L|395:85,1,18.5,8|0,0:1|0:0,0:0:0:0:
384,161,37358,2,0,L|415:151,1,18.5,2|0,0:0|0:0,0:0:0:0:
298,23,37707,6,0,L|298:71,1,37,2|0,3:2|0:0,0:0:0:0:
214,23,38056,2,0,L|214:71,1,37,2|0,3:2|0:0,0:0:0:0:
133,167,38405,5,8,0:1:0:0:
79,121,38579,1,0,0:0:0:0:
145,96,38754,1,2,0:0:0:0:
298,47,39102,6,0,L|298:95,1,37,2|0,3:2|0:0,0:0:0:0:
214,47,39451,2,0,L|214:95,1,37,2|0,3:2|0:0,0:0:0:0:
348,167,39800,6,0,L|362:149,1,18.5,8|0,0:1|0:0,0:0:0:0:
433,141,39975,2,0,L|426:120,1,18.5
450,57,40149,2,0,L|430:53,1,18.5,2|0,0:0|0:0,0:0:0:0:
385,2,40324,2,0,L|373:18,1,18.5,2|0,0:0|0:0,0:0:0:0:
298,71,40498,6,0,L|298:119,1,37,2|0,3:2|0:0,0:0:0:0:
214,71,40847,2,0,L|214:119,1,37,2|0,3:2|0:0,0:0:0:0:
162,202,41196,5,8,0:1:0:0:
92,186,41371,1,0,0:0:0:0:
72,119,41545,1,2,0:0:0:0:
121,68,41720,1,2,0:0:0:0:
298,97,41893,6,0,L|298:144,1,37,2|0,3:2|0:0,0:0:0:0:
214,97,42242,2,0,L|214:144,1,37,2|0,3:2|0:0,0:0:0:0:
376,203,42591,6,0,L|359:212,1,18.5,8|0,0:1|0:0,0:0:0:0:
465,150,42765,2,0,L|481:142,1,18.5
447,221,42940,2,0,L|455:238,1,18.5,2|0,0:0|0:0,0:0:0:0:
394,132,43114,2,0,L|385:116,1,18.5,2|0,0:0|0:0,0:0:0:0:
298,121,43289,6,0,L|298:169,1,37,2|0,3:2|0:0,0:0:0:0:
214,121,43638,2,0,L|214:169,1,37,2|0,3:2|0:0,0:0:0:0:
143,233,43986,5,8,0:1:0:0:
54,180,44160,1,0,0:0:0:0:
73,251,44335,1,2,0:0:0:0:
125,162,44509,1,2,0:0:0:0:
298,146,44684,6,0,L|298:194,1,37,2|0,3:2|0:0,0:0:0:0:
214,146,45033,2,0,L|214:194,1,37,2|0,3:2|0:0,0:0:0:0:
368,227,45382,6,0,L|399:213,1,18.5,8|0,0:1|0:0,0:0:0:0:
373,131,45556,2,0,L|402:149,1,18.5
394,214,45730,2,0,L|414:205,1,18.5,2|0,0:0|0:0,0:0:0:0:
397,148,45904,2,0,L|416:159,1,18.5,2|0,0:0|0:0,0:0:0:0:
298,170,46080,6,0,L|298:218,1,37,2|0,3:2|0:0,0:0:0:0:
214,170,46429,2,0,L|214:218,1,37,2|0,3:2|0:0,0:0:0:0:
73,299,46777,5,8,0:1:0:0:
145,274,46952,1,0,0:0:0:0:
89,223,47126,1,2,0:0:0:0:
298,195,47475,6,0,L|298:243,1,37,2|0,3:2|0:0,0:0:0:0:
214,195,47824,2,0,L|214:243,1,37,2|0,3:2|0:0,0:0:0:0:
364,299,48172,6,0,L|388:271,1,18.5,8|0,0:1|0:0,0:0:0:0:
405,311,48347,2,0,L|393:278,1,18.5
433,276,48521,2,0,L|400:271,1,18.5,2|0,0:0|0:0,0:0:0:0:
424,235,48696,2,0,L|403:262,1,18.5,2|0,0:0|0:0,0:0:0:0:
298,220,48870,6,0,L|298:268,1,37,2|0,3:2|0:0,0:0:0:0:
214,220,49219,2,0,L|214:268,1,37,2|0,3:2|0:0,0:0:0:0:
145,316,49568,5,8,0:1:0:0:
99,329,49743,1,0,0:0:0:0:
66,294,49917,1,2,0:0:0:0:
78,247,50092,1,2,0:0:0:0:
298,244,50265,6,0,L|298:292,1,37,2|0,3:2|0:0,0:0:0:0:
214,244,50614,2,0,L|214:292,1,37,2|0,3:2|0:0,0:0:0:0:
364,193,50963,6,0,L|410:219,1,37,10|0,0:1|0:0,0:0:0:0:
148,193,51312,2,0,L|103:219,1,37,2|2,0:0|0:0,0:0:0:0:
298,271,51661,5,2,3:2:0:0:
256,128,51835,1,0,0:0:0:0:
214,271,52010,1,2,3:2:0:0:
214,271,52358,6,0,L|240:256,1,18.5,8|0,0:1|0:0,0:0:0:0:
298,271,52533,2,0,L|273:256,1,18.5
256,198,52707,2,0,L|256:228,1,18.5,2|0,0:0|0:0,0:0:0:0:
256,244,52882,1,2,0:0:0:0:
298,271,53056,6,0,L|298:318,1,37,2|0,3:2|0:0,0:0:0:0:
214,271,53405,2,0,L|214:318,1,37,2|0,3:2|0:0,0:0:0:0:
366,354,53754,6,0,L|378:339,1,18.5,8|0,0:1|0:0,0:0:0:0:
382,276,53929,2,0,L|389:293,1,18.5
441,328,54103,2,0,L|423:325,1,18.5,2|0,0:0|0:0,0:0:0:0:
298,296,54451,6,0,L|298:344,1,37,2|0,3:2|0:0,0:0:0:0:
214,296,54800,2,0,L|214:344,1,37,2|0,3:2|0:0,0:0:0:0:
145,384,55149,5,8,0:1:0:0:
132,305,55324,1,0,0:0:0:0:
71,355,55498,1,2,0:0:0:0:
298,321,55847,6,0,L|298:369,1,37,2|0,3:2|0:0,0:0:0:0:
214,321,56196,2,0,L|214:369,1,37,2|0,3:2|0:0,0:0:0:0:
383,366,56544,6,0,L|356:382,1,18.5,8|0,0:1|0:0,0:0:0:0:
397,369,56719,2,0,L|413:396,1,18.5
398,359,56893,2,0,L|425:343,1,18.5,2|0,0:0|0:0,0:0:0:0:
384,356,57068,2,0,L|368:329,1,18.5,2|0,0:0|0:0,0:0:0:0:
298,346,57242,6,0,L|298:394,1,37,2|0,3:2|0:0,0:0:0:0:
214,346,57591,2,0,L|214:394,1,37,2|0,3:2|0:0,0:0:0:0:
140,353,57940,5,8,0:1:0:0:
70,368,58114,1,2,0:0:0:0:
0,384,58289,1,4,0:0:0:0:
0,384,58637,6,0,P|2:347|8:333,3,37,6|0|0|0,3:2|0:0|0:0|0:0,0:0:0:0:
70,368,59335,1,2,3:2:0:0:
2,347,59510,1,0,0:0:0:0:
56,296,59684,1,2,0:0:0:0:
56,296,59858,1,2,0:0:0:0:
140,384,60033,6,0,L|187:376,1,37,2|0,3:2|0:0,0:0:0:0:
247,384,60382,1,2,0:0:0:0:
247,384,60556,1,2,0:0:0:0:
241,312,60730,2,0,P|245:293|243:275,1,37,2|0,3:2|0:0,0:0:0:0:
173,246,61079,2,0,P|170:264|172:282,1,37,2|0,0:0|0:0,0:0:0:0:
297,365,61428,6,0,P|315:358|330:347,3,37,2|2|0|0,3:2|0:0|0:0|0:0,0:0:0:0:
405,350,62126,2,0,L|400:313,3,37,2|0|0|0,3:2|0:0|0:0|0:0,0:0:0:0:
512,336,62824,2,0,P|494:334|477:327,3,37,2|0|0|0,3:1|0:0|0:0|0:0,0:0:0:0:
405,350,63521,5,2,3:2:0:0:
353,294,63696,1,0,0:0:0:0:
405,350,63870,1,0,0:0:0:0:
422,275,64044,1,0,0:0:0:0:
488,175,64219,6,0,P|498:190|503:207,3,37,2|0|0|0,3:2|0:0|0:0|0:0,0:0:0:0:
434,223,64917,1,2,3:2:0:0:
503,207,65091,1,0,0:0:0:0:
484,276,65265,1,2,0:0:0:0:
484,276,65440,1,2,0:0:0:0:
360,239,65614,6,0,L|315:245,1,37,2|0,3:2|0:0,0:0:0:0:
270,198,65963,1,2,0:0:0:0:
270,198,66137,2,0,P|260:213|255:230,1,37,2|2,0:0|3:2,0:0:0:0:
275,299,66486,2,0,P|291:308|308:312,2,37,2|0|0,0:0|0:0|0:0,0:0:0:0:
180,242,67010,5,2,3:2:0:0:
180,242,67184,1,2,0:0:0:0:
180,242,67358,2,0,P|171:226|166:208,1,37,2|0,0:0|0:0,0:0:0:0:
101,174,67707,2,0,L|91:220,3,37,2|0|0|0,3:2|0:0|0:0|0:0,0:0:0:0:
0,208,68405,2,0,P|16:198|28:184,3,37,2|0|0|0,3:1|0:0|0:0|0:0,0:0:0:0:
101,174,69103,5,2,3:2:0:0:
169,199,69277,1,0,0:0:0:0:
101,174,69451,1,0,0:0:0:0:
115,246,69626,1,0,0:0:0:0:
0,328,69800,6,0,P|19:330|36:337,3,37,6|0|0|0,3:2|0:0|0:0|0:0,0:0:0:0:
36,337,70498,1,2,3:2:0:0:
103,361,70672,1,0,0:0:0:0:
91,291,70847,1,2,0:0:0:0:
91,291,71021,1,2,0:0:0:0:
171,384,71196,6,0,P|190:381|207:374,1,37,2|0,3:2|0:0,0:0:0:0:
216,300,71544,1,2,0:0:0:0:
216,300,71719,1,2,0:0:0:0:
274,345,71893,2,0,L|284:391,1,37,2|0,3:2|0:0,0:0:0:0:
350,345,72242,1,2,0:0:0:0:
350,345,72417,1,2,0:0:0:0:
451,341,72591,6,0,P|433:334|418:324,3,37,2|2|0|0,3:2|0:0|0:0|0:0,0:0:0:0:
350,345,73289,2,0,P|347:326|348:307,3,37,2|0|0|0,3:2|0:0|0:0|0:0,0:0:0:0:
326,237,73986,2,0,P|310:246|297:259,2,37,2|0|0,3:1|0:0|0:0,0:0:0:0:
326,237,74510,1,0,0:0:0:0:
378,185,74684,2,0,P|362:175|345:170,2,37,2|0|2,3:2|0:0|0:0,0:0:0:0:
378,185,75207,1,0,0:0:0:0:
512,216,75382,6,0,L|435:228,1,74,6|0,3:2|0:0,0:0:0:0:
438,227,75905,1,2,0:0:0:0:
376,342,76079,6,0,L|299:354,1,74,6|0,3:2|0:0,0:0:0:0:
302,353,76603,1,2,0:0:0:0:
192,228,76777,6,0,L|115:240,1,74,6|0,3:2|0:0,0:0:0:0:
0,384,77475,1,2,0:0:0:0:
0,384,78172,6,0,L|39:378,1,37,6|0,3:2|0:0,0:0:0:0:
79,303,78521,6,0,L|118:297,1,37,0|0,1:0|0:0,0:0:0:0:
15,233,78870,6,0,L|54:227,1,37,0|0,1:0|0:0,0:0:0:0:
145,372,79219,6,0,L|184:366,1,37,0|0,1:0|0:0,0:0:0:0:
260,199,79568,6,0,L|299:193,1,37,0|0,1:0|0:0,0:0:0:0:
206,284,79917,6,0,L|245:278,1,37,0|0,1:0|0:0,0:0:0:0:
349,123,80265,5,2,0:0:0:0:
349,123,80963,5,4,3:2:0:0:
512,0,81137,2,0,L|499:85,1,74,2|0,0:0|0:0,0:0:0:0:
337,196,81661,2,0,L|350:111,1,74,10|0,0:0|3:2,0:0:0:0:
500,73,82184,1,2,1:2:0:0:
349,123,82358,5,2,3:2:0:0:
430,2,82533,2,0,L|417:87,1,74,2|0,1:2|0:0,0:0:0:0:
394,228,83056,1,8,0:0:0:0:
439,168,83230,2,0,B|408:146|408:146|366:159,1,74,2|2,0:0|1:2,0:0:0:0:
373,156,83754,6,0,L|326:148,1,37,2|0,3:2|0:0,0:0:0:0:
230,132,84103,2,0,L|277:140,1,37,2|0,3:2|0:0,0:0:0:0:
289,207,84451,1,10,0:0:0:0:
311,80,84626,1,2,0:0:0:0:
337,150,84800,1,2,3:2:0:0:
266,138,84975,1,0,1:0:0:0:
289,207,85149,6,0,L|280:254,2,37,0|0|0,3:0|1:0|3:0,0:0:0:0:
311,80,85672,1,2,0:0:0:0:
266,138,85846,1,8,0:0:0:0:
289,207,86021,1,2,0:0:0:0:
337,150,86196,1,0,3:0:0:0:
237,71,86370,1,0,1:0:0:0:
121,120,86544,6,0,L|36:107,1,74,2|0,3:2|3:2,0:0:0:0:
193,132,87068,1,2,0:0:0:0:
104,192,87242,1,8,0:0:0:0:
39,114,87417,2,0,B|21:81|21:81|49:40,1,74,2|2,0:0|1:2,0:0:0:0:
184,64,87940,5,2,3:2:0:0:
108,87,88114,1,2,1:2:0:0:
184,64,88289,2,0,L|176:115,1,37,2|0,3:2|0:0,0:0:0:0:
121,14,88637,1,8,0:0:0:0:
254,102,88812,2,0,L|242:178,1,74,2|0,0:0|1:0,0:0:0:0:
10,214,89335,6,0,L|61:222,1,37,2|0,3:2|0:0,0:0:0:0:
227,246,89684,2,0,L|176:238,1,37,2|0,3:2|0:0,0:0:0:0:
106,156,90033,1,8,0:0:0:0:
128,302,90207,1,2,0:0:0:0:
106,156,90382,1,2,3:2:0:0:
117,229,90556,1,0,1:0:0:0:
62,346,90730,6,0,L|11:338,2,37,0|0|0,3:0|1:0|3:0,0:0:0:0:
229,173,91428,2,0,L|223:209,1,37,10|0,0:0|0:0,0:0:0:0:
128,384,91777,2,0,L|140:301,1,74,2|4,3:2|3:2,0:0:0:0:
208,282,92475,5,2,3:2:0:0:
81,262,92649,1,2,0:0:0:0:
208,282,92824,2,0,L|244:288,1,37,10|0,0:0|0:0,0:0:0:0:
305,230,93172,1,2,3:2:0:0:
305,230,93347,1,2,1:2:0:0:
378,266,93521,5,2,3:2:0:0:
244,288,93696,1,2,1:2:0:0:
378,266,93870,2,0,L|414:260,1,37,2|0,3:2|0:0,0:0:0:0:
508,357,94219,2,0,L|432:369,1,74,8|2,0:0|3:2,0:0:0:0:
435,369,94742,1,2,1:2:0:0:
414,259,94917,6,0,L|420:295,1,37,2|0,3:2|0:0,0:0:0:0:
389,108,95265,2,0,L|383:72,1,37,2|0,3:2|0:0,0:0:0:0:
479,173,95614,1,10,0:2:0:0:
324,197,95788,1,2,0:0:0:0:
479,173,95963,1,2,3:2:0:0:
394,138,96137,1,0,1:0:0:0:
264,251,96312,6,0,L|270:287,2,37,0|0|0,3:0|1:0|3:0,0:0:0:0:
402,93,97010,2,0,L|366:100,1,37,10|0,0:0|0:0,0:0:0:0:
250,179,97358,2,0,L|332:164,1,74,2|0,3:2|3:2,0:0:0:0:
384,215,98056,5,2,3:2:0:0:
419,150,98230,1,2,0:0:0:0:
365,100,98405,2,0,B|356:82|356:82|362:64,1,37,8|0,0:0|0:0,0:0:0:0:
499,0,98754,2,0,B|518:33|518:33|496:78,1,74,2|2,3:2|3:2,0:0:0:0:
481,134,99277,1,2,1:2:0:0:
414,111,99451,2,0,L|332:97,1,74,2|8,3:2|0:0,0:0:0:0:
163,38,100149,5,2,3:2:0:0:
225,1,100324,1,2,1:2:0:0:
275,56,100498,2,0,L|261:138,1,74,6|0,3:2|0:0,0:0:0:0:
219,353,101196,2,0,L|233:271,1,74,4|0,3:2|0:0,0:0:0:0:
262,126,101893,5,4,3:2:0:0:
251,206,102068,1,8,0:0:0:0:
251,206,102155,1,8,0:0:0:0:
251,206,102242,1,8,0:0:0:0:
231,280,102417,1,8,0:0:0:0:
176,186,102591,5,0,1:0:0:0:
251,206,102765,1,0,1:0:0:0:
327,226,102940,1,0,3:0:0:0:
488,38,103289,6,0,B|456:13|456:13|408:25,1,74,6|0,3:2|3:0,0:0:0:0:
423,21,103812,1,2,0:0:0:0:
466,155,103986,2,0,B|503:139|503:139|517:92,1,74,8|2,0:0|3:2,0:0:0:0:
512,107,104510,1,0,1:0:0:0:
374,78,104684,5,2,3:2:0:0:
512,107,104858,1,0,1:0:0:0:
374,78,105033,1,0,3:0:0:0:
374,78,105382,2,0,B|368:118|368:118|402:153,1,74,8|2,0:0|3:2,0:0:0:0:
391,142,105905,1,0,1:0:0:0:
283,179,106079,6,0,B|288:138|288:138|254:103,1,74,2|0,3:2|3:0,0:0:0:0:
265,114,106603,1,2,0:0:0:0:
374,78,106777,2,0,B|368:118|368:118|402:153,1,74,8|2,0:0|3:2,0:0:0:0:
391,142,107300,1,0,1:0:0:0:
265,114,107475,5,2,3:2:0:0:
210,165,107649,1,0,1:0:0:0:
139,148,107824,1,0,3:0:0:0:
139,148,108172,2,0,L|129:235,1,74,8|0,0:0|3:0,0:0:0:0:
77,273,108696,1,0,1:0:0:0:
29,330,108870,6,0,B|61:353|61:353|109:340,1,74,2|0,3:2|3:0,0:0:0:0:
94,344,109393,1,2,0:0:0:0:
46,212,109567,2,0,B|8:228|8:228|-3:276,1,74,8|2,0:0|3:2,0:0:0:0:
2,261,110091,1,0,1:0:0:0:
141,286,110265,5,2,3:2:0:0:
2,261,110439,1,0,1:0:0:0:
141,286,110614,1,0,3:0:0:0:
141,286,110963,2,0,B|145:245|145:245|109:211,1,74,8|0,0:0|3:0,0:0:0:0:
121,222,111486,1,0,1:0:0:0:
69,274,111661,1,2,3:2:0:0:
69,274,112010,5,0,3:0:0:0:
121,222,112184,1,2,0:0:0:0:
212,301,112358,2,0,L|301:315,1,74,12|2,3:2|3:2,0:0:0:0:
338,259,112882,1,0,1:0:0:0:
357,332,113056,5,2,3:2:0:0:
410,279,113230,1,0,1:0:0:0:
338,259,113405,1,0,1:0:0:0:
285,312,113579,1,0,1:0:0:0:
429,351,113754,5,0,1:0:0:0:
391,206,113928,1,0,1:0:0:0:
266,240,114103,1,0,1:0:0:0:
304,384,114277,1,0,1:0:0:0:
