osu file format v14

[General]
AudioFilename: audio.ogg
AudioLeadIn: 0
PreviewTime: 80178
Countdown: 0
SampleSet: Soft
StackLeniency: 0.4
Mode: 0
LetterboxInBreaks: 0
WidescreenStoryboard: 0

[Editor]
Bookmarks: 24849,58337,80663,102989,113977
DistanceSpacing: 0.1
BeatDivisor: 8
GridSize: 16
TimelineZoom: 1

[Metadata]
Title:25-ji no Jounetsu
TitleUnicode:25時の情熱
Artist:25-ji, Nightcord de. x KAITO
ArtistUnicode:25時、ナイトコードで。 × KAITO
Creator:Mocaotic
Version:Insane: Kanade
Source:プロジェクトセカイ カラフルステージ! feat. 初音ミク
Tags:Kudou Chitose mrrrk Dailycare カンザキイオリ Kanzaki Iori HATSUNE MIKU: COLORFUL STAGE! at 25:00 NightCode Project Sekai プロセカ Proseka Puroseka vocaloid cover hatsune miku 宵崎奏 YOISAKI KANADE 朝比奈まふゆ ASAHINA MAFUYU 東雲絵名 SHINONOME ENA 暁山瑞希 AKIYAMA MIZUKI 楠木ともり TOMORI KUSUNOKI 田辺留依 TANABE RUI 鈴木みのり SUZUKI MINORI 佐藤日向 SATO HINATA Japanese Pop Jpop J-pop Video Rhythm Mobile Game
BeatmapID:4420479
BeatmapSetID:2106614

[Difficulty]
HPDrainRate:6
CircleSize:4.2
OverallDifficulty:8
ApproachRate:9
SliderMultiplier:3.46
SliderTickRate:1

[Events]
//Background and Video events
0,0,"kanade.jpg",0,0
//Break Periods
//Storyboard Layer 0 (Background)
//Storyboard Layer 1 (Fail)
//Storyboard Layer 2 (Pass)
//Storyboard Layer 3 (Foreground)
//Storyboard Layer 4 (Overlay)
//Storyboard Sound Samples

[TimingPoints]
2824,697.674418604651,4,2,2,45,1,0
2824,-166.666666666667,4,2,2,45,0,0
24451,-166.666666666667,4,2,2,60,0,0
24800,-200,4,2,2,60,0,0
25149,-99.9999999999999,4,2,2,80,0,0
25498,-111.111111111111,4,2,2,80,0,0
33521,-83.3333333333333,4,2,2,80,0,0
36312,-133.333333333333,4,2,2,55,0,0
50265,-133.333333333333,4,2,2,65,0,0
53056,-133.333333333333,4,2,2,55,0,0
58637,-111.111111111111,4,2,2,65,0,0
59335,-133.333333333333,4,2,2,65,0,0
64219,-111.111111111111,4,2,2,65,0,0
64917,-133.333333333333,4,2,2,65,0,0
65614,-111.111111111111,4,2,2,65,0,0
65963,-133.333333333333,4,2,2,65,0,0
69800,-111.111111111111,4,2,2,65,0,0
70149,-133.333333333333,4,2,2,65,0,0
75382,-133.333333333333,4,2,2,74,0,0
77475,-133.333333333333,4,2,2,50,0,0
78172,-133.333333333333,4,2,2,60,0,0
78870,-133.333333333333,4,2,2,70,0,0
79568,-133.333333333333,4,2,2,80,0,0
80963,-66.6666666666667,4,2,2,86,0,1
81050,-66.6666666666667,4,2,2,5,0,1
81137,-100,4,2,2,86,0,1
83230,-111.111111111111,4,2,2,86,0,1
83754,-100,4,2,2,86,0,1
84103,-111.111111111111,4,2,2,86,0,1
86457,-111.111111111111,4,2,2,5,0,1
86544,-100,4,2,2,86,0,1
87242,-111.111111111111,4,2,2,86,0,1
88289,-125,4,2,2,86,0,1
89335,-90.9090909090909,4,2,2,86,0,1
89684,-100,4,2,2,86,0,1
90556,-111.111111111111,4,2,2,86,0,1
91777,-83.3333333333333,4,2,2,86,0,1
92126,-100,4,2,2,86,0,1
94568,-111.111111111111,4,2,2,86,0,1
94917,-83.3333333333333,4,2,2,86,0,1
96137,-100,4,2,2,86,0,1
97010,-111.111111111111,4,2,2,86,0,1
102940,-200,4,2,2,86,0,1
103289,-100,4,2,2,80,0,0
103637,-111.111111111111,4,2,2,80,0,0

[Colours]
Combo1 : 255,239,185
Combo2 : 187,255,187

[HitObjects]
0,225,2824,6,0,P|37:257|105:247,1,103.799996832275,2|0,3:2|3:0,0:0:0:0:
89,255,3347,2,0,P|83:283|78:305,1,51.8999984161377,2|10,0:0|0:1,0:0:0:0:
11,344,3870,5,2,0:0:0:0:
11,344,4044,1,0,0:0:0:0:
74,311,4219,1,2,3:2:0:0:
147,323,4393,1,2,0:0:0:0:
198,378,4568,1,2,3:2:0:0:
198,378,4917,6,0,P|235:346|303:356,1,103.799996832275,10|0,0:1|0:0,0:0:0:0:
175,289,5440,1,2,0:0:0:0:
293,354,5614,2,0,P|341:354|386:302,1,103.799996832275,2|0,3:2|3:0,0:0:0:0:
381,318,6312,6,0,P|374:343|368:368,1,51.8999984161377,10|0,0:1|0:0,0:0:0:0:
303,323,6661,1,2,0:0:0:0:
303,323,6835,1,0,0:0:0:0:
363,373,7010,1,2,3:2:0:0:
436,384,7184,1,2,0:0:0:0:
505,358,7358,1,2,3:2:0:0:
505,358,7707,6,0,P|519:283|531:246,1,103.799996832275,10|0,0:1|0:0,0:0:0:0:
448,143,8230,1,2,0:0:0:0:
512,185,8405,2,0,P|443:189|418:217,1,103.799996832275,2|0,3:2|3:0,0:0:0:0:
421,212,8928,2,0,P|393:204|370:198,1,51.8999984161377,2|10,0:0|0:1,0:0:0:0:
478,160,9451,5,2,0:0:0:0:
478,160,9626,1,0,0:0:0:0:
421,212,9800,1,2,3:2:0:0:
346,229,9975,1,2,0:0:0:0:
272,206,10149,1,2,3:2:0:0:
272,206,10498,6,0,P|218:174|153:199,1,103.799996832275,10|0,0:1|0:0,0:0:0:0:
286,116,11021,1,2,0:0:0:0:
173,185,11196,2,0,P|122:188|80:158,1,103.799996832275,2|0,3:2|3:0,0:0:0:0:
80,158,11893,6,0,P|70:194|61:235,1,51.8999984161377,10|0,0:1|0:0,0:0:0:0:
0,170,12242,1,2,0:0:0:0:
0,170,12417,1,0,0:0:0:0:
60,214,12591,1,2,3:2:0:0:
80,286,12765,1,2,0:2:0:0:
52,357,12940,1,2,3:2:0:0:
52,357,13289,6,0,P|24:365|0:378,2,51.8999984161377,10|0|0,0:1|0:0|0:0,0:0:0:0:
98,296,13812,1,2,0:0:0:0:
0,235,13986,2,0,P|51:274|115:259,1,103.799996832275,2|0,3:2|3:0,0:0:0:0:
158,236,14510,2,0,P|168:282|171:305,1,51.8999984161377,2|10,0:0|0:1,0:0:0:0:
266,169,14858,2,0,P|240:173|215:179,1,51.8999984161377
166,296,15207,5,2,0:0:0:0:
166,296,15382,2,0,P|217:257|281:272,1,103.799996832275,2|0,3:2|3:0,0:0:0:0:
324,295,15906,2,0,P|334:249|337:226,1,51.8999984161377,2|10,0:0|0:1,0:0:0:0:
432,362,16254,2,0,P|406:357|381:351,1,51.8999984161377
335,236,16603,5,2,0:0:0:0:
335,236,16777,2,0,P|387:274|447:256,1,103.799996832275,2|0,3:2|3:0,0:0:0:0:
494,237,17301,2,0,P|504:283|509:315,1,51.8999984161377,2|10,0:0|0:1,0:0:0:0:
392,351,17649,2,0,P|417:355|442:361,1,51.8999984161377
442,361,17998,1,2,0:0:0:0:
501,235,18172,6,0,P|446:218|370:284,1,155.699995248413,2|0,3:2|0:0,0:0:0:0:
432,336,18870,1,10,0:1:0:0:
432,336,19044,1,0,0:0:0:0:
377,281,19219,1,2,0:0:0:0:
299,271,19393,1,2,0:0:0:0:
225,299,19568,6,0,P|160:290|130:246,1,103.799996832275,2|0,3:2|3:0,0:0:0:0:
136,263,20091,2,0,P|149:223|156:204,1,51.8999984161377,2|10,0:0|0:1,0:0:0:0:
13,273,20440,2,0,P|52:285|71:292,1,51.8999984161377
72,209,20789,1,2,0:0:0:0:
22,361,20963,6,0,P|73:371|130:320,1,103.799996832275,2|0,3:2|3:0,0:0:0:0:
173,294,21486,1,0,0:0:0:0:
99,270,21661,1,10,0:1:0:0:
115,346,21835,1,0,0:0:0:0:
185,379,22010,1,2,0:0:0:0:
261,371,22184,1,2,0:0:0:0:
329,333,22358,6,0,P|384:325|430:358,1,103.799996832275,2|0,3:2|3:0,0:0:0:0:
423,349,22882,2,0,P|435:304|440:290,2,51.8999984161377,2|10|0,0:0|0:1|0:0,0:0:0:0:
508,347,23405,1,2,0:0:0:0:
508,347,23579,1,0,0:0:0:0:
348,305,23754,5,2,3:2:0:0:
417,367,23928,1,2,0:2:0:0:
508,347,24103,1,2,3:2:0:0:
508,347,24451,5,2,0:0:0:0:
348,305,24625,1,2,0:0:0:0:
417,367,24800,2,0,L|436:293,1,64.875,2|0,0:0|0:0,0:0:0:0:
512,233,25149,6,0,B|484:280|434:266|386:248|353:304,1,173,6|0,3:2|3:0,0:0:0:0:
423,346,25672,1,2,0:0:0:0:
268,274,25847,2,0,P|282:323|290:382,1,77.8499976242066,8|0,0:0|0:0,0:0:0:0:
375,253,26196,1,2,3:2:0:0:
375,253,26370,1,0,1:0:0:0:
467,269,26544,5,2,3:2:0:0:
327,332,26719,1,0,1:0:0:0:
213,231,26893,1,0,3:0:0:0:
215,223,27242,5,8,0:0:0:0:
130,180,27417,1,2,0:0:0:0:
65,247,27591,1,0,3:0:0:0:
65,247,27765,2,0,P|75:285|77:296,1,38.9249988121033,0|0,1:0|0:0,0:0:0:0:
0,383,27940,6,0,P|61:328|152:342,1,155.699995248413,2|0,3:2|3:0,0:0:0:0:
208,362,28463,1,2,0:0:0:0:
83,239,28637,2,0,P|137:227|172:217,1,77.8499976242066,8|0,0:0|0:0,0:0:0:0:
287,375,28986,2,0,P|249:365|211:357,1,77.8499976242066,2|0,3:2|1:0,0:0:0:0:
138,317,29335,5,2,3:2:0:0:
255,200,29510,1,0,1:0:0:0:
407,261,29684,1,0,3:0:0:0:
412,267,30033,5,8,0:0:0:0:
498,231,30208,1,2,0:0:0:0:
468,140,30382,1,0,3:0:0:0:
468,140,30556,2,0,P|459:111|452:96,1,38.9249988121033,0|0,1:0|0:0,0:0:0:0:
512,0,30730,6,0,P|482:42|362:49,1,155.699995248413,2|0,3:2|3:0,0:0:0:0:
227,31,31254,2,0,P|283:14|317:26,1,77.8499976242066,2|8,0:0|0:0,0:0:0:0:
384,59,31603,1,0,0:0:0:0:
280,103,31777,1,2,3:2:0:0:
280,103,31951,1,0,1:0:0:0:
358,146,32126,5,2,3:2:0:0:
199,68,32300,1,0,1:0:0:0:
75,190,32475,2,0,P|19:176|-23:169,1,77.8499976242066,0|0,3:0|0:0,0:0:0:0:
61,59,32824,5,8,0:0:0:0:
128,119,32998,1,2,0:0:0:0:
80,196,33172,1,0,3:0:0:0:
12,315,33347,5,0,1:0:0:0:
12,315,33434,1,0,1:0:0:0:
12,315,33521,2,0,B|38:271|83:283|123:293|151:235,1,155.699995248413,6|0,3:2|0:0,0:0:0:0:
221,236,33870,1,8,0:0:0:0:
79,203,34044,1,8,0:0:0:0:
221,236,34219,6,0,B|257:271|297:248|333:228|378:275,1,155.699995248413,6|0,3:2|0:0,0:0:0:0:
444,280,34568,1,8,0:0:0:0:
314,325,34742,1,8,0:0:0:0:
444,280,34917,6,0,P|468:260|499:248,1,51.8999984161377,6|0,3:2|0:0,0:0:0:0:
509,164,35091,1,8,0:0:0:0:
502,172,35178,1,8,0:0:0:0:
512,176,35265,1,8,0:0:0:0:
464,107,35440,1,8,0:0:0:0:
387,89,35614,1,0,1:0:0:0:
323,135,35789,1,0,1:0:0:0:
314,212,35963,1,0,3:0:0:0:
369,269,36137,1,0,3:0:0:0:
502,378,36312,6,0,P|465:345|383:352,1,129.75000494957,6|2,3:2|3:2,0:0:0:0:
393,352,36835,1,2,0:0:0:0:
320,303,37010,2,0,P|307:347|300:391,1,64.8750024747849,8|0,0:1|0:0,0:0:0:0:
235,315,37358,1,2,0:0:0:0:
235,315,37533,1,2,0:0:0:0:
387,210,37707,6,0,P|348:246|266:239,1,129.75000494957,2|2,3:2|3:2,0:0:0:0:
274,244,38230,1,2,0:0:0:0:
214,200,38405,1,8,0:1:0:0:
137,216,38579,1,0,0:0:0:0:
120,295,38754,1,2,0:0:0:0:
120,295,38928,1,2,0:0:0:0:
303,310,39103,6,0,P|264:274|182:281,1,129.75000494957,2|2,3:2|3:2,0:0:0:0:
198,355,39626,2,0,P|220:349|239:346,2,32.4375012373925,2|0|8,0:0|0:0|0:1,0:0:0:0:
129,326,39975,1,0,0:0:0:0:
76,384,40149,1,2,0:0:0:0:
76,384,40324,1,2,0:0:0:0:
173,234,40498,6,0,P|135:271|53:269,1,129.75000494957,2|2,3:2|3:2,0:0:0:0:
61,273,41196,1,8,0:1:0:0:
97,204,41371,1,0,0:0:0:0:
35,157,41544,1,2,0:0:0:0:
0,226,41719,1,2,0:0:0:0:
0,368,41893,6,0,P|39:332|121:339,1,129.75000494957,2|2,3:2|3:2,0:0:0:0:
112,333,42417,1,2,0:0:0:0:
185,384,42591,2,0,P|197:323|203:301,1,64.8750024747849,8|0,0:1|0:0,0:0:0:0:
269,366,42940,1,2,0:0:0:0:
269,366,43114,1,2,0:0:0:0:
137,226,43289,6,0,P|176:262|258:255,1,129.75000494957,2|2,3:2|3:2,0:0:0:0:
249,260,43812,1,2,0:0:0:0:
336,240,43986,2,0,P|328:275|323:303,1,64.8750024747849,8|0,0:1|0:0,0:0:0:0:
411,287,44335,1,2,0:0:0:0:
411,287,44510,1,2,0:0:0:0:
242,384,44684,6,0,P|281:348|363:355,1,129.75000494957,2|2,3:2|3:2,0:0:0:0:
422,309,45207,2,0,P|426:291|430:276,2,32.4375012373925,2|0|8,0:0|0:0|0:1,0:0:0:0:
425,384,45556,1,0,0:0:0:0:
497,346,45730,1,2,0:0:0:0:
497,346,45905,1,2,0:0:0:0:
358,215,46079,6,0,P|397:251|479:244,1,129.75000494957,2|2,3:2|3:2,0:0:0:0:
470,249,46777,1,10,0:1:0:0:
491,176,46951,1,0,0:0:0:0:
512,104,47126,2,0,P|476:85|441:84,1,64.8750024747849,2|0,0:0|0:0,0:0:0:0:
344,200,47475,6,0,P|393:160|456:165,1,129.75000494957,2|2,3:2|3:2,0:0:0:0:
456,165,47998,1,2,0:0:0:0:
512,65,48172,2,0,P|480:72|448:78,1,64.8750024747849,8|0,0:1|0:0,0:0:0:0:
382,42,48521,1,2,0:0:0:0:
382,42,48696,1,2,0:0:0:0:
246,125,48870,6,0,P|291:169|354:169,1,129.75000494957,2|2,3:2|3:2,0:0:0:0:
354,168,49393,1,2,0:0:0:0:
434,147,49568,1,8,0:1:0:0:
390,79,49742,1,0,0:0:0:0:
316,103,49917,1,2,0:0:0:0:
316,103,50092,1,2,0:0:0:0:
141,85,50265,6,0,P|186:40|249:40,1,129.75000494957,2|2,3:2|3:2,0:0:0:0:
351,1,50789,1,2,0:0:0:0:
351,1,50876,1,2,0:0:0:0:
351,1,50963,2,0,P|338:45|330:77,1,64.8750024747849,10|0,0:1|0:0,0:0:0:0:
218,121,51312,2,0,P|249:129|280:138,1,64.8750024747849,2|0,0:0|0:0,0:0:0:0:
308,217,51661,5,2,3:2:0:0:
243,279,51835,1,2,0:0:0:0:
162,249,52010,1,2,3:2:0:0:
156,256,52358,5,8,0:1:0:0:
104,203,52533,1,0,0:0:0:0:
35,231,52707,1,2,0:0:0:0:
35,231,52882,1,2,0:0:0:0:
11,346,53056,6,0,P|36:325|73:318,1,64.8750024747849,2|0,3:2|0:0,0:0:0:0:
253,360,53405,2,0,P|197:374|133:327,1,129.75000494957,2|8,3:2|0:1,0:0:0:0:
140,262,53928,1,0,0:0:0:0:
207,298,54103,1,2,0:0:0:0:
373,173,54451,6,0,P|342:180|319:202,1,64.8750024747849,2|0,3:2|0:0,0:0:0:0:
190,201,54800,2,0,P|213:223|245:231,1,64.8750024747849,2|0,3:2|0:0,0:0:0:0:
255,155,55149,1,8,0:1:0:0:
319,202,55323,1,0,0:0:0:0:
308,282,55498,1,2,0:0:0:0:
466,161,55847,6,0,P|441:182|410:188,1,64.8750024747849,2|0,3:2|0:0,0:0:0:0:
232,115,56196,2,0,P|288:111|340:162,1,129.75000494957,2|8,3:2|0:1,0:0:0:0:
338,158,56719,1,0,0:0:0:0:
405,114,56893,1,2,0:0:0:0:
362,48,57068,1,2,0:0:0:0:
222,33,57242,6,0,P|265:22|303:11,1,64.8750024747849,2|0,3:2|3:0,0:0:0:0:
284,16,57504,1,0,3:0:0:0:
284,16,57591,1,0,3:0:0:0:
148,61,57765,1,0,0:0:0:0:
207,0,57940,5,8,0:1:0:0:
232,91,58114,1,2,0:0:0:0:
256,181,58289,1,4,0:0:0:0:
0,73,58637,6,0,P|34:16|117:17,1,155.699995248413,6|0,3:2|0:0,0:0:0:0:
114,15,59161,1,0,0:0:0:0:
206,7,59335,2,0,P|196:37|188:69,1,64.8750024747849,2|0,3:2|0:0,0:0:0:0:
114,101,59684,1,2,0:0:0:0:
114,101,59858,1,2,0:0:0:0:
248,152,60033,6,0,P|175:156|131:208,1,129.75000494957,2|0,3:2|0:0,0:0:0:0:
197,288,60556,1,2,0:0:0:0:
197,288,60730,2,0,P|204:256|214:225,1,64.8750024747849,2|0,3:2|0:0,0:0:0:0:
53,253,61079,2,0,P|84:260|115:270,1,64.8750024747849,2|0,0:0|0:0,0:0:0:0:
242,358,61428,5,2,3:2:0:0:
242,358,61603,2,0,P|297:321|356:335,1,129.75000494957,2|0,0:0|0:0,0:0:0:0:
425,383,62126,2,0,P|444:306|465:247,1,129.75000494957,0|0,3:2|0:0,0:0:0:0:
512,200,62649,1,2,0:0:0:0:
464,139,62824,1,2,3:1:0:0:
464,139,63521,1,0,3:0:0:0:
512,0,64219,6,0,P|473:55|378:49,1,155.699995248413,2|0,3:2|0:0,0:0:0:0:
390,57,64742,1,0,0:0:0:0:
303,31,64917,2,0,P|313:86|315:112,1,64.8750024747849,2|0,3:2|0:0,0:0:0:0:
386,143,65265,1,2,0:0:0:0:
386,143,65440,1,2,0:0:0:0:
231,184,65614,6,0,P|306:182|356:241,1,155.699995248413,2|0,3:2|0:0,0:0:0:0:
489,228,66137,2,0,P|445:240|425:267,1,64.8750024747849,2|2,0:0|3:2,0:0:0:0:
512,366,66486,6,0,P|451:341|376:318,1,129.75000494957,2|0,0:0|0:0,0:0:0:0:
317,350,67010,1,2,3:2:0:0:
245,322,67184,1,2,0:0:0:0:
182,370,67358,2,0,P|109:354|86:290,1,129.75000494957,2|0,0:0|3:2,0:0:0:0:
86,309,68405,1,2,3:1:0:0:
86,310,69103,1,0,3:0:0:0:
0,384,69800,6,0,P|42:327|132:334,1,155.699995248413,6|0,3:2|0:0,0:0:0:0:
121,327,70324,1,0,0:0:0:0:
192,381,70498,2,0,P|206:328|213:301,1,64.8750024747849,2|0,3:2|0:0,0:0:0:0:
159,254,70847,1,2,0:0:0:0:
159,254,71021,1,2,0:0:0:0:
343,188,71196,6,0,P|300:235|220:222,1,129.75000494957,2|0,3:2|0:0,0:0:0:0:
204,140,71719,1,2,0:0:0:0:
204,140,71893,2,0,P|235:147|267:155,1,64.8750024747849,2|0,3:2|0:0,0:0:0:0:
167,72,72242,1,2,0:0:0:0:
167,72,72417,1,2,0:0:0:0:
125,138,72591,1,2,3:2:0:0:
94,35,72765,6,0,P|142:-4|204:4,1,129.75000494957,2|0,0:0|0:0,0:0:0:0:
263,59,73289,2,0,P|326:45|390:37,1,129.75000494957,0|0,3:2|0:0,0:0:0:0:
457,65,73812,1,2,0:0:0:0:
500,1,73986,1,2,3:1:0:0:
500,1,74684,1,0,3:0:0:0:
511,149,75033,5,2,0:0:0:0:
511,149,75382,2,0,P|443:156|402:210,1,129.75000494957,6|0,3:2|0:0,0:0:0:0:
405,200,75905,1,2,0:0:0:0:
317,77,76079,6,0,P|289:139|315:201,1,129.75000494957,6|0,3:2|0:0,0:0:0:0:
308,194,76603,1,2,0:0:0:0:
165,207,76777,6,0,B|162:289|221:292|273:317|284:271|347:276|377:343,1,259.50000989914,6|0,3:2|0:0,0:0:0:0:
495,212,78172,6,0,P|503:180|512:149,1,64.8750024747849,6|0,3:2|0:0,0:0:0:0:
402,259,78521,2,0,P|393:290|386:321,1,64.8750024747849,0|0,1:0|0:0,0:0:0:0:
331,155,78870,2,0,P|339:123|348:92,1,64.8750024747849,0|0,1:0|0:0,0:0:0:0:
224,239,79219,2,0,P|215:270|208:301,1,64.8750024747849,0|0,1:0|0:0,0:0:0:0:
166,104,79568,2,0,P|174:72|183:41,1,64.8750024747849,0|0,1:0|0:0,0:0:0:0:
40,221,79917,2,0,P|31:252|24:283,1,64.8750024747849,0|0,1:0|0:0,0:0:0:0:
52,3,80265,5,2,0:0:0:0:
52,3,80963,6,0,B|68:17|79:21|79:21|68:61,1,64.8750024747849,4|0,3:2|0:0,0:0:0:0:
0,97,81137,2,0,B|66:69|86:114|109:145|172:107,1,173,2|0,0:0|0:0,0:0:0:0:
316,22,81661,2,0,P|298:81|287:136,1,86.5,10|0,0:0|0:0,0:0:0:0:
216,35,82010,5,0,3:2:0:0:
390,88,82184,1,2,1:2:0:0:
319,14,82358,1,2,3:2:0:0:
170,127,82533,6,0,P|260:137|306:219,1,173,2|0,1:2|0:0,0:0:0:0:
340,275,83056,1,8,0:0:0:0:
413,307,83230,2,0,P|377:305|343:279,1,77.8499976242066,2|0,0:0|3:0,0:0:0:0:
262,280,83579,1,2,1:2:0:0:
511,182,83754,6,0,P|449:179|404:241,1,129.75,2|0,3:2|0:0,0:0:0:0:
413,302,84103,2,0,P|377:300|343:274,1,77.8499976242066,2|0,3:2|0:0,0:0:0:0:
492,331,84451,5,10,0:0:0:0:
342,268,84626,1,2,0:0:0:0:
225,384,84800,1,2,3:2:0:0:
225,384,84975,2,0,P|161:368|120:363,1,77.8499976242066,0|0,1:0|3:0,0:0:0:0:
257,259,85324,5,0,1:0:0:0:
290,332,85498,1,0,3:0:0:0:
78,383,85672,5,2,0:0:0:0:
0,311,85847,1,8,0:0:0:0:
44,215,86021,2,0,P|93:212|132:232,1,77.8499976242066,2|0,0:0|3:0,0:0:0:0:
193,191,86370,2,0,P|199:218|196:245,1,38.9249988121033,0|0,1:0|0:0,0:0:0:0:
65,290,86544,6,0,B|94:297|111:312|111:312|165:285|250:265,1,173,2|0,3:2|3:2,0:0:0:0:
404,313,87068,1,2,0:0:0:0:
306,329,87242,1,8,0:0:0:0:
306,329,87417,2,0,P|321:275|332:241,1,77.8499976242066,2|0,0:0|3:0,0:0:0:0:
355,164,87765,1,2,1:2:0:0:
270,181,87940,5,2,3:2:0:0:
416,232,88114,1,2,1:2:0:0:
502,98,88289,2,0,P|513:47|524:14,1,69.2,2|0,3:2|0:0,0:0:0:0:
404,140,88637,5,8,0:0:0:0:
512,189,88812,2,0,P|455:175|379:237,1,138.4,2|0,0:0|1:0,0:0:0:0:
136,268,89335,6,0,P|187:315|262:300,1,142.725004355621,2|0,3:2|0:0,0:0:0:0:
328,294,89684,2,0,P|316:236|305:204,1,86.5,2|0,3:2|0:0,0:0:0:0:
231,7,90033,1,8,0:0:0:0:
383,63,90207,1,2,0:0:0:0:
302,204,90382,1,2,3:2:0:0:
106,149,90556,6,0,P|164:155|191:160,1,77.8499976242066,0|0,1:0|3:0,0:0:0:0:
125,7,90905,1,0,1:0:0:0:
46,69,91079,1,0,3:0:0:0:
227,227,91428,6,0,P|259:184|260:143,1,77.8499976242066,10|0,0:0|0:0,0:0:0:0:
116,0,91777,2,0,P|39:59|40:129,1,155.699995248413,2|0,3:2|0:0,0:0:0:0:
101,143,92126,2,0,P|165:155|208:167,1,86.5,4|0,3:2|0:0,0:0:0:0:
27,193,92475,5,2,3:2:0:0:
168,70,92649,1,2,0:0:0:0:
253,252,92824,2,0,P|302:252|351:209,1,86.5,10|0,0:0|0:0,0:0:0:0:
270,154,93172,5,2,3:2:0:0:
270,154,93347,1,2,1:2:0:0:
155,179,93521,5,2,3:2:0:0:
339,239,93696,1,2,1:2:0:0:
428,80,93870,2,0,P|474:92|513:100,1,86.5,2|0,3:2|0:0,0:0:0:0:
367,322,94219,6,0,P|282:305|260:245,1,129.75,8|0,0:0|0:0,0:0:0:0:
188,258,94568,2,0,P|217:211|251:200,1,77.8499976242066,2|2,3:2|1:2,0:0:0:0:
502,201,94917,6,0,B|445:179|427:206|402:240|354:220,1,155.699995248413,2|0,3:2|0:0,0:0:0:0:
302,159,95265,2,0,B|326:133|323:86|323:86|338:125|377:140,1,155.699995248413,2|0,3:2|0:0,0:0:0:0:
358,215,95614,5,10,0:2:0:0:
406,60,95789,1,2,0:0:0:0:
159,47,95963,2,0,B|172:74|172:74|212:83|254:98,1,103.799996832275,2|0,3:2|1:0,0:0:0:0:
311,37,96312,1,0,3:0:0:0:
178,169,96486,5,0,1:0:0:0:
178,169,96661,2,0,P|111:178|64:230,1,129.75,0|0,3:0|0:0,0:0:0:0:
2,262,97010,2,0,P|30:287|74:297,1,77.8499976242066,10|0,0:0|0:0,0:0:0:0:
61,372,97358,5,2,3:2:0:0:
143,280,97533,1,0,1:0:0:0:
252,336,97707,1,0,3:2:0:0:
467,230,98056,5,2,3:2:0:0:
327,296,98230,1,2,0:0:0:0:
206,190,98405,2,0,P|206:148|225:115,1,77.8499976242066,8|0,0:0|0:0,0:0:0:0:
376,227,98754,6,0,P|300:221|247:275,1,155.699995248413,2|2,3:2|3:2,0:0:0:0:
115,237,99277,1,2,1:2:0:0:
151,384,99451,2,0,P|159:341|168:302,1,77.8499976242066,2|0,3:2|0:0,0:0:0:0:
19,144,99800,2,0,P|27:181|34:220,1,77.8499976242066,8|0,0:0|0:0,0:0:0:0:
0,312,100149,5,2,3:2:0:0:
126,236,100324,1,2,1:2:0:0:
248,358,100498,2,0,P|321:365|374:305,1,155.699995248413,6|0,3:2|0:0,0:0:0:0:
512,122,101196,2,0,P|439:115|386:175,1,155.699995248413,4|0,3:2|0:0,0:0:0:0:
386,171,101719,1,2,0:0:0:0:
512,239,101893,5,4,3:2:0:0:
417,268,102068,1,8,0:0:0:0:
417,268,102155,1,8,0:0:0:0:
417,268,102242,1,8,0:0:0:0:
346,191,102417,1,8,0:0:0:0:
267,277,102591,1,0,1:0:0:0:
161,228,102765,1,0,1:0:0:0:
75,301,102940,2,0,P|41:292|12:285,1,64.875,0|0,3:0|0:0,0:0:0:0:
1,382,103289,6,0,B|24:332|75:342|125:356|152:298,1,173,6|0,3:2|3:0,0:0:0:0:
77,261,103812,1,2,0:0:0:0:
222,345,103986,2,0,P|234:301|248:258,1,77.8499976242066,8|0,0:0|0:0,0:0:0:0:
172,224,104335,1,2,3:2:0:0:
172,224,104510,1,0,1:0:0:0:
144,301,104684,5,2,3:2:0:0:
244,182,104858,1,0,1:0:0:0:
378,260,105033,1,0,3:0:0:0:
375,268,105382,5,8,0:0:0:0:
454,301,105556,1,2,0:0:0:0:
512,237,105731,1,2,3:2:0:0:
512,237,105905,2,0,P|503:204|497:191,1,38.9249988121033,0|0,1:0|0:0,0:0:0:0:
512,107,106079,6,0,P|484:151|381:155,1,155.699995248413,2|0,3:2|3:0,0:0:0:0:
324,108,106603,1,2,0:0:0:0:
411,11,106777,2,0,P|420:48|428:86,1,77.8499976242066,8|0,0:0|0:0,0:0:0:0:
311,193,107126,2,0,P|273:183|235:175,1,77.8499976242066,2|0,3:2|1:0,0:0:0:0:
381,151,107475,5,2,3:2:0:0:
269,267,107650,1,0,1:0:0:0:
120,202,107824,1,0,3:0:0:0:
117,194,108173,5,8,0:0:0:0:
199,141,108348,1,2,0:0:0:0:
169,54,108522,1,0,3:0:0:0:
169,54,108696,2,0,P|147:46|122:37,1,38.9249988121033,0|0,1:0|0:0,0:0:0:0:
0,0,108870,6,0,P|48:56|122:47,1,155.699995248413,2|0,3:2|3:0,0:0:0:0:
278,29,109394,2,0,P|222:12|188:24,1,77.8499976242066,2|8,0:0|0:0,0:0:0:0:
122,47,109743,1,0,0:0:0:0:
203,102,109917,1,2,3:2:0:0:
203,102,110091,1,0,1:0:0:0:
120,134,110266,5,2,3:2:0:0:
269,52,110440,1,0,1:0:0:0:
374,185,110614,2,0,P|430:199|472:213,1,77.8499976242066,0|0,3:0|0:0,0:0:0:0:
433,102,110964,5,8,0:0:0:0:
344,100,111138,1,2,0:0:0:0:
287,171,111312,1,0,3:0:0:0:
316,258,111486,1,0,1:0:0:0:
316,258,111661,6,0,P|301:325|295:362,1,77.8499976242066,2|0,3:2|0:0,0:0:0:0:
161,249,112010,1,0,3:0:0:0:
242,205,112184,1,2,0:0:0:0:
96,359,112358,2,0,P|74:277|46:201,1,155.699995248413,12|2,3:2|3:2,0:0:0:0:
0,139,112882,1,0,1:0:0:0:
176,68,113056,5,2,3:2:0:0:
109,156,113230,1,0,1:0:0:0:
64,53,113405,1,0,1:0:0:0:
200,155,113579,1,0,1:0:0:0:
19,134,113754,1,0,1:0:0:0:
126,0,113928,1,0,1:0:0:0:
277,90,114103,1,0,1:0:0:0:
455,23,114277,1,0,1:0:0:0:
