osu file format v14

[General]
AudioFilename: audio.ogg
AudioLeadIn: 0
PreviewTime: 80178
Countdown: 0
SampleSet: None
StackLeniency: 0.7
Mode: 0
LetterboxInBreaks: 0
WidescreenStoryboard: 1

[Editor]
Bookmarks: 24849,58337,80663,102989,113977
DistanceSpacing: 0.1
BeatDivisor: 4
GridSize: 16
TimelineZoom: 1

[Metadata]
Title:25-ji no Jounetsu
TitleUnicode:25時の情熱
Artist:25-ji, Nightcord de. x KAITO
ArtistUnicode:25時、ナイトコードで。 × KAITO
Creator:Mocaotic
Version:Dailycare's Hard
Source:プロジェクトセカイ カラフルステージ! feat. 初音ミク
Tags:Kudou Chitose mrrrk Dailycare カンザキイオリ Kanzaki Iori HATSUNE MIKU: COLORFUL STAGE! at 25:00 NightCode Project Sekai プロセカ Proseka Puroseka vocaloid cover hatsune miku 宵崎奏 YOISAKI KANADE 朝比奈まふゆ ASAHINA MAFUYU 東雲絵名 SHINONOME ENA 暁山瑞希 AKIYAMA MIZUKI 楠木ともり TOMORI KUSUNOKI 田辺留依 TANABE RUI 鈴木みのり SUZUKI MINORI 佐藤日向 SATO HINATA Japanese Pop Jpop J-pop Video Rhythm Mobile Game
BeatmapID:4468654
BeatmapSetID:2106614

[Difficulty]
HPDrainRate:4
CircleSize:3.8
OverallDifficulty:5.5
ApproachRate:7
SliderMultiplier:2.76
SliderTickRate:1

[Events]
//Background and Video events
0,0,"kanade.jpg",0,0
//Break Periods
//Storyboard Layer 0 (Background)
//Storyboard Layer 1 (Fail)
//Storyboard Layer 2 (Pass)
//Storyboard Layer 3 (Foreground)
//Storyboard Layer 4 (Overlay)
//Storyboard Sound Samples

[TimingPoints]
2824,697.674418604651,4,2,2,45,1,0
2824,-133.333333333333,4,2,2,45,0,0
24451,-133.333333333333,4,2,2,60,0,0
25149,-100,4,2,2,80,0,0
36312,-111.111111111111,4,2,2,55,0,0
50265,-111.111111111111,4,2,2,65,0,0
53056,-111.111111111111,4,2,2,55,0,0
58637,-111.111111111111,4,2,2,65,0,0
75382,-111.111111111111,4,2,2,74,0,0
77475,-111.111111111111,4,2,2,50,0,0
78172,-111.111111111111,4,2,2,60,0,0
78696,-111.111111111111,4,2,2,25,0,0
78870,-111.111111111111,4,2,2,70,0,0
79044,-111.111111111111,4,2,2,25,0,0
79219,-111.111111111111,4,2,2,70,0,0
79393,-111.111111111111,4,2,2,25,0,0
79568,-111.111111111111,4,2,2,80,0,0
79742,-111.111111111111,4,2,2,25,0,0
79917,-111.111111111111,4,2,2,80,0,0
80091,-111.111111111111,4,2,2,25,0,0
80265,-111.111111111111,4,2,2,80,0,0
80963,-100,4,2,2,86,0,0
103289,-100,4,2,2,80,0,0

[Colours]
Combo1 : 255,239,185
Combo2 : 187,255,187

[HitObjects]
422,278,2824,6,0,P|459:275|517:321,2,103.500003948212,2|0|10,3:2|3:0|0:1,0:0:0:0:
313,353,3870,1,2,0:0:0:0:
313,353,4044,2,0,P|260:361|208:374,1,103.500003948212,0|2,0:0|0:0,0:0:0:0:
141,332,4568,2,0,P|147:306|158:262,1,51.7500019741059,2|0,3:2|0:0,0:0:0:0:
97,222,4917,2,0,P|60:226|3:189,1,103.500003948212,10|2,0:1|0:0,0:0:0:0:
0,111,5440,1,2,0:0:0:0:
0,111,5614,6,0,P|-6:57|-20:-1,2,103.500003948212,2|0|10,3:2|3:0|0:1,0:0:0:0:
135,150,6661,2,0,P|170:140|194:138,1,51.7500019741059,2|0,0:0|0:0,0:0:0:0:
256,92,7010,1,2,3:2:0:0:
256,92,7184,2,0,L|378:112,1,103.500003948212,2|0,0:0|0:0,0:0:0:0:
432,69,7707,6,0,L|421:13,1,51.7500019741059,10|0,0:1|0:0,0:0:0:0:
507,103,8056,2,0,L|497:153,1,51.7500019741059,2|2,0:0|0:0,0:0:0:0:
450,224,8405,6,0,P|488:249|508:314,2,103.500003948212,2|0|10,3:2|3:0|0:1,0:0:0:0:
320,183,9451,1,2,0:0:0:0:
320,183,9626,2,0,P|287:188|236:239,1,103.500003948212,0|2,0:0|0:0,0:0:0:0:
159,247,10149,2,0,P|168:279|174:319,1,51.7500019741059,2|0,3:2|0:0,0:0:0:0:
229,358,10498,2,0,P|274:349|339:341,1,103.500003948212,10|2,0:1|0:0,0:0:0:0:
401,293,11021,1,2,0:0:0:0:
401,293,11196,6,0,P|453:306|521:318,2,103.500003948212,2|0|10,3:2|3:0|0:1,0:0:0:0:
269,247,12242,2,0,L|204:260,1,51.7500019741059,2|0,0:0|0:0,0:0:0:0:
152,305,12591,1,2,3:2:0:0:
152,305,12765,2,0,P|125:277|53:269,1,103.500003948212,2|0,0:0|0:0,0:0:0:0:
1,215,13289,6,0,P|10:180|20:158,1,51.7500019741059,10|0,0:1|0:0,0:0:0:0:
76,107,13637,1,2,0:0:0:0:
6,60,13812,1,2,0:0:0:0:
76,107,13986,6,0,L|188:89,1,103.500003948212,2|0,3:2|3:0,0:0:0:0:
245,40,14510,2,0,L|300:51,1,51.7500019741059,2|10,0:0|0:1,0:0:0:0:
386,53,14858,2,0,P|363:88|374:161,1,103.500003948212,2|0,0:0|0:0,0:0:0:0:
429,203,15382,2,0,P|460:186|529:190,1,103.500003948212,2|0,3:2|3:0,0:0:0:0:
488,267,15905,2,0,P|478:292|474:320,1,51.7500019741059,2|10,0:0|0:1,0:0:0:0:
394,348,16254,2,0,P|353:315|299:316,1,103.500003948212,2|2,0:0|0:0,0:0:0:0:
232,270,16777,6,0,L|255:148,1,103.500003948212,2|0,3:2|3:0,0:0:0:0:
219,90,17300,2,0,P|193:85|165:64,1,51.7500019741059,2|10,0:0|0:1,0:0:0:0:
112,12,17649,2,0,P|69:32|53:85,1,103.500003948212,2|0,0:0|0:0,0:0:0:0:
76,164,18172,2,0,L|64:214,1,51.7500019741059,2|2,3:2|0:0,0:0:0:0:
0,272,18521,1,2,3:2:0:0:
108,362,18870,2,0,P|139:343|220:349,1,103.500003948212,10|2,0:1|0:0,0:0:0:0:
282,306,19393,1,2,0:0:0:0:
282,306,19568,6,0,L|401:325,1,103.500003948212,2|0,3:2|3:0,0:0:0:0:
462,293,20091,2,0,L|448:235,1,51.7500019741059,2|10,0:0|0:1,0:0:0:0:
508,183,20440,2,0,P|499:159|494:125,1,51.7500019741059,2|0,0:0|0:0,0:0:0:0:
505,51,20789,2,0,P|462:29|405:32,1,103.500003948212,2|2,0:0|0:0,0:0:0:0:
337,70,21312,1,2,3:2:0:0:
203,34,21661,2,0,L|149:25,1,51.7500019741059,10|0,0:1|0:0,0:0:0:0:
39,98,22010,2,0,P|73:84|105:83,1,51.7500019741059,2|2,0:0|0:0,0:0:0:0:
154,133,22358,6,0,L|135:240,2,103.500003948212,2|0|10,3:2|3:0|0:1,0:0:0:0:
282,74,23405,2,0,P|293:103|294:130,1,51.7500019741059,2|0,0:0|0:0,0:0:0:0:
276,202,23754,1,2,3:2:0:0:
276,202,23928,2,0,L|392:217,1,103.500003948212,2|0,0:0|0:0,0:0:0:0:
459,191,24451,5,2,0:0:0:0:
508,259,24626,1,2,0:0:0:0:
428,282,24800,2,0,P|408:305|394:347,1,51.7500019741059,2|0,0:0|0:0,0:0:0:0:
340,381,25149,6,0,P|344:335|278:272,1,138,6|0,3:2|3:0,0:0:0:0:
213,231,25672,1,2,0:0:0:0:
152,293,25847,2,0,P|109:307|27:258,2,138,8|2|2,0:0|3:2|3:2,0:0:0:0:
213,231,26719,1,0,1:0:0:0:
142,187,26893,2,0,P|133:155|128:97,1,69,0|0,3:0|0:0,0:0:0:0:
62,66,27242,5,8,0:0:0:0:
144,36,27417,1,2,0:0:0:0:
209,93,27591,2,0,P|243:81|282:73,1,69,0|0,3:0|1:0,0:0:0:0:
328,6,27940,6,0,P|373:28|389:130,1,138,2|0,3:2|3:0,0:0:0:0:
324,147,28463,1,2,0:0:0:0:
388,205,28637,2,0,P|428:193|469:185,1,69,8|0,0:0|0:0,0:0:0:0:
313,245,28986,2,0,P|273:233|232:225,1,69,2|0,3:2|1:0,0:0:0:0:
190,164,29335,1,2,3:2:0:0:
165,244,29510,2,0,P|181:311|195:393,1,138,0|0,1:0|0:0,0:0:0:0:
263,330,30033,5,8,0:0:0:0:
340,361,30207,1,2,0:0:0:0:
406,311,30382,2,0,P|433:289|484:284,1,69,0|0,3:0|1:0,0:0:0:0:
505,207,30730,6,0,P|460:200|399:128,1,138,2|0,3:2|3:0,0:0:0:0:
325,91,31254,1,2,0:0:0:0:
399,46,31428,2,0,P|369:16|276:18,2,138,8|2|2,0:0|3:2|3:2,0:0:0:0:
325,91,32300,1,0,1:0:0:0:
400,133,32475,2,0,P|387:177|379:227,1,69,0|0,3:0|0:0,0:0:0:0:
328,264,32824,5,8,0:0:0:0:
253,223,32998,1,2,0:0:0:0:
200,289,33172,2,0,P|213:333|221:383,1,69,0|0,3:0|1:0,0:0:0:0:
136,379,33521,6,0,P|107:347|1:353,1,138,6|8,3:2|0:0,0:0:0:0:
0,259,34044,1,8,0:0:0:0:
87,249,34219,2,0,P|116:217|222:223,1,138,6|8,3:2|0:0,0:0:0:0:
271,156,34742,1,8,0:0:0:0:
190,123,34917,6,0,P|177:88|181:44,1,69,6|8,3:2|0:0,0:0:0:0:
187,37,35178,1,8,0:0:0:0:
187,37,35265,2,0,P|231:50|281:58,1,69,8|8,0:0|0:0,0:0:0:0:
331,90,35614,1,0,1:0:0:0:
398,32,35789,1,0,1:0:0:0:
477,68,35963,2,0,P|464:112|456:162,1,69,0|0,3:0|3:0,0:0:0:0:
407,204,36312,6,0,P|443:229|457:325,2,124.199996209717,6|2|8,3:2|3:2|0:1,0:0:0:0:
273,152,37358,2,0,P|243:160|212:166,1,62.0999981048585,2|2,0:0|0:0,0:0:0:0:
149,226,37707,2,0,P|103:192|34:204,1,124.199996209717,2|2,3:2|3:2,0:0:0:0:
0,281,38230,1,2,0:0:0:0:
0,281,38405,2,0,P|10:313|17:342,1,62.0999981048585,8|0,0:1|0:0,0:0:0:0:
99,368,38754,2,0,P|106:337|115:308,1,62.0999981048585,2|2,0:0|0:0,0:0:0:0:
149,226,39103,6,0,L|112:84,2,124.199996209717,2|2|8,3:2|3:2|0:1,0:0:0:0:
255,328,40149,2,0,P|288:314|334:316,1,62.0999981048585,2|2,0:0|0:0,0:0:0:0:
394,331,40498,2,0,P|426:301|426:211,1,124.199996209717,2|2,3:2|3:2,0:0:0:0:
471,87,41196,2,0,P|440:84|412:71,1,62.0999981048585,8|0,0:1|0:0,0:0:0:0:
343,28,41544,1,2,0:0:0:0:
343,28,41719,1,2,0:0:0:0:
302,101,41893,6,0,L|333:221,2,124.199996209717,2|2|8,3:2|3:2|0:1,0:0:0:0:
190,17,42940,2,0,P|182:49|177:81,1,62.0999981048585,2|2,0:0|0:0,0:0:0:0:
121,142,43289,2,0,P|90:171|101:254,1,124.199996209717,2|2,3:2|3:2,0:0:0:0:
172,286,43812,1,2,0:0:0:0:
172,286,43986,2,0,P|203:277|234:271,1,62.0999981048585,8|0,0:1|0:0,0:0:0:0:
260,190,44335,2,0,P|229:183|199:175,1,62.0999981048585,2|2,0:0|0:0,0:0:0:0:
121,142,44684,6,0,L|-10:163,2,124.199996209717,2|2|8,3:2|3:2|0:1,0:0:0:0:
188,94,45556,1,2,0:0:0:0:
267,115,45730,2,0,P|275:90|272:40,1,62.0999981048585,2|2,0:0|0:0,0:0:0:0:
348,13,46079,2,0,P|397:37|476:33,1,124.199996209717,2|2,3:2|3:2,0:0:0:0:
501,178,46777,2,0,P|472:166|421:165,1,62.0999981048585,8|0,0:1|0:0,0:0:0:0:
361,173,47126,1,2,0:0:0:0:
232,117,47475,6,0,P|184:125|111:89,1,124.199996209717,2|2,3:2|3:2,0:0:0:0:
39,124,47998,2,0,L|54:184,1,62.0999981048585,2|8,0:0|0:1,0:0:0:0:
1,250,48347,2,0,P|34:273|43:356,1,124.199996209717,2|2,0:0|0:0,0:0:0:0:
120,384,48870,1,2,3:2:0:0:
222,282,49219,1,2,3:2:0:0:
349,345,49568,2,0,P|369:311|389:293,1,62.0999981048585,8|0,0:1|0:0,0:0:0:0:
454,248,49917,2,0,P|434:214|414:196,1,62.0999981048585,2|2,0:0|0:0,0:0:0:0:
381,124,50265,6,0,P|448:116|506:108,2,124.199996209717,2|2|10,3:2|3:2|0:1,0:0:0:0:
256,192,51312,1,2,0:0:0:0:
131,124,51661,2,0,P|138:92|144:58,2,62.0999981048585,2|0|2,3:2|0:0|3:2,0:0:0:0:
57,167,52184,1,0,0:0:0:0:
130,210,52358,2,0,P|142:243|149:280,1,62.0999981048585,8|0,0:1|0:0,0:0:0:0:
215,322,52707,2,0,P|186:345|158:378,1,62.0999981048585,2|2,0:0|0:0,0:0:0:0:
88,376,53056,6,0,P|41:366|15:284,1,124.199996209717,2|2,3:2|3:2,0:0:0:0:
3,217,53579,2,0,P|20:195|71:182,1,62.0999981048585,2|8,0:0|0:1,0:0:0:0:
130,210,53928,1,2,0:0:0:0:
208,175,54103,2,0,L|223:246,1,62.0999981048585,2|0,0:0|0:0,0:0:0:0:
280,296,54451,2,0,P|320:287|405:335,1,124.199996209717,2|2,3:2|3:2,0:0:0:0:
482,339,54975,1,2,0:0:0:0:
482,339,55149,2,0,L|467:268,1,62.0999981048585,8|0,0:1|0:0,0:0:0:0:
512,207,55498,1,2,0:0:0:0:
410,112,55847,6,0,P|401:58|449:1,2,124.199996209717,2|2|8,3:2|3:2|0:1,0:0:0:0:
346,167,56719,1,2,0:0:0:0:
346,167,56893,2,0,L|277:181,1,62.0999981048585,2|2,0:0|0:0,0:0:0:0:
219,229,57242,2,0,P|169:204|98:216,1,124.199996209717,2|2,3:2|3:2,0:0:0:0:
29,174,57765,1,0,0:0:0:0:
100,128,57940,2,0,L|79:46,1,62.0999981048585,8|2,0:1|0:0,0:0:0:0:
149,11,58289,2,0,P|183:22|209:26,1,62.0999981048585,4|0,0:0|0:0,0:0:0:0:
278,74,58637,6,0,P|328:49|408:68,1,124.199996209717,6|0,3:2|0:0,0:0:0:0:
505,146,59335,2,0,L|488:207,1,62.0999981048585,2|0,3:2|0:0,0:0:0:0:
420,260,59684,2,0,P|391:250|359:243,1,62.0999981048585,2|2,0:0|0:0,0:0:0:0:
285,205,60033,2,0,P|235:230|155:211,1,124.199996209717,2|2,3:2|0:0,0:0:0:0:
121,150,60556,1,2,0:0:0:0:
121,150,60730,2,0,P|171:125|251:144,1,124.199996209717,2|2,3:2|0:0,0:0:0:0:
285,205,61254,1,0,0:0:0:0:
224,264,61428,5,2,3:2:0:0:
224,264,61603,2,0,P|239:328|250:389,1,124.199996209717,2|0,0:0|0:0,0:0:0:0:
325,346,62126,2,0,P|332:313|342:277,2,62.0999981048585,2|0|0,3:2|0:0|0:0,0:0:0:0:
166,382,62824,2,0,P|138:355|43:359,1,124.199996209717,2|0,3:1|0:0,0:0:0:0:
0,287,63347,1,2,0:0:0:0:
66,234,63521,2,0,L|46:158,1,62.0999981048585,2|0,3:2|0:0,0:0:0:0:
99,108,63870,1,2,0:0:0:0:
99,108,64044,1,2,0:0:0:0:
62,28,64219,6,0,P|103:20|179:68,1,124.199996209717,2|0,3:2|0:0,0:0:0:0:
257,170,64917,2,0,P|287:158|331:145,1,62.0999981048585,2|0,3:2|0:0,0:0:0:0:
395,183,65265,2,0,P|383:213|370:257,1,62.0999981048585,2|2,0:0|0:0,0:0:0:0:
314,302,65614,2,0,P|341:350|426:357,1,124.199996209717,2|2,3:2|0:0,0:0:0:0:
477,323,66137,2,0,P|465:293|452:249,1,62.0999981048585,2|2,0:0|3:2,0:0:0:0:
496,190,66486,2,0,L|532:53,1,124.199996209717,2|0,0:0|0:0,0:0:0:0:
444,88,67010,5,2,3:2:0:0:
394,22,67184,1,2,0:0:0:0:
325,68,67358,2,0,P|265:62|204:7,2,124.199996209717,2|0|0,0:0|3:2|0:0,0:0:0:0:
420,174,68405,2,0,P|455:165|488:162,2,62.0999981048585,2|0|0,3:1|0:0|0:0,0:0:0:0:
345,210,68928,1,2,0:0:0:0:
294,142,69103,2,0,P|234:124|163:101,1,124.199996209717,2|0,3:2|0:0,0:0:0:0:
100,137,69626,1,2,0:0:0:0:
19,124,69800,6,0,P|9:170|58:237,1,124.199996209717,6|0,3:2|0:0,0:0:0:0:
188,265,70498,2,0,P|196:232|210:196,1,62.0999981048585,2|0,3:2|0:0,0:0:0:0:
260,142,70847,2,0,P|252:111|242:82,1,62.0999981048585,2|2,0:0|0:0,0:0:0:0:
290,15,71196,2,0,P|350:34|423:37,1,124.199996209717,2|2,3:2|0:0,0:0:0:0:
484,88,71719,1,2,0:0:0:0:
484,88,71893,2,0,P|422:92|363:110,1,124.199996209717,2|2,3:2|0:0,0:0:0:0:
331,189,72417,1,2,0:0:0:0:
260,142,72591,5,2,3:2:0:0:
260,142,72765,2,0,P|242:180|283:260,1,124.199996209717,2|0,0:0|0:0,0:0:0:0:
353,275,73289,2,0,P|389:264|439:254,2,62.0999981048585,2|0|0,3:2|0:0|0:0,0:0:0:0:
205,344,73986,2,0,P|149:333|79:322,1,124.199996209717,2|0,3:1|0:0,0:0:0:0:
45,247,74510,1,2,0:0:0:0:
45,247,74684,2,0,P|77:240|105:233,1,62.0999981048585,2|0,3:2|0:0,0:0:0:0:
180,194,75033,1,2,0:0:0:0:
108,148,75207,1,2,0:0:0:0:
185,108,75382,6,0,P|160:46|-11:61,2,248.399992419434,6|6|6,3:2|3:2|3:2,0:0:0:0:
185,108,78172,6,0,L|204:187,1,62.0999981048585,6|0,3:2|0:0,0:0:0:0:
146,240,78521,2,0,L|223:263,1,62.0999981048585,0|0,1:0|0:0,0:0:0:0:
240,339,78870,2,0,L|298:283,1,62.0999981048585,0|0,1:0|0:0,0:0:0:0:
373,306,79219,2,0,L|354:226,1,62.0999981048585,0|0,1:0|0:0,0:0:0:0:
412,175,79568,2,0,L|334:151,1,62.0999981048585,0|0,1:0|0:0,0:0:0:0:
318,75,79917,2,0,L|259:130,1,62.0999981048585,0|0,1:0|0:0,0:0:0:0:
279,207,80265,5,2,0:0:0:0:
279,207,80963,5,4,3:2:0:0:
279,207,81137,2,0,P|335:199|417:256,1,138,2|0,0:0|0:0,0:0:0:0:
504,285,81661,2,0,P|448:277|366:334,1,138,10|0,0:0|3:2,0:0:0:0:
313,369,82184,1,2,1:2:0:0:
266,302,82358,1,2,3:2:0:0:
266,302,82533,2,0,P|202:290|149:216,1,138,2|0,1:2|0:0,0:0:0:0:
83,195,83056,1,8,0:0:0:0:
158,152,83230,2,0,P|163:116|81:37,1,138,2|2,0:0|1:2,0:0:0:0:
24,8,83754,6,0,L|4:82,1,69,2|0,3:2|0:0,0:0:0:0:
77,126,84103,2,0,L|83:202,1,69,2|0,3:2|0:0,0:0:0:0:
167,218,84451,1,10,0:0:0:0:
231,163,84626,1,2,0:0:0:0:
167,218,84800,2,0,L|199:287,1,69,2|0,3:2|1:0,0:0:0:0:
268,325,85149,6,0,P|299:305|348:299,2,69,0|0|0,3:0|1:0|3:0,0:0:0:0:
193,367,85672,1,2,0:0:0:0:
126,319,85847,1,8,0:0:0:0:
126,319,86021,2,0,P|92:311|63:292,1,69,2|0,0:0|3:0,0:0:0:0:
9,229,86370,1,0,1:0:0:0:
90,202,86544,6,0,P|102:141|56:80,1,138,2|0,3:2|3:2,0:0:0:0:
107,11,87068,1,2,0:0:0:0:
176,71,87242,1,8,0:0:0:0:
176,71,87417,2,0,P|254:83|323:95,1,138,2|2,0:0|1:2,0:0:0:0:
391,61,87940,2,0,L|372:-21,1,69,2|2,3:2|1:2,0:0:0:0:
459,116,88289,2,0,P|445:147|443:183,1,69,2|0,3:2|0:0,0:0:0:0:
482,259,88637,1,8,0:0:0:0:
411,309,88812,2,0,P|425:340|426:376,2,69,2|0|0,0:0|3:0|1:0,0:0:0:0:
371,231,89335,6,0,P|326:232|260:268,1,103.5,2|0,3:2|0:0,0:0:0:0:
261,268,89684,2,0,P|224:254|185:252,1,69,2|0,3:2|0:0,0:0:0:0:
123,204,90033,1,8,0:0:0:0:
76,277,90207,1,2,0:0:0:0:
16,215,90382,2,0,P|19:180|32:148,1,69,2|0,3:2|1:0,0:0:0:0:
42,64,90730,5,0,3:0:0:0:
111,116,90905,1,0,1:0:0:0:
192,89,91079,2,0,P|226:85|258:72,1,69,0|0,3:0|0:0,0:0:0:0:
394,149,91428,2,0,P|362:136|327:132,1,69,10|0,0:0|0:0,0:0:0:0:
248,172,91777,1,2,3:2:0:0:
248,172,91951,1,0,1:0:0:0:
322,220,92126,6,0,P|352:261|348:353,1,138,4|2,3:2|3:2,0:0:0:0:
272,315,92649,1,2,0:0:0:0:
201,364,92824,2,0,P|164:355|53:336,1,138,10|2,0:0|3:2,0:0:0:0:
7,275,93347,1,2,1:2:0:0:
92,254,93521,2,0,P|86:214|70:165,1,69,2|2,3:2|1:2,0:0:0:0:
144,126,93870,2,0,L|178:-14,2,138,2|8|2,3:2|0:0|3:2,0:0:0:0:
182,205,94742,1,2,1:2:0:0:
246,147,94917,6,0,P|286:142|324:130,1,69,2|0,3:2|0:0,0:0:0:0:
398,161,95265,2,0,P|414:225|358:291,1,138,2|10,3:2|0:2,0:0:0:0:
306,335,95789,1,2,0:0:0:0:
383,374,95963,2,0,P|416:364|450:361,1,69,2|0,3:2|1:0,0:0:0:0:
509,292,96312,2,0,P|505:257|496:224,2,69,0|0|0,3:0|1:0|3:0,0:0:0:0:
350,232,97010,2,0,L|382:94,1,138,10|2,0:0|3:2,0:0:0:0:
324,39,97533,1,0,1:0:0:0:
324,39,97707,6,0,P|271:71|183:46,1,138,0|2,3:2|3:2,0:0:0:0:
121,95,98230,1,2,0:0:0:0:
189,149,98405,2,0,P|209:226|224:299,1,138,8|2,0:0|3:2,0:0:0:0:
290,332,98928,1,0,1:0:0:0:
213,366,99103,2,0,P|182:351|132:346,1,69,2|2,3:2|1:2,0:0:0:0:
107,270,99451,2,0,P|72:296|-24:295,2,138,2|8|2,3:2|0:0|3:2,0:0:0:0:
167,210,100324,1,2,1:2:0:0:
167,210,100498,6,0,L|133:60,1,138,6|0,3:2|0:0,0:0:0:0:
297,12,101196,2,0,P|333:29|378:30,1,69,4|0,3:2|0:0,0:0:0:0:
435,97,101544,2,0,P|400:101|346:164,1,103.5,2|0,0:0|0:0,0:0:0:0:
331,153,101893,2,0,L|353:230,1,69,4|8,3:2|0:0,0:0:0:0:
372,241,102155,1,8,0:0:0:0:
372,241,102242,2,0,P|346:278|340:306,1,69,8|8,0:0|0:0,0:0:0:0:
298,378,102591,5,0,1:0:0:0:
255,302,102765,1,0,1:0:0:0:
175,335,102940,2,0,P|153:308|143:275,1,69,0|0,3:0|3:0,0:0:0:0:
77,218,103289,6,0,P|73:172|139:109,1,138,6|0,3:2|3:0,0:0:0:0:
216,133,103812,1,2,0:0:0:0:
264,63,103987,2,0,P|341:49|410:35,2,138,8|2|2,0:0|3:2|3:2,0:0:0:0:
216,133,104859,1,0,1:0:0:0:
301,145,105033,2,0,P|314:178|312:233,1,69,0|0,3:0|0:0,0:0:0:0:
378,272,105382,5,8,0:0:0:0:
293,294,105557,1,2,0:0:0:0:
234,230,105731,2,0,P|200:218|161:210,1,69,2|0,3:2|1:0,0:0:0:0:
95,165,106080,6,0,P|50:187|34:289,1,138,2|0,3:2|3:0,0:0:0:0:
83,333,106603,1,2,0:0:0:0:
150,277,106777,2,0,P|157:243|167:210,1,69,8|0,0:0|0:0,0:0:0:0:
226,318,107126,2,0,P|236:350|243:384,1,69,2|0,3:2|1:0,0:0:0:0:
317,341,107475,1,2,3:2:0:0:
397,374,107650,2,0,P|442:324|425:238,1,138,0|0,1:0|0:0,0:0:0:0:
446,170,108173,5,8,0:0:0:0:
367,208,108347,1,2,0:0:0:0:
305,149,108522,2,0,P|307:112|339:67,1,69,0|0,3:0|1:0,0:0:0:0:
274,9,108870,6,0,P|234:64|169:82,1,138,2|0,3:2|3:0,0:0:0:0:
118,153,109394,1,2,0:0:0:0:
38,120,109568,2,0,P|47:55|-11:4,2,138,8|2|2,0:0|3:2|3:2,0:0:0:0:
118,153,110440,1,0,1:0:0:0:
51,205,110615,2,0,P|64:249|72:299,1,69,0|0,3:0|0:0,0:0:0:0:
46,355,110964,5,8,0:0:0:0:
129,335,111138,1,2,0:0:0:0:
199,383,111312,2,0,P|206:349|216:316,1,69,0|0,3:0|1:0,0:0:0:0:
280,258,111661,6,0,P|243:207|264:131,1,138,2|0,3:2|3:0,0:0:0:0:
240,51,112184,1,2,0:0:0:0:
323,81,112358,2,0,P|355:91|390:91,1,69,12|0,3:2|0:0,0:0:0:0:
509,152,112707,2,0,P|473:152|427:171,1,69,2|0,3:2|1:0,0:0:0:0:
362,198,113056,6,0,L|382:282,1,69,2|0,3:2|1:0,0:0:0:0:
402,283,113318,1,0,1:0:0:0:
402,283,113405,2,0,P|399:324|376:359,1,69,0|0,1:0|1:0,0:0:0:0:
305,377,113754,1,0,1:0:0:0:
249,313,113929,1,0,1:0:0:0:
169,344,114103,1,0,1:0:0:0:
154,261,114277,1,0,1:0:0:0:
