osu file format v14

[General]
AudioFilename: audio.ogg
AudioLeadIn: 0
PreviewTime: 71211
Countdown: 0
SampleSet: Soft
StackLeniency: 0.7
Mode: 3
LetterboxInBreaks: 0
SpecialStyle: 0
WidescreenStoryboard: 1

[Editor]
DistanceSpacing: 0.8
BeatDivisor: 4
GridSize: 4
TimelineZoom: 1.3

[Metadata]
Title:Keitai Renwa
TitleUnicode:携帯恋話
Artist:25-ji, Nightcord de. x Hatsune Miku
ArtistUnicode:25時、ナイトコードで。 × 初音ミク
Creator:Critical_Star
Version:Master
Source:プロジェクトセカイ カラフルステージ! feat. 初音ミク
Tags:Project SEKAI Colorful Stage! feat. Hatsune Miku pjsk prsk proseka Cellphone Love Story vocaloid Mafumafu まふまふ Shinonome Ena 東雲絵名 Suzuki Minori 鈴木みのり Akiyama Mizuki 暁山瑞希 Satou Hinata 佐藤日向 N25 ニーゴ SEGA Palette jpop japanese Nightcord at 25:00
BeatmapID:3880273
BeatmapSetID:1884607

[Difficulty]
HPDrainRate:8
CircleSize:7
OverallDifficulty:8
ApproachRate:5
SliderMultiplier:1.4
SliderTickRate:1

[Events]
//Background and Video events
0,0,"BG.jpg",0,0
Video,1000,"keitaimv.mp4"
//Break Periods
//Storyboard Layer 0 (Background)
//Storyboard Layer 1 (Fail)
//Storyboard Layer 2 (Pass)
//Storyboard Layer 3 (Foreground)
//Storyboard Layer 4 (Overlay)
//Storyboard Sound Samples

[TimingPoints]
11,400,4,2,1,40,1,0
72011,-100,4,2,1,40,0,1
100011,-100,4,2,1,40,0,0

[HitObjects]
182,192,1411,5,0,0:0:0:0:
36,192,1511,1,0,0:0:0:0:
256,192,1611,1,0,0:0:0:0:
402,192,1611,1,0,0:0:0:0:
109,192,1711,1,0,0:0:0:0:
329,192,1811,1,0,0:0:0:0:
475,192,1811,1,0,0:0:0:0:
182,192,1911,1,0,0:0:0:0:
36,192,2011,1,0,0:0:0:0:
402,192,2011,128,0,2411:0:0:0:0:
329,192,2411,1,0,0:0:0:0:
475,192,2411,1,0,0:0:0:0:
182,192,2711,1,0,0:0:0:0:
36,192,2711,1,0,0:0:0:0:
329,192,3011,1,0,0:0:0:0:
475,192,3011,1,0,0:0:0:0:
109,192,3411,1,0,0:0:0:0:
256,192,3411,1,0,0:0:0:0:
109,192,3611,1,0,0:0:0:0:
256,192,3611,1,0,0:0:0:0:
329,192,4011,1,0,0:0:0:0:
475,192,4011,1,0,0:0:0:0:
182,192,4311,1,0,0:0:0:0:
36,192,4311,1,0,0:0:0:0:
475,192,4611,1,0,0:0:0:0:
256,192,4711,1,0,0:0:0:0:
402,192,4811,1,0,0:0:0:0:
36,192,4811,1,0,0:0:0:0:
182,192,4911,1,0,0:0:0:0:
329,192,5011,1,0,0:0:0:0:
475,192,5011,1,0,0:0:0:0:
182,192,5111,1,0,0:0:0:0:
402,192,5211,1,0,0:0:0:0:
109,192,5211,128,0,5611:0:0:0:0:
182,192,5611,1,0,0:0:0:0:
36,192,5611,1,0,0:0:0:0:
329,192,5911,1,0,0:0:0:0:
475,192,5911,1,0,0:0:0:0:
182,192,6211,1,0,0:0:0:0:
36,192,6211,1,0,0:0:0:0:
402,192,6611,1,0,0:0:0:0:
256,192,6611,1,0,0:0:0:0:
402,192,6811,1,0,0:0:0:0:
256,192,6811,1,0,0:0:0:0:
329,192,7211,1,0,0:0:0:0:
182,192,7211,1,0,0:0:0:0:
256,192,7511,1,0,0:0:0:0:
109,192,7511,1,0,0:0:0:0:
36,192,7811,1,0,0:0:0:0:
182,192,7911,1,0,0:0:0:0:
109,192,8011,1,0,0:0:0:0:
475,192,8011,1,0,0:0:0:0:
256,192,8111,1,0,0:0:0:0:
182,192,8211,1,0,0:0:0:0:
36,192,8211,1,0,0:0:0:0:
329,192,8311,1,0,0:0:0:0:
109,192,8411,1,0,0:0:0:0:
402,192,8411,128,0,8811:0:0:0:0:
182,192,8811,1,0,0:0:0:0:
36,192,8811,1,0,0:0:0:0:
329,192,9111,1,0,0:0:0:0:
475,192,9111,1,0,0:0:0:0:
182,192,9411,1,0,0:0:0:0:
36,192,9411,1,0,0:0:0:0:
402,192,9811,1,0,0:0:0:0:
256,192,9811,1,0,0:0:0:0:
402,192,10011,1,0,0:0:0:0:
256,192,10011,1,0,0:0:0:0:
329,192,10411,1,0,0:0:0:0:
475,192,10411,1,0,0:0:0:0:
182,192,10511,1,0,0:0:0:0:
36,192,10511,1,0,0:0:0:0:
329,192,10711,1,0,0:0:0:0:
182,192,10711,1,0,0:0:0:0:
475,192,10911,1,0,0:0:0:0:
256,192,11011,1,0,0:0:0:0:
109,192,11011,1,0,0:0:0:0:
402,192,11111,1,0,0:0:0:0:
182,192,11211,1,0,0:0:0:0:
36,192,11211,1,0,0:0:0:0:
329,192,11311,1,0,0:0:0:0:
109,192,11411,1,0,0:0:0:0:
475,192,11411,1,0,0:0:0:0:
256,192,11511,1,0,0:0:0:0:
402,192,11611,1,0,0:0:0:0:
36,192,11611,128,0,11911:0:0:0:0:
182,192,11911,1,0,0:0:0:0:
329,192,12011,1,0,0:0:0:0:
475,192,12011,1,0,0:0:0:0:
329,192,12211,1,0,0:0:0:0:
182,192,12311,1,0,0:0:0:0:
36,192,12311,1,0,0:0:0:0:
475,192,12611,1,0,0:0:0:0:
256,192,12611,128,0,13011:0:0:0:0:
109,192,12611,128,0,13211:0:0:0:0:
36,192,12611,128,0,13611:0:0:0:0:
329,192,13011,1,0,0:0:0:0:
475,192,13011,1,0,0:0:0:0:
182,192,13111,1,0,0:0:0:0:
402,192,13211,1,0,0:0:0:0:
256,192,13211,1,0,0:0:0:0:
475,192,13311,1,0,0:0:0:0:
329,192,13411,1,0,0:0:0:0:
182,192,13411,1,0,0:0:0:0:
402,192,13511,1,0,0:0:0:0:
256,192,13611,1,0,0:0:0:0:
109,192,13611,1,0,0:0:0:0:
329,192,13711,1,0,0:0:0:0:
475,192,13711,1,0,0:0:0:0:
182,192,13811,1,0,0:0:0:0:
36,192,13811,1,0,0:0:0:0:
256,192,13911,1,0,0:0:0:0:
402,192,13911,1,0,0:0:0:0:
475,192,14011,1,0,0:0:0:0:
109,192,14011,1,0,0:0:0:0:
329,192,14111,1,0,0:0:0:0:
182,192,14111,1,0,0:0:0:0:
402,192,14211,128,0,14611:0:0:0:0:
475,192,14211,128,0,14611:0:0:0:0:
36,192,14211,1,0,0:0:0:0:
256,192,14211,1,0,0:0:0:0:
182,192,14611,1,0,0:0:0:0:
36,192,14611,1,0,0:0:0:0:
329,192,14711,1,0,0:0:0:0:
475,192,14811,1,0,0:0:0:0:
182,192,14811,1,0,0:0:0:0:
36,192,14811,1,0,0:0:0:0:
402,192,14911,1,0,0:0:0:0:
256,192,15011,1,0,0:0:0:0:
109,192,15011,1,0,0:0:0:0:
329,192,15111,1,0,0:0:0:0:
475,192,15211,1,0,0:0:0:0:
36,192,15211,1,0,0:0:0:0:
182,192,15211,1,0,0:0:0:0:
256,192,15311,1,0,0:0:0:0:
109,192,15411,1,0,0:0:0:0:
402,192,15411,1,0,0:0:0:0:
256,192,15511,1,0,0:0:0:0:
329,192,15611,1,0,0:0:0:0:
475,192,15611,1,0,0:0:0:0:
182,192,15611,1,0,0:0:0:0:
109,192,15811,128,0,16211:0:0:0:0:
256,192,15811,1,0,0:0:0:0:
36,192,15811,1,0,0:0:0:0:
402,192,16011,1,0,0:0:0:0:
182,192,16211,1,0,0:0:0:0:
329,192,16211,1,0,0:0:0:0:
256,192,16311,1,0,0:0:0:0:
36,192,16411,1,0,0:0:0:0:
475,192,16411,1,0,0:0:0:0:
329,192,16411,1,0,0:0:0:0:
109,192,16511,1,0,0:0:0:0:
256,192,16611,1,0,0:0:0:0:
402,192,16611,1,0,0:0:0:0:
182,192,16711,1,0,0:0:0:0:
329,192,16811,1,0,0:0:0:0:
36,192,16811,1,0,0:0:0:0:
475,192,16811,1,0,0:0:0:0:
182,192,16911,1,0,0:0:0:0:
109,192,17011,1,0,0:0:0:0:
329,192,17011,1,0,0:0:0:0:
256,192,17111,1,0,0:0:0:0:
182,192,17211,1,0,0:0:0:0:
402,192,17211,1,0,0:0:0:0:
36,192,17211,1,0,0:0:0:0:
256,192,17411,1,0,0:0:0:0:
109,192,17411,1,0,0:0:0:0:
475,192,17411,128,0,17811:0:0:0:0:
329,192,17611,1,0,0:0:0:0:
256,192,17811,1,0,0:0:0:0:
402,192,17811,1,0,0:0:0:0:
182,192,17911,1,0,0:0:0:0:
109,192,18011,1,0,0:0:0:0:
329,192,18011,1,0,0:0:0:0:
475,192,18011,1,0,0:0:0:0:
256,192,18111,1,0,0:0:0:0:
36,192,18211,1,0,0:0:0:0:
402,192,18211,1,0,0:0:0:0:
182,192,18311,1,0,0:0:0:0:
36,192,18411,1,0,0:0:0:0:
329,192,18411,1,0,0:0:0:0:
475,192,18411,1,0,0:0:0:0:
256,192,18511,1,0,0:0:0:0:
402,192,18611,1,0,0:0:0:0:
109,192,18611,1,0,0:0:0:0:
256,192,18711,1,0,0:0:0:0:
182,192,18811,1,0,0:0:0:0:
329,192,18811,1,0,0:0:0:0:
36,192,18811,1,0,0:0:0:0:
256,192,19011,128,0,19411:0:0:0:0:
109,192,19011,1,0,0:0:0:0:
475,192,19011,1,0,0:0:0:0:
329,192,19211,1,0,0:0:0:0:
475,192,19411,1,0,0:0:0:0:
182,192,19411,1,0,0:0:0:0:
256,192,19511,1,0,0:0:0:0:
329,192,19611,1,0,0:0:0:0:
109,192,19611,1,0,0:0:0:0:
36,192,19611,1,0,0:0:0:0:
182,192,19711,1,0,0:0:0:0:
329,192,19811,128,0,19911:0:0:0:0:
402,192,19811,1,0,0:0:0:0:
475,192,19911,128,0,20011:0:0:0:0:
256,192,20011,128,0,20111:0:0:0:0:
36,192,20011,1,0,0:0:0:0:
329,192,20011,1,0,0:0:0:0:
402,192,20111,128,0,20211:0:0:0:0:
182,192,20211,128,0,20311:0:0:0:0:
256,192,20211,1,0,0:0:0:0:
329,192,20311,128,0,20411:0:0:0:0:
182,192,20411,1,0,0:0:0:0:
475,192,20411,1,0,0:0:0:0:
109,192,20411,1,0,0:0:0:0:
256,192,20511,1,0,0:0:0:0:
182,192,20611,1,0,0:0:0:0:
36,192,20611,1,0,0:0:0:0:
329,192,20611,128,0,21011:0:0:0:0:
475,192,20611,128,0,21011:0:0:0:0:
109,192,21011,1,0,0:0:0:0:
402,192,21011,1,0,0:0:0:0:
256,192,21011,1,0,0:0:0:0:
329,192,21111,1,0,0:0:0:0:
182,192,21211,1,0,0:0:0:0:
36,192,21211,1,0,0:0:0:0:
475,192,21211,1,0,0:0:0:0:
402,192,21311,1,0,0:0:0:0:
256,192,21411,1,0,0:0:0:0:
109,192,21411,1,0,0:0:0:0:
329,192,21511,1,0,0:0:0:0:
182,192,21611,1,0,0:0:0:0:
402,192,21611,1,0,0:0:0:0:
256,192,21611,1,0,0:0:0:0:
36,192,21711,1,0,0:0:0:0:
182,192,21811,1,0,0:0:0:0:
475,192,21811,1,0,0:0:0:0:
329,192,21911,1,0,0:0:0:0:
109,192,22011,1,0,0:0:0:0:
402,192,22011,1,0,0:0:0:0:
36,192,22011,1,0,0:0:0:0:
182,192,22211,128,0,22611:0:0:0:0:
329,192,22211,1,0,0:0:0:0:
475,192,22211,1,0,0:0:0:0:
256,192,22411,1,0,0:0:0:0:
109,192,22611,1,0,0:0:0:0:
402,192,22611,1,0,0:0:0:0:
329,192,22711,1,0,0:0:0:0:
256,192,22811,1,0,0:0:0:0:
36,192,22811,1,0,0:0:0:0:
475,192,22811,1,0,0:0:0:0:
109,192,22911,1,0,0:0:0:0:
329,192,23011,1,0,0:0:0:0:
475,192,23011,1,0,0:0:0:0:
256,192,23111,1,0,0:0:0:0:
36,192,23211,1,0,0:0:0:0:
182,192,23211,1,0,0:0:0:0:
329,192,23211,1,0,0:0:0:0:
402,192,23311,1,0,0:0:0:0:
109,192,23411,1,0,0:0:0:0:
256,192,23411,1,0,0:0:0:0:
329,192,23511,1,0,0:0:0:0:
475,192,23611,1,0,0:0:0:0:
36,192,23611,1,0,0:0:0:0:
182,192,23611,1,0,0:0:0:0:
402,192,23811,128,0,24211:0:0:0:0:
256,192,23811,1,0,0:0:0:0:
109,192,23811,1,0,0:0:0:0:
182,192,24011,1,0,0:0:0:0:
256,192,24211,1,0,0:0:0:0:
475,192,24211,1,0,0:0:0:0:
329,192,24311,1,0,0:0:0:0:
402,192,24411,1,0,0:0:0:0:
182,192,24411,1,0,0:0:0:0:
36,192,24411,1,0,0:0:0:0:
109,192,24511,1,0,0:0:0:0:
256,192,24611,1,0,0:0:0:0:
475,192,24611,1,0,0:0:0:0:
182,192,24711,1,0,0:0:0:0:
329,192,24811,1,0,0:0:0:0:
109,192,24811,1,0,0:0:0:0:
402,192,24811,1,0,0:0:0:0:
256,192,24911,1,0,0:0:0:0:
182,192,25011,1,0,0:0:0:0:
475,192,25011,1,0,0:0:0:0:
329,192,25111,1,0,0:0:0:0:
475,192,25211,1,0,0:0:0:0:
182,192,25211,1,0,0:0:0:0:
36,192,25211,1,0,0:0:0:0:
109,192,25411,128,0,25811:0:0:0:0:
256,192,25411,1,0,0:0:0:0:
402,192,25411,1,0,0:0:0:0:
402,192,25611,128,0,26211:0:0:0:0:
475,192,25611,1,0,0:0:0:0:
329,192,25611,1,0,0:0:0:0:
36,192,25611,1,0,0:0:0:0:
256,192,25811,128,0,26011:0:0:0:0:
182,192,25911,1,0,0:0:0:0:
36,192,26011,1,0,0:0:0:0:
475,192,26011,1,0,0:0:0:0:
329,192,26011,1,0,0:0:0:0:
182,192,26211,128,0,26411:0:0:0:0:
329,192,26311,1,0,0:0:0:0:
109,192,26311,1,0,0:0:0:0:
256,192,26511,1,0,0:0:0:0:
402,192,26511,1,0,0:0:0:0:
182,192,26611,1,0,0:0:0:0:
36,192,26611,1,0,0:0:0:0:
329,192,26711,1,0,0:0:0:0:
475,192,26711,1,0,0:0:0:0:
256,192,26811,1,0,0:0:0:0:
109,192,26811,1,0,0:0:0:0:
402,192,26911,1,0,0:0:0:0:
182,192,27011,1,0,0:0:0:0:
36,192,27011,1,0,0:0:0:0:
475,192,27011,1,0,0:0:0:0:
329,192,27011,128,0,27411:0:0:0:0:
36,192,27411,1,0,0:0:0:0:
402,192,27411,1,0,0:0:0:0:
182,192,27411,1,0,0:0:0:0:
256,192,27611,1,0,0:0:0:0:
109,192,27711,1,0,0:0:0:0:
402,192,27711,1,0,0:0:0:0:
36,192,27911,128,0,28411:0:0:0:0:
182,192,27911,1,0,0:0:0:0:
256,192,28411,1,0,0:0:0:0:
475,192,29011,1,0,0:0:0:0:
329,192,29011,1,0,0:0:0:0:
256,192,29211,1,0,0:0:0:0:
329,192,29311,1,0,0:0:0:0:
182,192,29311,1,0,0:0:0:0:
475,192,29511,128,0,29811:0:0:0:0:
329,192,29511,1,0,0:0:0:0:
256,192,29711,1,0,0:0:0:0:
402,192,29811,1,0,0:0:0:0:
109,192,29811,1,0,0:0:0:0:
256,192,30011,1,0,0:0:0:0:
475,192,30011,1,0,0:0:0:0:
36,192,30011,1,0,0:0:0:0:
36,192,30211,1,0,0:0:0:0:
402,192,30211,1,0,0:0:0:0:
182,192,30211,128,0,30611:0:0:0:0:
36,192,30611,1,0,0:0:0:0:
402,192,30611,1,0,0:0:0:0:
256,192,30811,1,0,0:0:0:0:
109,192,30911,1,0,0:0:0:0:
329,192,30911,1,0,0:0:0:0:
182,192,31111,1,0,0:0:0:0:
402,192,31111,128,0,31611:0:0:0:0:
256,192,31611,1,0,0:0:0:0:
256,192,32411,1,0,0:0:0:0:
109,192,32711,1,0,0:0:0:0:
402,192,32811,1,0,0:0:0:0:
475,192,32811,1,0,0:0:0:0:
36,192,32911,1,0,0:0:0:0:
182,192,32911,1,0,0:0:0:0:
402,192,33011,1,0,0:0:0:0:
475,192,33011,1,0,0:0:0:0:
109,192,33211,1,0,0:0:0:0:
256,192,33211,1,0,0:0:0:0:
475,192,33211,1,0,0:0:0:0:
329,192,33411,1,0,0:0:0:0:
475,192,33411,1,0,0:0:0:0:
36,192,33411,1,0,0:0:0:0:
182,192,33411,128,0,33811:0:0:0:0:
475,192,33811,1,0,0:0:0:0:
109,192,33811,1,0,0:0:0:0:
329,192,33811,1,0,0:0:0:0:
256,192,34011,1,0,0:0:0:0:
402,192,34111,1,0,0:0:0:0:
109,192,34111,1,0,0:0:0:0:
475,192,34311,128,0,34811:0:0:0:0:
329,192,34311,1,0,0:0:0:0:
256,192,34811,1,0,0:0:0:0:
36,192,35411,1,0,0:0:0:0:
182,192,35411,1,0,0:0:0:0:
256,192,35611,1,0,0:0:0:0:
182,192,35711,1,0,0:0:0:0:
329,192,35711,1,0,0:0:0:0:
36,192,35911,128,0,36211:0:0:0:0:
182,192,35911,1,0,0:0:0:0:
256,192,36111,1,0,0:0:0:0:
109,192,36211,1,0,0:0:0:0:
402,192,36211,1,0,0:0:0:0:
256,192,36411,1,0,0:0:0:0:
36,192,36411,1,0,0:0:0:0:
475,192,36411,1,0,0:0:0:0:
475,192,36611,1,0,0:0:0:0:
109,192,36611,1,0,0:0:0:0:
329,192,36611,128,0,37011:0:0:0:0:
475,192,37011,1,0,0:0:0:0:
109,192,37011,1,0,0:0:0:0:
256,192,37211,1,0,0:0:0:0:
402,192,37311,1,0,0:0:0:0:
182,192,37311,1,0,0:0:0:0:
329,192,37511,1,0,0:0:0:0:
109,192,37511,128,0,38011:0:0:0:0:
256,192,38011,1,0,0:0:0:0:
256,192,38811,1,0,0:0:0:0:
402,192,39111,1,0,0:0:0:0:
109,192,39211,1,0,0:0:0:0:
36,192,39211,1,0,0:0:0:0:
475,192,39311,1,0,0:0:0:0:
329,192,39311,1,0,0:0:0:0:
109,192,39411,1,0,0:0:0:0:
36,192,39411,1,0,0:0:0:0:
256,192,39611,1,0,0:0:0:0:
182,192,39611,1,0,0:0:0:0:
329,192,39611,1,0,0:0:0:0:
475,192,39811,128,0,40211:0:0:0:0:
402,192,39811,128,0,40111:0:0:0:0:
329,192,39811,128,0,40011:0:0:0:0:
36,192,39811,1,0,0:0:0:0:
109,192,39911,1,0,0:0:0:0:
182,192,40011,1,0,0:0:0:0:
256,192,40111,1,0,0:0:0:0:
329,192,40211,1,0,0:0:0:0:
402,192,40311,1,0,0:0:0:0:
475,192,40411,128,0,40711:0:0:0:0:
256,192,40411,1,0,0:0:0:0:
402,192,40511,128,0,40711:0:0:0:0:
109,192,40511,1,0,0:0:0:0:
182,192,40711,1,0,0:0:0:0:
36,192,40711,1,0,0:0:0:0:
329,192,40811,1,0,0:0:0:0:
475,192,40811,1,0,0:0:0:0:
402,192,40811,1,0,0:0:0:0:
256,192,41011,1,0,0:0:0:0:
182,192,41211,1,0,0:0:0:0:
36,192,41211,1,0,0:0:0:0:
402,192,41211,1,0,0:0:0:0:
256,192,41411,1,0,0:0:0:0:
329,192,41611,1,0,0:0:0:0:
475,192,41611,1,0,0:0:0:0:
109,192,41611,1,0,0:0:0:0:
182,192,41811,1,0,0:0:0:0:
402,192,41811,1,0,0:0:0:0:
36,192,42011,128,0,42311:0:0:0:0:
256,192,42011,1,0,0:0:0:0:
402,192,42111,1,0,0:0:0:0:
109,192,42111,128,0,42311:0:0:0:0:
475,192,42311,1,0,0:0:0:0:
329,192,42311,1,0,0:0:0:0:
182,192,42411,1,0,0:0:0:0:
36,192,42411,1,0,0:0:0:0:
109,192,42411,1,0,0:0:0:0:
402,192,42511,1,0,0:0:0:0:
475,192,42511,1,0,0:0:0:0:
182,192,42611,1,0,0:0:0:0:
36,192,42611,1,0,0:0:0:0:
256,192,42811,1,0,0:0:0:0:
475,192,42811,1,0,0:0:0:0:
109,192,42811,1,0,0:0:0:0:
329,192,43011,1,0,0:0:0:0:
182,192,43011,1,0,0:0:0:0:
402,192,43211,1,0,0:0:0:0:
36,192,43211,1,0,0:0:0:0:
256,192,43211,1,0,0:0:0:0:
109,192,43411,1,0,0:0:0:0:
182,192,43411,1,0,0:0:0:0:
256,192,43611,1,0,0:0:0:0:
402,192,43611,1,0,0:0:0:0:
475,192,43611,128,0,43911:0:0:0:0:
109,192,43711,1,0,0:0:0:0:
329,192,43711,128,0,43911:0:0:0:0:
182,192,43911,1,0,0:0:0:0:
36,192,43911,1,0,0:0:0:0:
329,192,44011,1,0,0:0:0:0:
475,192,44011,1,0,0:0:0:0:
109,192,44011,1,0,0:0:0:0:
256,192,44211,1,0,0:0:0:0:
182,192,44411,1,0,0:0:0:0:
36,192,44411,1,0,0:0:0:0:
402,192,44411,1,0,0:0:0:0:
329,192,44611,1,0,0:0:0:0:
182,192,44811,1,0,0:0:0:0:
475,192,44811,1,0,0:0:0:0:
256,192,45011,1,0,0:0:0:0:
109,192,45211,1,0,0:0:0:0:
402,192,45211,1,0,0:0:0:0:
475,192,45211,1,0,0:0:0:0:
256,192,45411,1,0,0:0:0:0:
109,192,45511,1,0,0:0:0:0:
36,192,45511,1,0,0:0:0:0:
329,192,45611,1,0,0:0:0:0:
475,192,45611,1,0,0:0:0:0:
182,192,45711,1,0,0:0:0:0:
109,192,45711,1,0,0:0:0:0:
36,192,45711,1,0,0:0:0:0:
402,192,45811,1,0,0:0:0:0:
182,192,46011,1,0,0:0:0:0:
36,192,46011,1,0,0:0:0:0:
329,192,46011,1,0,0:0:0:0:
402,192,46211,1,0,0:0:0:0:
109,192,46211,128,0,46611:0:0:0:0:
256,192,46411,1,0,0:0:0:0:
475,192,46411,1,0,0:0:0:0:
329,192,46611,1,0,0:0:0:0:
182,192,46611,1,0,0:0:0:0:
475,192,46811,128,0,47111:0:0:0:0:
256,192,46811,1,0,0:0:0:0:
402,192,46911,128,0,47111:0:0:0:0:
109,192,46911,1,0,0:0:0:0:
182,192,47111,1,0,0:0:0:0:
36,192,47111,1,0,0:0:0:0:
329,192,47211,1,0,0:0:0:0:
475,192,47211,1,0,0:0:0:0:
402,192,47211,1,0,0:0:0:0:
256,192,47411,1,0,0:0:0:0:
182,192,47611,1,0,0:0:0:0:
36,192,47611,1,0,0:0:0:0:
402,192,47611,1,0,0:0:0:0:
256,192,47811,1,0,0:0:0:0:
329,192,48011,1,0,0:0:0:0:
475,192,48011,1,0,0:0:0:0:
109,192,48011,1,0,0:0:0:0:
182,192,48211,1,0,0:0:0:0:
402,192,48211,1,0,0:0:0:0:
36,192,48411,128,0,48711:0:0:0:0:
256,192,48411,1,0,0:0:0:0:
109,192,48511,128,0,48711:0:0:0:0:
402,192,48511,1,0,0:0:0:0:
475,192,48711,1,0,0:0:0:0:
329,192,48711,1,0,0:0:0:0:
109,192,48811,1,0,0:0:0:0:
36,192,48811,1,0,0:0:0:0:
182,192,48811,1,0,0:0:0:0:
402,192,48911,1,0,0:0:0:0:
475,192,48911,1,0,0:0:0:0:
256,192,49011,1,0,0:0:0:0:
109,192,49011,1,0,0:0:0:0:
329,192,49211,1,0,0:0:0:0:
182,192,49211,1,0,0:0:0:0:
36,192,49211,1,0,0:0:0:0:
475,192,49411,1,0,0:0:0:0:
256,192,49411,128,0,49811:0:0:0:0:
402,192,49611,1,0,0:0:0:0:
109,192,49611,1,0,0:0:0:0:
329,192,49811,1,0,0:0:0:0:
182,192,49811,1,0,0:0:0:0:
109,192,50011,1,0,0:0:0:0:
36,192,50011,1,0,0:0:0:0:
402,192,50011,1,0,0:0:0:0:
182,192,50211,1,0,0:0:0:0:
475,192,50211,1,0,0:0:0:0:
256,192,50411,1,0,0:0:0:0:
36,192,50411,1,0,0:0:0:0:
109,192,50411,1,0,0:0:0:0:
182,192,50611,1,0,0:0:0:0:
329,192,50711,1,0,0:0:0:0:
475,192,50711,1,0,0:0:0:0:
182,192,50811,1,0,0:0:0:0:
109,192,50811,1,0,0:0:0:0:
36,192,50811,1,0,0:0:0:0:
256,192,51011,128,0,51611:0:0:0:0:
402,192,51011,1,0,0:0:0:0:
475,192,51011,1,0,0:0:0:0:
36,192,51011,1,0,0:0:0:0:
329,192,51411,1,0,0:0:0:0:
475,192,51411,1,0,0:0:0:0:
36,192,51611,1,0,0:0:0:0:
182,192,51611,1,0,0:0:0:0:
256,192,51811,1,0,0:0:0:0:
329,192,51811,1,0,0:0:0:0:
475,192,51811,1,0,0:0:0:0:
182,192,52011,1,0,0:0:0:0:
402,192,52011,1,0,0:0:0:0:
256,192,52011,1,0,0:0:0:0:
182,192,52211,1,0,0:0:0:0:
329,192,52211,1,0,0:0:0:0:
109,192,52211,1,0,0:0:0:0:
475,192,52411,1,0,0:0:0:0:
256,192,52411,1,0,0:0:0:0:
36,192,52411,1,0,0:0:0:0:
109,192,52411,1,0,0:0:0:0:
256,192,52611,1,0,0:0:0:0:
109,192,52611,1,0,0:0:0:0:
36,192,52611,1,0,0:0:0:0:
475,192,52611,1,0,0:0:0:0:
475,192,52811,1,0,0:0:0:0:
36,192,52811,128,0,53411:0:0:0:0:
182,192,52811,128,0,53011:0:0:0:0:
402,192,52811,1,0,0:0:0:0:
182,192,53211,128,0,53411:0:0:0:0:
402,192,53211,1,0,0:0:0:0:
475,192,53611,128,0,54211:0:0:0:0:
329,192,53611,128,0,53811:0:0:0:0:
109,192,53611,1,0,0:0:0:0:
329,192,54011,128,0,54211:0:0:0:0:
109,192,54011,1,0,0:0:0:0:
182,192,54411,1,0,0:0:0:0:
36,192,54411,1,0,0:0:0:0:
402,192,54411,1,0,0:0:0:0:
182,192,54611,1,0,0:0:0:0:
256,192,54811,1,0,0:0:0:0:
109,192,54811,1,0,0:0:0:0:
256,192,55011,1,0,0:0:0:0:
475,192,55211,1,0,0:0:0:0:
402,192,55211,128,0,55611:0:0:0:0:
182,192,55211,1,0,0:0:0:0:
182,192,55611,1,0,0:0:0:0:
256,192,55811,1,0,0:0:0:0:
329,192,56011,1,0,0:0:0:0:
475,192,56011,1,0,0:0:0:0:
109,192,56011,1,0,0:0:0:0:
329,192,56211,1,0,0:0:0:0:
256,192,56411,1,0,0:0:0:0:
402,192,56411,1,0,0:0:0:0:
256,192,56611,1,0,0:0:0:0:
109,192,56811,128,0,57211:0:0:0:0:
182,192,56811,1,0,0:0:0:0:
36,192,56811,1,0,0:0:0:0:
329,192,57211,1,0,0:0:0:0:
36,192,57211,1,0,0:0:0:0:
182,192,57411,1,0,0:0:0:0:
36,192,57611,1,0,0:0:0:0:
475,192,57611,1,0,0:0:0:0:
329,192,57611,128,0,58011:0:0:0:0:
256,192,58011,1,0,0:0:0:0:
109,192,58211,1,0,0:0:0:0:
329,192,58411,1,0,0:0:0:0:
475,192,58411,1,0,0:0:0:0:
182,192,58411,128,0,58811:0:0:0:0:
256,192,58811,1,0,0:0:0:0:
109,192,58811,1,0,0:0:0:0:
36,192,59211,1,0,0:0:0:0:
109,192,59211,1,0,0:0:0:0:
475,192,59211,128,0,59811:0:0:0:0:
329,192,59211,128,0,59411:0:0:0:0:
329,192,59611,128,0,59811:0:0:0:0:
109,192,59611,1,0,0:0:0:0:
36,192,60011,128,0,60611:0:0:0:0:
182,192,60011,128,0,60211:0:0:0:0:
402,192,60011,1,0,0:0:0:0:
182,192,60411,128,0,60611:0:0:0:0:
402,192,60411,1,0,0:0:0:0:
329,192,60811,1,0,0:0:0:0:
475,192,60811,1,0,0:0:0:0:
109,192,60811,1,0,0:0:0:0:
329,192,61011,1,0,0:0:0:0:
256,192,61211,1,0,0:0:0:0:
402,192,61211,1,0,0:0:0:0:
256,192,61411,1,0,0:0:0:0:
36,192,61611,1,0,0:0:0:0:
109,192,61611,128,0,62011:0:0:0:0:
329,192,61611,1,0,0:0:0:0:
329,192,62011,1,0,0:0:0:0:
256,192,62211,1,0,0:0:0:0:
182,192,62411,1,0,0:0:0:0:
36,192,62411,1,0,0:0:0:0:
402,192,62411,1,0,0:0:0:0:
182,192,62611,1,0,0:0:0:0:
256,192,62811,1,0,0:0:0:0:
109,192,62811,1,0,0:0:0:0:
256,192,63011,1,0,0:0:0:0:
402,192,63211,128,0,63611:0:0:0:0:
329,192,63211,1,0,0:0:0:0:
475,192,63211,1,0,0:0:0:0:
182,192,63611,1,0,0:0:0:0:
475,192,63611,1,0,0:0:0:0:
329,192,63811,1,0,0:0:0:0:
475,192,64011,1,0,0:0:0:0:
36,192,64011,1,0,0:0:0:0:
182,192,64011,128,0,64411:0:0:0:0:
256,192,64411,1,0,0:0:0:0:
402,192,64611,1,0,0:0:0:0:
182,192,64811,1,0,0:0:0:0:
36,192,64811,1,0,0:0:0:0:
329,192,64811,1,0,0:0:0:0:
109,192,65011,1,0,0:0:0:0:
475,192,65211,1,0,0:0:0:0:
329,192,65211,1,0,0:0:0:0:
36,192,65311,1,0,0:0:0:0:
182,192,65311,1,0,0:0:0:0:
256,192,65411,1,0,0:0:0:0:
402,192,65411,1,0,0:0:0:0:
329,192,65611,1,0,0:0:0:0:
475,192,65611,1,0,0:0:0:0:
182,192,65611,128,0,65811:0:0:0:0:
36,192,65611,128,0,65811:0:0:0:0:
256,192,65811,128,0,66011:0:0:0:0:
402,192,65811,1,0,0:0:0:0:
329,192,66011,128,0,66211:0:0:0:0:
475,192,66011,128,0,66211:0:0:0:0:
36,192,66011,1,0,0:0:0:0:
182,192,66211,128,0,66411:0:0:0:0:
109,192,66211,1,0,0:0:0:0:
475,192,66411,128,0,66611:0:0:0:0:
36,192,66411,128,0,66611:0:0:0:0:
329,192,66411,1,0,0:0:0:0:
256,192,66611,128,0,66811:0:0:0:0:
182,192,66611,1,0,0:0:0:0:
402,192,66811,128,0,67011:0:0:0:0:
109,192,66811,128,0,67011:0:0:0:0:
329,192,66811,1,0,0:0:0:0:
256,192,67011,128,0,67211:0:0:0:0:
182,192,67011,1,0,0:0:0:0:
109,192,67211,128,0,67611:0:0:0:0:
402,192,67211,128,0,67611:0:0:0:0:
475,192,67211,1,0,0:0:0:0:
329,192,67211,128,0,67411:0:0:0:0:
182,192,67411,128,0,67611:0:0:0:0:
36,192,67611,128,0,67811:0:0:0:0:
329,192,67611,128,0,68011:0:0:0:0:
475,192,67611,128,0,68011:0:0:0:0:
256,192,67811,128,0,68011:0:0:0:0:
402,192,68011,128,0,68411:0:0:0:0:
109,192,68011,128,0,68411:0:0:0:0:
182,192,68011,128,0,68211:0:0:0:0:
329,192,68211,128,0,68411:0:0:0:0:
182,192,68411,128,0,68811:0:0:0:0:
36,192,68411,128,0,68811:0:0:0:0:
475,192,68411,128,0,68611:0:0:0:0:
256,192,68611,128,0,68811:0:0:0:0:
402,192,68811,128,0,69211:0:0:0:0:
109,192,68811,128,0,69211:0:0:0:0:
475,192,68811,1,0,0:0:0:0:
329,192,68811,1,0,0:0:0:0:
329,192,69211,1,0,0:0:0:0:
182,192,69211,1,0,0:0:0:0:
182,192,69411,1,0,0:0:0:0:
329,192,69411,1,0,0:0:0:0:
475,192,69611,128,0,70011:0:0:0:0:
36,192,69611,128,0,70011:0:0:0:0:
109,192,69611,1,0,0:0:0:0:
402,192,69611,1,0,0:0:0:0:
402,192,69811,1,0,0:0:0:0:
109,192,69811,1,0,0:0:0:0:
329,192,70011,1,0,0:0:0:0:
182,192,70011,1,0,0:0:0:0:
256,192,70011,1,0,0:0:0:0:
256,192,70211,1,0,0:0:0:0:
109,192,70211,1,0,0:0:0:0:
402,192,70211,1,0,0:0:0:0:
182,192,70411,128,0,70911:0:0:0:0:
36,192,70411,128,0,71011:0:0:0:0:
329,192,70411,128,0,70811:0:0:0:0:
475,192,70411,128,0,70711:0:0:0:0:
475,192,70811,1,0,0:0:0:0:
329,192,70911,1,0,0:0:0:0:
182,192,71011,1,0,0:0:0:0:
36,192,71111,1,0,0:0:0:0:
475,192,71211,1,0,0:0:0:0:
402,192,71211,1,0,0:0:0:0:
329,192,71211,1,0,0:0:0:0:
109,192,71311,1,0,0:0:0:0:
256,192,71361,1,0,0:0:0:0:
402,192,71411,1,0,0:0:0:0:
182,192,71511,1,0,0:0:0:0:
36,192,71511,1,0,0:0:0:0:
329,192,71611,1,0,0:0:0:0:
475,192,71611,1,0,0:0:0:0:
329,192,71711,1,0,0:0:0:0:
475,192,71711,1,0,0:0:0:0:
36,192,71811,1,0,0:0:0:0:
182,192,71811,1,0,0:0:0:0:
256,192,71911,1,0,0:0:0:0:
402,192,72011,128,0,72411:0:0:0:0:
109,192,72011,1,0,0:0:0:0:
475,192,72011,1,0,0:0:0:0:
329,192,72011,1,0,0:0:0:0:
256,192,72211,128,0,72411:0:0:0:0:
182,192,72211,1,0,0:0:0:0:
36,192,72411,128,0,72811:0:0:0:0:
475,192,72411,1,0,0:0:0:0:
329,192,72411,1,0,0:0:0:0:
109,192,72611,1,0,0:0:0:0:
329,192,72611,128,0,72811:0:0:0:0:
475,192,72811,1,0,0:0:0:0:
182,192,72811,1,0,0:0:0:0:
402,192,72811,1,0,0:0:0:0:
475,192,72911,1,0,0:0:0:0:
402,192,72911,1,0,0:0:0:0:
109,192,73011,1,0,0:0:0:0:
256,192,73111,1,0,0:0:0:0:
329,192,73111,1,0,0:0:0:0:
475,192,73211,1,0,0:0:0:0:
36,192,73211,1,0,0:0:0:0:
182,192,73211,1,0,0:0:0:0:
402,192,73211,1,0,0:0:0:0:
256,192,73411,128,0,73811:0:0:0:0:
109,192,73411,128,0,73811:0:0:0:0:
36,192,73411,1,0,0:0:0:0:
329,192,73611,1,0,0:0:0:0:
475,192,73611,1,0,0:0:0:0:
402,192,73811,128,0,74011:0:0:0:0:
182,192,73811,1,0,0:0:0:0:
182,192,74011,128,0,74411:0:0:0:0:
36,192,74011,1,0,0:0:0:0:
329,192,74011,1,0,0:0:0:0:
329,192,74211,128,0,74411:0:0:0:0:
475,192,74211,1,0,0:0:0:0:
475,192,74411,1,0,0:0:0:0:
36,192,74411,1,0,0:0:0:0:
109,192,74411,1,0,0:0:0:0:
36,192,74511,1,0,0:0:0:0:
109,192,74511,1,0,0:0:0:0:
402,192,74611,1,0,0:0:0:0:
256,192,74711,1,0,0:0:0:0:
182,192,74711,1,0,0:0:0:0:
475,192,74811,1,0,0:0:0:0:
329,192,74811,1,0,0:0:0:0:
36,192,74811,1,0,0:0:0:0:
109,192,74811,1,0,0:0:0:0:
475,192,75011,128,0,75411:0:0:0:0:
402,192,75011,128,0,75411:0:0:0:0:
256,192,75011,1,0,0:0:0:0:
329,192,75211,1,0,0:0:0:0:
182,192,75211,1,0,0:0:0:0:
109,192,75411,1,0,0:0:0:0:
256,192,75411,128,0,75611:0:0:0:0:
475,192,75611,1,0,0:0:0:0:
36,192,75611,1,0,0:0:0:0:
402,192,75611,128,0,75811:0:0:0:0:
109,192,75811,1,0,0:0:0:0:
256,192,75811,1,0,0:0:0:0:
329,192,75911,1,0,0:0:0:0:
402,192,76011,1,0,0:0:0:0:
182,192,76011,128,0,76311:0:0:0:0:
36,192,76011,1,0,0:0:0:0:
256,192,76211,1,0,0:0:0:0:
402,192,76311,1,0,0:0:0:0:
475,192,76311,1,0,0:0:0:0:
182,192,76411,1,0,0:0:0:0:
109,192,76411,1,0,0:0:0:0:
36,192,76411,1,0,0:0:0:0:
329,192,76611,1,0,0:0:0:0:
475,192,76611,1,0,0:0:0:0:
182,192,76711,1,0,0:0:0:0:
402,192,76811,1,0,0:0:0:0:
36,192,76811,1,0,0:0:0:0:
256,192,76911,1,0,0:0:0:0:
329,192,77011,1,0,0:0:0:0:
109,192,77011,1,0,0:0:0:0:
182,192,77111,1,0,0:0:0:0:
256,192,77211,1,0,0:0:0:0:
475,192,77211,1,0,0:0:0:0:
36,192,77211,1,0,0:0:0:0:
402,192,77211,1,0,0:0:0:0:
475,192,77311,128,0,77611:0:0:0:0:
402,192,77311,128,0,77611:0:0:0:0:
36,192,77611,1,0,0:0:0:0:
329,192,77611,1,0,0:0:0:0:
109,192,77611,1,0,0:0:0:0:
182,192,77711,1,0,0:0:0:0:
329,192,77811,1,0,0:0:0:0:
109,192,77911,1,0,0:0:0:0:
36,192,77911,1,0,0:0:0:0:
475,192,78011,1,0,0:0:0:0:
402,192,78011,1,0,0:0:0:0:
256,192,78011,1,0,0:0:0:0:
329,192,78211,1,0,0:0:0:0:
182,192,78211,1,0,0:0:0:0:
109,192,78411,128,0,78811:0:0:0:0:
402,192,78411,1,0,0:0:0:0:
36,192,78411,1,0,0:0:0:0:
182,192,78411,1,0,0:0:0:0:
256,192,78611,128,0,78811:0:0:0:0:
329,192,78611,1,0,0:0:0:0:
475,192,78811,128,0,79211:0:0:0:0:
36,192,78811,1,0,0:0:0:0:
182,192,78811,1,0,0:0:0:0:
402,192,79011,1,0,0:0:0:0:
182,192,79011,128,0,79211:0:0:0:0:
36,192,79211,1,0,0:0:0:0:
329,192,79211,1,0,0:0:0:0:
109,192,79211,1,0,0:0:0:0:
36,192,79311,1,0,0:0:0:0:
109,192,79311,1,0,0:0:0:0:
402,192,79411,1,0,0:0:0:0:
256,192,79511,1,0,0:0:0:0:
182,192,79511,1,0,0:0:0:0:
36,192,79611,1,0,0:0:0:0:
475,192,79611,1,0,0:0:0:0:
329,192,79611,1,0,0:0:0:0:
109,192,79611,1,0,0:0:0:0:
256,192,79811,128,0,80211:0:0:0:0:
402,192,79811,128,0,80211:0:0:0:0:
475,192,79811,1,0,0:0:0:0:
182,192,80011,1,0,0:0:0:0:
36,192,80011,1,0,0:0:0:0:
109,192,80211,128,0,80411:0:0:0:0:
329,192,80211,1,0,0:0:0:0:
329,192,80411,128,0,80811:0:0:0:0:
475,192,80411,1,0,0:0:0:0:
182,192,80411,1,0,0:0:0:0:
182,192,80611,128,0,80811:0:0:0:0:
36,192,80611,1,0,0:0:0:0:
36,192,80811,1,0,0:0:0:0:
475,192,80811,1,0,0:0:0:0:
402,192,80811,1,0,0:0:0:0:
475,192,80911,1,0,0:0:0:0:
402,192,80911,1,0,0:0:0:0:
109,192,81011,1,0,0:0:0:0:
256,192,81111,1,0,0:0:0:0:
329,192,81111,1,0,0:0:0:0:
36,192,81211,1,0,0:0:0:0:
182,192,81211,1,0,0:0:0:0:
475,192,81211,1,0,0:0:0:0:
402,192,81211,1,0,0:0:0:0:
36,192,81411,128,0,81811:0:0:0:0:
109,192,81411,128,0,81811:0:0:0:0:
256,192,81411,1,0,0:0:0:0:
182,192,81611,1,0,0:0:0:0:
402,192,81611,1,0,0:0:0:0:
256,192,81811,128,0,82011:0:0:0:0:
329,192,81811,1,0,0:0:0:0:
36,192,82011,1,0,0:0:0:0:
475,192,82011,1,0,0:0:0:0:
109,192,82011,128,0,82211:0:0:0:0:
402,192,82211,1,0,0:0:0:0:
256,192,82211,1,0,0:0:0:0:
182,192,82311,1,0,0:0:0:0:
109,192,82411,1,0,0:0:0:0:
329,192,82411,128,0,82711:0:0:0:0:
475,192,82411,1,0,0:0:0:0:
256,192,82611,1,0,0:0:0:0:
109,192,82711,1,0,0:0:0:0:
36,192,82711,1,0,0:0:0:0:
329,192,82811,1,0,0:0:0:0:
402,192,82811,1,0,0:0:0:0:
475,192,82811,1,0,0:0:0:0:
182,192,83011,1,0,0:0:0:0:
36,192,83011,1,0,0:0:0:0:
329,192,83111,1,0,0:0:0:0:
475,192,83211,1,0,0:0:0:0:
256,192,83211,1,0,0:0:0:0:
36,192,83211,1,0,0:0:0:0:
182,192,83211,1,0,0:0:0:0:
402,192,83411,1,0,0:0:0:0:
109,192,83411,1,0,0:0:0:0:
329,192,83511,1,0,0:0:0:0:
256,192,83611,1,0,0:0:0:0:
36,192,83611,1,0,0:0:0:0:
475,192,83611,1,0,0:0:0:0:
109,192,83611,1,0,0:0:0:0:
329,192,83711,1,0,0:0:0:0:
182,192,83811,1,0,0:0:0:0:
475,192,83811,1,0,0:0:0:0:
256,192,83911,1,0,0:0:0:0:
36,192,83911,1,0,0:0:0:0:
329,192,84011,1,0,0:0:0:0:
182,192,84011,1,0,0:0:0:0:
475,192,84111,1,0,0:0:0:0:
402,192,84111,1,0,0:0:0:0:
109,192,84211,1,0,0:0:0:0:
36,192,84211,1,0,0:0:0:0:
182,192,84311,1,0,0:0:0:0:
329,192,84311,1,0,0:0:0:0:
402,192,84411,1,0,0:0:0:0:
475,192,84411,1,0,0:0:0:0:
256,192,84511,1,0,0:0:0:0:
109,192,84511,1,0,0:0:0:0:
329,192,84611,1,0,0:0:0:0:
36,192,84611,1,0,0:0:0:0:
182,192,84711,1,0,0:0:0:0:
475,192,84811,1,0,0:0:0:0:
256,192,84811,1,0,0:0:0:0:
109,192,84811,1,0,0:0:0:0:
402,192,84811,128,0,85011:0:0:0:0:
182,192,85011,128,0,85211:0:0:0:0:
329,192,85011,1,0,0:0:0:0:
402,192,85111,1,0,0:0:0:0:
109,192,85211,128,0,85411:0:0:0:0:
475,192,85211,1,0,0:0:0:0:
256,192,85211,1,0,0:0:0:0:
182,192,85411,1,0,0:0:0:0:
329,192,85411,128,0,85611:0:0:0:0:
109,192,85511,1,0,0:0:0:0:
36,192,85611,1,0,0:0:0:0:
475,192,85611,1,0,0:0:0:0:
402,192,85611,1,0,0:0:0:0:
402,192,85711,1,0,0:0:0:0:
475,192,85711,1,0,0:0:0:0:
109,192,85811,1,0,0:0:0:0:
256,192,85911,1,0,0:0:0:0:
182,192,85911,1,0,0:0:0:0:
36,192,86011,1,0,0:0:0:0:
329,192,86011,1,0,0:0:0:0:
475,192,86011,1,0,0:0:0:0:
109,192,86011,1,0,0:0:0:0:
109,192,86211,128,0,86611:0:0:0:0:
256,192,86211,128,0,86611:0:0:0:0:
402,192,86211,1,0,0:0:0:0:
329,192,86411,1,0,0:0:0:0:
475,192,86411,1,0,0:0:0:0:
475,192,86611,128,0,86811:0:0:0:0:
182,192,86611,1,0,0:0:0:0:
256,192,86711,1,0,0:0:0:0:
329,192,86811,1,0,0:0:0:0:
109,192,86811,128,0,87011:0:0:0:0:
36,192,86811,1,0,0:0:0:0:
182,192,87011,128,0,87211:0:0:0:0:
402,192,87011,1,0,0:0:0:0:
329,192,87111,1,0,0:0:0:0:
475,192,87211,1,0,0:0:0:0:
109,192,87211,1,0,0:0:0:0:
36,192,87211,1,0,0:0:0:0:
36,192,87311,1,0,0:0:0:0:
109,192,87311,1,0,0:0:0:0:
402,192,87411,1,0,0:0:0:0:
256,192,87511,1,0,0:0:0:0:
329,192,87511,1,0,0:0:0:0:
36,192,87611,1,0,0:0:0:0:
182,192,87611,1,0,0:0:0:0:
475,192,87611,1,0,0:0:0:0:
402,192,87611,1,0,0:0:0:0:
329,192,87811,128,0,88211:0:0:0:0:
475,192,87811,128,0,88211:0:0:0:0:
109,192,87811,1,0,0:0:0:0:
182,192,88011,1,0,0:0:0:0:
402,192,88011,1,0,0:0:0:0:
256,192,88211,1,0,0:0:0:0:
109,192,88211,128,0,88411:0:0:0:0:
329,192,88311,1,0,0:0:0:0:
36,192,88411,1,0,0:0:0:0:
402,192,88411,128,0,88611:0:0:0:0:
182,192,88411,128,0,88611:0:0:0:0:
256,192,88611,128,0,88811:0:0:0:0:
109,192,88811,128,0,89011:0:0:0:0:
475,192,88811,128,0,89011:0:0:0:0:
329,192,88811,1,0,0:0:0:0:
182,192,89011,1,0,0:0:0:0:
36,192,89011,1,0,0:0:0:0:
256,192,89111,1,0,0:0:0:0:
475,192,89211,1,0,0:0:0:0:
329,192,89211,1,0,0:0:0:0:
109,192,89211,1,0,0:0:0:0:
182,192,89411,128,0,89811:0:0:0:0:
329,192,89411,128,0,89811:0:0:0:0:
36,192,89611,1,0,0:0:0:0:
475,192,89611,1,0,0:0:0:0:
402,192,89611,1,0,0:0:0:0:
109,192,89611,1,0,0:0:0:0:
256,192,89811,1,0,0:0:0:0:
182,192,90011,1,0,0:0:0:0:
36,192,90011,1,0,0:0:0:0:
109,192,90011,1,0,0:0:0:0:
329,192,90111,1,0,0:0:0:0:
475,192,90111,1,0,0:0:0:0:
256,192,90211,1,0,0:0:0:0:
109,192,90211,1,0,0:0:0:0:
402,192,90311,1,0,0:0:0:0:
475,192,90311,1,0,0:0:0:0:
36,192,90411,1,0,0:0:0:0:
182,192,90411,1,0,0:0:0:0:
256,192,90511,1,0,0:0:0:0:
402,192,90511,1,0,0:0:0:0:
109,192,90611,1,0,0:0:0:0:
329,192,90611,1,0,0:0:0:0:
182,192,90711,1,0,0:0:0:0:
475,192,90711,1,0,0:0:0:0:
256,192,90811,1,0,0:0:0:0:
36,192,90811,1,0,0:0:0:0:
402,192,90811,1,0,0:0:0:0:
109,192,90911,1,0,0:0:0:0:
329,192,91011,1,0,0:0:0:0:
182,192,91011,1,0,0:0:0:0:
475,192,91011,1,0,0:0:0:0:
36,192,91211,1,0,0:0:0:0:
109,192,91211,1,0,0:0:0:0:
402,192,91211,1,0,0:0:0:0:
475,192,91211,1,0,0:0:0:0:
256,192,91311,1,0,0:0:0:0:
182,192,91411,1,0,0:0:0:0:
329,192,91411,1,0,0:0:0:0:
402,192,91511,1,0,0:0:0:0:
182,192,91611,1,0,0:0:0:0:
36,192,91611,1,0,0:0:0:0:
475,192,91611,1,0,0:0:0:0:
329,192,91711,1,0,0:0:0:0:
182,192,91811,1,0,0:0:0:0:
402,192,91811,1,0,0:0:0:0:
256,192,91911,1,0,0:0:0:0:
329,192,92011,1,0,0:0:0:0:
109,192,92011,1,0,0:0:0:0:
475,192,92011,1,0,0:0:0:0:
182,192,92111,1,0,0:0:0:0:
402,192,92211,1,0,0:0:0:0:
36,192,92311,1,0,0:0:0:0:
182,192,92311,1,0,0:0:0:0:
256,192,92411,1,0,0:0:0:0:
475,192,92411,1,0,0:0:0:0:
329,192,92411,1,0,0:0:0:0:
109,192,92511,1,0,0:0:0:0:
256,192,92611,1,0,0:0:0:0:
402,192,92611,1,0,0:0:0:0:
182,192,92711,1,0,0:0:0:0:
109,192,92811,1,0,0:0:0:0:
329,192,92811,1,0,0:0:0:0:
475,192,92811,1,0,0:0:0:0:
256,192,92911,1,0,0:0:0:0:
182,192,93011,1,0,0:0:0:0:
36,192,93011,1,0,0:0:0:0:
329,192,93111,1,0,0:0:0:0:
475,192,93211,1,0,0:0:0:0:
109,192,93211,1,0,0:0:0:0:
256,192,93211,1,0,0:0:0:0:
402,192,93311,1,0,0:0:0:0:
329,192,93411,1,0,0:0:0:0:
182,192,93411,1,0,0:0:0:0:
402,192,93511,1,0,0:0:0:0:
475,192,93611,1,0,0:0:0:0:
256,192,93611,1,0,0:0:0:0:
36,192,93611,1,0,0:0:0:0:
182,192,93711,1,0,0:0:0:0:
109,192,93811,128,0,93911:0:0:0:0:
329,192,93811,128,0,93911:0:0:0:0:
182,192,94011,128,0,94111:0:0:0:0:
402,192,94011,128,0,94111:0:0:0:0:
36,192,94011,1,0,0:0:0:0:
256,192,94211,128,0,94311:0:0:0:0:
475,192,94211,128,0,94311:0:0:0:0:
329,192,94411,1,0,0:0:0:0:
182,192,94411,1,0,0:0:0:0:
36,192,94411,128,0,95411:0:0:0:0:
109,192,94411,128,0,95211:0:0:0:0:
475,192,94611,1,0,0:0:0:0:
256,192,94611,1,0,0:0:0:0:
402,192,94711,1,0,0:0:0:0:
182,192,94811,1,0,0:0:0:0:
475,192,94811,1,0,0:0:0:0:
256,192,94911,1,0,0:0:0:0:
402,192,95011,1,0,0:0:0:0:
329,192,95111,1,0,0:0:0:0:
182,192,95211,1,0,0:0:0:0:
402,192,95211,1,0,0:0:0:0:
256,192,95311,1,0,0:0:0:0:
109,192,95411,1,0,0:0:0:0:
329,192,95411,1,0,0:0:0:0:
182,192,95511,1,0,0:0:0:0:
36,192,95611,1,0,0:0:0:0:
329,192,95611,1,0,0:0:0:0:
475,192,95611,1,0,0:0:0:0:
109,192,95711,1,0,0:0:0:0:
256,192,95811,1,0,0:0:0:0:
182,192,95811,128,0,96211:0:0:0:0:
402,192,95811,128,0,96211:0:0:0:0:
475,192,95811,128,0,96211:0:0:0:0:
256,192,96211,1,0,0:0:0:0:
109,192,96211,1,0,0:0:0:0:
36,192,96211,1,0,0:0:0:0:
182,192,96411,1,0,0:0:0:0:
329,192,96411,1,0,0:0:0:0:
475,192,96411,1,0,0:0:0:0:
109,192,96611,128,0,97011:0:0:0:0:
36,192,96611,128,0,97011:0:0:0:0:
329,192,96611,128,0,97011:0:0:0:0:
256,192,96611,1,0,0:0:0:0:
182,192,96811,1,0,0:0:0:0:
256,192,96911,1,0,0:0:0:0:
402,192,97011,1,0,0:0:0:0:
475,192,97011,1,0,0:0:0:0:
256,192,97111,1,0,0:0:0:0:
109,192,97211,1,0,0:0:0:0:
36,192,97211,1,0,0:0:0:0:
402,192,97344,1,0,0:0:0:0:
475,192,97344,1,0,0:0:0:0:
182,192,97344,1,0,0:0:0:0:
329,192,97477,1,0,0:0:0:0:
109,192,97477,1,0,0:0:0:0:
36,192,97611,128,0,97811:0:0:0:0:
182,192,97611,128,0,97811:0:0:0:0:
402,192,97611,1,0,0:0:0:0:
475,192,97611,1,0,0:0:0:0:
256,192,97811,128,0,98011:0:0:0:0:
109,192,98011,128,0,98211:0:0:0:0:
402,192,98011,128,0,98211:0:0:0:0:
475,192,98211,128,0,98611:0:0:0:0:
36,192,98211,128,0,98611:0:0:0:0:
256,192,98211,128,0,98611:0:0:0:0:
329,192,98211,1,0,0:0:0:0:
402,192,98611,1,0,0:0:0:0:
109,192,98611,1,0,0:0:0:0:
329,192,98711,1,0,0:0:0:0:
182,192,98711,1,0,0:0:0:0:
36,192,98811,128,0,100011:0:0:0:0:
109,192,98811,1,0,0:0:0:0:
256,192,98811,128,0,99611:0:0:0:0:
475,192,98811,128,0,100011:0:0:0:0:
402,192,98811,1,0,0:0:0:0:
402,192,99411,1,0,0:0:0:0:
109,192,99411,1,0,0:0:0:0:
182,192,99611,1,0,0:0:0:0:
329,192,99611,1,0,0:0:0:0:
109,192,99811,1,0,0:0:0:0:
402,192,99811,1,0,0:0:0:0:
182,192,99911,1,0,0:0:0:0:
329,192,100011,128,0,100111:0:0:0:0:
256,192,100011,1,0,0:0:0:0:
475,192,100111,128,0,100211:0:0:0:0:
256,192,100211,128,0,100311:0:0:0:0:
402,192,100311,128,0,100411:0:0:0:0:
36,192,100311,1,0,0:0:0:0:
109,192,100311,1,0,0:0:0:0:
182,192,100411,128,0,100511:0:0:0:0:
329,192,100511,128,0,100611:0:0:0:0:
109,192,100611,128,0,100711:0:0:0:0:
475,192,100611,1,0,0:0:0:0:
402,192,100611,1,0,0:0:0:0:
256,192,100711,128,0,100811:0:0:0:0:
36,192,100811,128,0,102011:0:0:0:0:
182,192,100811,128,0,102011:0:0:0:0:
329,192,100811,128,0,102011:0:0:0:0:
475,192,100811,128,0,102011:0:0:0:0:
256,192,102211,1,0,0:0:0:0:
475,192,102411,1,0,0:0:0:0:
329,192,102411,1,0,0:0:0:0:
182,192,102411,1,0,0:0:0:0:
36,192,102411,1,0,0:0:0:0:
402,192,102411,1,0,0:0:0:0:
182,192,102611,1,0,0:0:0:0:
109,192,102611,1,0,0:0:0:0:
36,192,102611,1,0,0:0:0:0:
329,192,102611,1,0,0:0:0:0:
475,192,102611,1,0,0:0:0:0:
256,192,102811,1,0,0:0:0:0:
329,192,103011,1,0,0:0:0:0:
182,192,103061,1,0,0:0:0:0:
329,192,103111,1,0,0:0:0:0:
402,192,103311,1,0,0:0:0:0:
475,192,103311,1,0,0:0:0:0:
36,192,103411,1,0,0:0:0:0:
182,192,103411,1,0,0:0:0:0:
329,192,103511,1,0,0:0:0:0:
109,192,103611,1,0,0:0:0:0:
402,192,103611,1,0,0:0:0:0:
256,192,103611,1,0,0:0:0:0:
475,192,103811,128,0,106811:0:0:0:0:
329,192,103811,1,0,0:0:0:0:
182,192,103811,128,0,104211:0:0:0:0:
36,192,103811,1,0,0:0:0:0:
36,192,104211,1,0,0:0:0:0:
329,192,104211,1,0,0:0:0:0:
182,192,104311,1,0,0:0:0:0:
36,192,104411,1,0,0:0:0:0:
329,192,104411,1,0,0:0:0:0:
402,192,104411,1,0,0:0:0:0:
256,192,104511,1,0,0:0:0:0:
109,192,104611,1,0,0:0:0:0:
402,192,104611,1,0,0:0:0:0:
182,192,104711,1,0,0:0:0:0:
36,192,104811,1,0,0:0:0:0:
329,192,104811,1,0,0:0:0:0:
182,192,104911,1,0,0:0:0:0:
109,192,105011,1,0,0:0:0:0:
402,192,105011,1,0,0:0:0:0:
329,192,105111,1,0,0:0:0:0:
36,192,105211,1,0,0:0:0:0:
182,192,105211,1,0,0:0:0:0:
256,192,105211,1,0,0:0:0:0:
329,192,105411,128,0,105811:0:0:0:0:
109,192,105411,1,0,0:0:0:0:
402,192,105411,1,0,0:0:0:0:
182,192,105611,1,0,0:0:0:0:
402,192,105811,1,0,0:0:0:0:
109,192,105811,1,0,0:0:0:0:
256,192,105911,1,0,0:0:0:0:
402,192,106011,1,0,0:0:0:0:
36,192,106011,1,0,0:0:0:0:
182,192,106011,1,0,0:0:0:0:
329,192,106111,1,0,0:0:0:0:
109,192,106211,1,0,0:0:0:0:
329,192,106311,1,0,0:0:0:0:
182,192,106411,1,0,0:0:0:0:
36,192,106411,1,0,0:0:0:0:
256,192,106511,1,0,0:0:0:0:
109,192,106611,1,0,0:0:0:0:
402,192,106611,1,0,0:0:0:0:
182,192,106711,1,0,0:0:0:0:
36,192,106811,1,0,0:0:0:0:
256,192,106811,1,0,0:0:0:0:
329,192,106811,1,0,0:0:0:0:
109,192,107011,128,0,107411:0:0:0:0:
402,192,107011,1,0,0:0:0:0:
182,192,107011,1,0,0:0:0:0:
329,192,107211,1,0,0:0:0:0:
182,192,107411,1,0,0:0:0:0:
402,192,107411,1,0,0:0:0:0:
256,192,107511,1,0,0:0:0:0:
109,192,107611,1,0,0:0:0:0:
36,192,107611,1,0,0:0:0:0:
329,192,107611,1,0,0:0:0:0:
182,192,107711,1,0,0:0:0:0:
329,192,107811,1,0,0:0:0:0:
475,192,107811,1,0,0:0:0:0:
256,192,107911,1,0,0:0:0:0:
182,192,108011,1,0,0:0:0:0:
475,192,108011,1,0,0:0:0:0:
402,192,108011,1,0,0:0:0:0:
36,192,108111,1,0,0:0:0:0:
329,192,108211,1,0,0:0:0:0:
109,192,108211,1,0,0:0:0:0:
256,192,108311,1,0,0:0:0:0:
182,192,108411,1,0,0:0:0:0:
475,192,108411,1,0,0:0:0:0:
329,192,108411,1,0,0:0:0:0:
402,192,108611,128,0,109011:0:0:0:0:
36,192,108611,1,0,0:0:0:0:
256,192,108611,1,0,0:0:0:0:
109,192,108811,1,0,0:0:0:0:
475,192,109011,1,0,0:0:0:0:
256,192,109011,1,0,0:0:0:0:
329,192,109111,1,0,0:0:0:0:
475,192,109211,1,0,0:0:0:0:
36,192,109211,1,0,0:0:0:0:
182,192,109211,1,0,0:0:0:0:
256,192,109311,1,0,0:0:0:0:
329,192,109411,128,0,109511:0:0:0:0:
402,192,109411,1,0,0:0:0:0:
475,192,109511,128,0,109611:0:0:0:0:
256,192,109611,128,0,109711:0:0:0:0:
109,192,109611,1,0,0:0:0:0:
329,192,109611,1,0,0:0:0:0:
402,192,109711,128,0,109811:0:0:0:0:
182,192,109811,128,0,109911:0:0:0:0:
256,192,109811,1,0,0:0:0:0:
329,192,109911,128,0,110011:0:0:0:0:
256,192,110011,1,0,0:0:0:0:
36,192,110011,1,0,0:0:0:0:
475,192,110011,1,0,0:0:0:0:
329,192,110111,1,0,0:0:0:0:
109,192,110211,128,0,110611:0:0:0:0:
182,192,110211,1,0,0:0:0:0:
402,192,110211,1,0,0:0:0:0:
36,192,110211,1,0,0:0:0:0:
256,192,110411,1,0,0:0:0:0:
402,192,110611,1,0,0:0:0:0:
182,192,110611,1,0,0:0:0:0:
256,192,110711,1,0,0:0:0:0:
329,192,110811,1,0,0:0:0:0:
36,192,110811,1,0,0:0:0:0:
475,192,110811,1,0,0:0:0:0:
182,192,110911,1,0,0:0:0:0:
109,192,111011,1,0,0:0:0:0:
402,192,111011,1,0,0:0:0:0:
256,192,111111,1,0,0:0:0:0:
329,192,111211,1,0,0:0:0:0:
475,192,111211,1,0,0:0:0:0:
109,192,111211,1,0,0:0:0:0:
182,192,111311,1,0,0:0:0:0:
402,192,111411,1,0,0:0:0:0:
36,192,111411,1,0,0:0:0:0:
256,192,111511,1,0,0:0:0:0:
329,192,111611,1,0,0:0:0:0:
475,192,111611,1,0,0:0:0:0:
182,192,111611,1,0,0:0:0:0:
402,192,111811,128,0,112211:0:0:0:0:
329,192,111811,1,0,0:0:0:0:
109,192,111811,1,0,0:0:0:0:
256,192,112011,1,0,0:0:0:0:
109,192,112211,1,0,0:0:0:0:
329,192,112211,1,0,0:0:0:0:
256,192,112311,1,0,0:0:0:0:
182,192,112411,1,0,0:0:0:0:
475,192,112411,1,0,0:0:0:0:
36,192,112411,1,0,0:0:0:0:
329,192,112511,1,0,0:0:0:0:
402,192,112611,1,0,0:0:0:0:
109,192,112611,1,0,0:0:0:0:
256,192,112711,1,0,0:0:0:0:
182,192,112811,1,0,0:0:0:0:
36,192,112811,1,0,0:0:0:0:
475,192,112811,1,0,0:0:0:0:
329,192,112911,1,0,0:0:0:0:
109,192,113011,1,0,0:0:0:0:
475,192,113011,1,0,0:0:0:0:
256,192,113111,1,0,0:0:0:0:
182,192,113211,1,0,0:0:0:0:
36,192,113211,1,0,0:0:0:0:
329,192,113211,1,0,0:0:0:0:
36,192,113411,128,0,113811:0:0:0:0:
402,192,113411,1,0,0:0:0:0:
475,192,113411,1,0,0:0:0:0:
256,192,113611,1,0,0:0:0:0:
329,192,113811,1,0,0:0:0:0:
475,192,113811,1,0,0:0:0:0:
256,192,113911,1,0,0:0:0:0:
109,192,114011,1,0,0:0:0:0:
402,192,114011,1,0,0:0:0:0:
36,192,114011,1,0,0:0:0:0:
182,192,114111,1,0,0:0:0:0:
329,192,114211,1,0,0:0:0:0:
475,192,114211,1,0,0:0:0:0:
256,192,114311,1,0,0:0:0:0:
402,192,114411,1,0,0:0:0:0:
36,192,114411,1,0,0:0:0:0:
182,192,114411,1,0,0:0:0:0:
256,192,114511,1,0,0:0:0:0:
329,192,114611,1,0,0:0:0:0:
475,192,114611,1,0,0:0:0:0:
182,192,114711,1,0,0:0:0:0:
109,192,114811,1,0,0:0:0:0:
402,192,114811,1,0,0:0:0:0:
36,192,114811,1,0,0:0:0:0:
256,192,115011,128,0,115411:0:0:0:0:
182,192,115011,1,0,0:0:0:0:
402,192,115011,1,0,0:0:0:0:
329,192,115211,1,0,0:0:0:0:
36,192,115211,1,0,0:0:0:0:
475,192,115211,1,0,0:0:0:0:
109,192,115211,1,0,0:0:0:0:
182,192,115311,1,0,0:0:0:0:
475,192,115411,1,0,0:0:0:0:
329,192,115411,1,0,0:0:0:0:
256,192,115511,1,0,0:0:0:0:
182,192,115611,1,0,0:0:0:0:
36,192,115611,1,0,0:0:0:0:
402,192,115611,1,0,0:0:0:0:
329,192,115711,1,0,0:0:0:0:
109,192,115711,1,0,0:0:0:0:
256,192,115811,1,0,0:0:0:0:
475,192,115811,1,0,0:0:0:0:
182,192,115911,1,0,0:0:0:0:
402,192,115911,1,0,0:0:0:0:
329,192,116011,1,0,0:0:0:0:
109,192,116011,1,0,0:0:0:0:
182,192,116111,1,0,0:0:0:0:
36,192,116111,1,0,0:0:0:0:
329,192,116211,1,0,0:0:0:0:
475,192,116211,1,0,0:0:0:0:
256,192,116311,1,0,0:0:0:0:
109,192,116311,1,0,0:0:0:0:
402,192,116411,1,0,0:0:0:0:
475,192,116411,1,0,0:0:0:0:
329,192,116511,1,0,0:0:0:0:
182,192,116511,1,0,0:0:0:0:
402,192,116611,1,0,0:0:0:0:
475,192,116611,1,0,0:0:0:0:
256,192,116611,128,0,117011:0:0:0:0:
36,192,116611,128,0,117011:0:0:0:0:
182,192,117011,1,0,0:0:0:0:
402,192,117011,1,0,0:0:0:0:
256,192,117111,1,0,0:0:0:0:
329,192,117211,128,0,117411:0:0:0:0:
109,192,117211,1,0,0:0:0:0:
475,192,117211,1,0,0:0:0:0:
182,192,117411,128,0,117611:0:0:0:0:
402,192,117411,1,0,0:0:0:0:
329,192,117511,1,0,0:0:0:0:
256,192,117611,1,0,0:0:0:0:
36,192,117611,1,0,0:0:0:0:
475,192,117611,128,0,117811:0:0:0:0:
329,192,117811,128,0,118011:0:0:0:0:
109,192,117811,1,0,0:0:0:0:
182,192,117911,1,0,0:0:0:0:
36,192,118011,1,0,0:0:0:0:
256,192,118011,1,0,0:0:0:0:
475,192,118011,1,0,0:0:0:0:
475,192,118211,128,0,118611:0:0:0:0:
329,192,118211,1,0,0:0:0:0:
36,192,118211,1,0,0:0:0:0:
182,192,118411,1,0,0:0:0:0:
402,192,118411,1,0,0:0:0:0:
329,192,118611,1,0,0:0:0:0:
109,192,118611,1,0,0:0:0:0:
256,192,118711,1,0,0:0:0:0:
182,192,118811,128,0,119011:0:0:0:0:
402,192,118811,1,0,0:0:0:0:
36,192,118811,1,0,0:0:0:0:
329,192,119011,128,0,119211:0:0:0:0:
109,192,119011,1,0,0:0:0:0:
182,192,119111,1,0,0:0:0:0:
256,192,119211,1,0,0:0:0:0:
475,192,119211,1,0,0:0:0:0:
36,192,119211,128,0,119411:0:0:0:0:
182,192,119411,128,0,119611:0:0:0:0:
402,192,119411,1,0,0:0:0:0:
329,192,119511,1,0,0:0:0:0:
475,192,119611,1,0,0:0:0:0:
256,192,119611,1,0,0:0:0:0:
36,192,119611,1,0,0:0:0:0:
182,192,119811,1,0,0:0:0:0:
475,192,119811,1,0,0:0:0:0:
36,192,119811,128,0,120211:0:0:0:0:
329,192,120011,1,0,0:0:0:0:
256,192,120011,1,0,0:0:0:0:
182,192,120211,1,0,0:0:0:0:
402,192,120211,1,0,0:0:0:0:
256,192,120311,1,0,0:0:0:0:
109,192,120411,128,0,120611:0:0:0:0:
329,192,120411,1,0,0:0:0:0:
475,192,120411,1,0,0:0:0:0:
182,192,120611,128,0,120811:0:0:0:0:
402,192,120611,1,0,0:0:0:0:
329,192,120711,1,0,0:0:0:0:
36,192,120811,1,0,0:0:0:0:
475,192,120811,128,0,121011:0:0:0:0:
256,192,120811,1,0,0:0:0:0:
329,192,121011,128,0,121211:0:0:0:0:
109,192,121011,1,0,0:0:0:0:
182,192,121111,1,0,0:0:0:0:
36,192,121211,1,0,0:0:0:0:
475,192,121211,1,0,0:0:0:0:
256,192,121211,1,0,0:0:0:0:
475,192,121411,128,0,121811:0:0:0:0:
36,192,121411,1,0,0:0:0:0:
182,192,121411,1,0,0:0:0:0:
329,192,121611,1,0,0:0:0:0:
109,192,121611,1,0,0:0:0:0:
182,192,121811,1,0,0:0:0:0:
402,192,121811,1,0,0:0:0:0:
256,192,121911,1,0,0:0:0:0:
329,192,122011,1,0,0:0:0:0:
109,192,122011,1,0,0:0:0:0:
475,192,122011,1,0,0:0:0:0:
182,192,122111,1,0,0:0:0:0:
402,192,122211,1,0,0:0:0:0:
256,192,122211,128,0,122311:0:0:0:0:
109,192,122311,128,0,122411:0:0:0:0:
329,192,122411,128,0,122511:0:0:0:0:
475,192,122411,1,0,0:0:0:0:
36,192,122411,1,0,0:0:0:0:
182,192,122511,128,0,122611:0:0:0:0:
402,192,122611,128,0,122711:0:0:0:0:
109,192,122611,1,0,0:0:0:0:
256,192,122711,128,0,122811:0:0:0:0:
182,192,122811,1,0,0:0:0:0:
329,192,122811,1,0,0:0:0:0:
475,192,122811,1,0,0:0:0:0:
256,192,122911,1,0,0:0:0:0:
36,192,123011,1,0,0:0:0:0:
329,192,123011,1,0,0:0:0:0:
475,192,123011,1,0,0:0:0:0:
109,192,123011,128,0,123411:0:0:0:0:
329,192,123311,1,0,0:0:0:0:
182,192,123411,1,0,0:0:0:0:
402,192,123411,1,0,0:0:0:0:
475,192,123411,1,0,0:0:0:0:
256,192,123511,1,0,0:0:0:0:
329,192,123611,128,0,123811:0:0:0:0:
109,192,123611,1,0,0:0:0:0:
475,192,123611,1,0,0:0:0:0:
475,192,123811,128,0,124011:0:0:0:0:
36,192,123811,1,0,0:0:0:0:
109,192,123911,1,0,0:0:0:0:
182,192,124011,128,0,124211:0:0:0:0:
256,192,124011,1,0,0:0:0:0:
402,192,124011,1,0,0:0:0:0:
36,192,124211,128,0,124411:0:0:0:0:
329,192,124211,1,0,0:0:0:0:
256,192,124311,1,0,0:0:0:0:
329,192,124411,1,0,0:0:0:0:
475,192,124411,1,0,0:0:0:0:
109,192,124411,1,0,0:0:0:0:
475,192,124611,1,0,0:0:0:0:
109,192,124611,1,0,0:0:0:0:
402,192,124611,128,0,125011:0:0:0:0:
256,192,124811,1,0,0:0:0:0:
182,192,124811,1,0,0:0:0:0:
329,192,125011,1,0,0:0:0:0:
109,192,125011,1,0,0:0:0:0:
256,192,125111,1,0,0:0:0:0:
182,192,125211,128,0,125411:0:0:0:0:
402,192,125211,1,0,0:0:0:0:
36,192,125211,1,0,0:0:0:0:
36,192,125411,128,0,125611:0:0:0:0:
475,192,125411,1,0,0:0:0:0:
402,192,125511,1,0,0:0:0:0:
329,192,125611,128,0,125811:0:0:0:0:
256,192,125611,1,0,0:0:0:0:
109,192,125611,1,0,0:0:0:0:
475,192,125811,128,0,126011:0:0:0:0:
182,192,125811,1,0,0:0:0:0:
256,192,125911,1,0,0:0:0:0:
329,192,126011,1,0,0:0:0:0:
36,192,126011,1,0,0:0:0:0:
402,192,126011,1,0,0:0:0:0:
109,192,126211,128,0,126611:0:0:0:0:
36,192,126211,1,0,0:0:0:0:
402,192,126211,1,0,0:0:0:0:
256,192,126411,1,0,0:0:0:0:
329,192,126411,1,0,0:0:0:0:
475,192,126611,1,0,0:0:0:0:
402,192,126611,1,0,0:0:0:0:
182,192,126611,1,0,0:0:0:0:
256,192,126711,1,0,0:0:0:0:
475,192,126811,1,0,0:0:0:0:
109,192,126811,1,0,0:0:0:0:
329,192,126811,128,0,127011:0:0:0:0:
36,192,127011,1,0,0:0:0:0:
475,192,127011,128,0,127211:0:0:0:0:
109,192,127111,1,0,0:0:0:0:
402,192,127211,1,0,0:0:0:0:
256,192,127211,1,0,0:0:0:0:
182,192,127211,128,0,127411:0:0:0:0:
329,192,127411,1,0,0:0:0:0:
36,192,127411,128,0,127611:0:0:0:0:
256,192,127511,1,0,0:0:0:0:
109,192,127611,1,0,0:0:0:0:
475,192,127611,1,0,0:0:0:0:
182,192,127611,1,0,0:0:0:0:
182,192,127811,128,0,128211:0:0:0:0:
36,192,127811,128,0,128311:0:0:0:0:
402,192,127811,1,0,0:0:0:0:
475,192,127811,1,0,0:0:0:0:
329,192,128111,1,0,0:0:0:0:
402,192,128211,1,0,0:0:0:0:
475,192,128211,1,0,0:0:0:0:
256,192,128311,1,0,0:0:0:0:
329,192,128411,1,0,0:0:0:0:
182,192,128411,1,0,0:0:0:0:
109,192,128511,1,0,0:0:0:0:
36,192,128511,1,0,0:0:0:0:
402,192,128611,1,0,0:0:0:0:
475,192,128611,1,0,0:0:0:0:
109,192,128711,1,0,0:0:0:0:
36,192,128711,1,0,0:0:0:0:
256,192,128811,1,0,0:0:0:0:
402,192,128811,1,0,0:0:0:0:
36,192,128911,1,0,0:0:0:0:
182,192,128911,1,0,0:0:0:0:
329,192,129011,1,0,0:0:0:0:
475,192,129011,1,0,0:0:0:0:
256,192,129111,1,0,0:0:0:0:
109,192,129111,1,0,0:0:0:0:
402,192,129211,1,0,0:0:0:0:
36,192,129211,1,0,0:0:0:0:
182,192,129311,1,0,0:0:0:0:
36,192,129411,128,0,136011:0:0:0:0:
329,192,129411,1,0,0:0:0:0:
109,192,129411,128,0,136011:0:0:0:0:
475,192,129411,128,0,136011:0:0:0:0:
402,192,129411,128,0,136011:0:0:0:0:
256,192,135811,128,0,136011:0:0:0:0:
