osu file format v14

[General]
AudioFilename: audio.mp3
AudioLeadIn: 0
PreviewTime: 56430
Countdown: 0
SampleSet: Soft
StackLeniency: 0.7
Mode: 3
LetterboxInBreaks: 0
SpecialStyle: 0
WidescreenStoryboard: 1

[Editor]
DistanceSpacing: 0.8
BeatDivisor: 3
GridSize: 4
TimelineZoom: 1.3

[Metadata]
Title:Jishou Mushoku
TitleUnicode:自傷無色
Artist:25-ji, Nightcord de. x Hatsune Miku
ArtistUnicode:25時、ナイトコードで。 × 初音ミク
Creator:Nicknem_
Version:Hard
Source:プロジェクトセカイ カラフルステージ! feat. 初音ミク
Tags:project sekai hatsune miku miku: colorful stage! jpop j-pop pop japanese brmm-10495 Jishoumushoku Yoisaki Kanade 宵崎 奏 Asahina Mafuyu 朝比奈 まふゆ Shinonome Ena 東雲 絵名 Akiyama Mizuki 暁山 瑞希 vocaloid video game version ver プロセカ proseka Tanabe Rui 田辺 留依 Kusunoki Tomori 楠木 ともり Minori Suzuki 鈴木 みのり Satou Hinata 佐藤 日向 Fujita Saki 藤田 咲
BeatmapID:3678195
BeatmapSetID:1794551

[Difficulty]
HPDrainRate:8
CircleSize:4
OverallDifficulty:8
ApproachRate:5
SliderMultiplier:1.4
SliderTickRate:1

[Events]
//Background and Video events
0,0,"hard.jpg",0,0
//Break Periods
//Storyboard Layer 0 (Background)
//Storyboard Layer 1 (Fail)
//Storyboard Layer 2 (Pass)
//Storyboard Layer 3 (Foreground)
//Storyboard Layer 4 (Overlay)
//Storyboard Sound Samples

[TimingPoints]
430,500,4,2,1,60,1,0
56430,-100,4,2,1,60,0,1
88430,-100,4,2,1,60,0,0

[HitObjects]
64,192,430,5,0,0:0:0:0:
448,192,430,128,0,930:0:0:0:0:
192,192,1096,1,0,0:0:0:0:
320,192,1263,1,0,0:0:0:0:
64,192,1430,128,0,1930:0:0:0:0:
192,192,1930,1,0,0:0:0:0:
448,192,1930,128,0,2430:0:0:0:0:
64,192,2430,1,0,0:0:0:0:
192,192,2430,128,0,2930:0:0:0:0:
320,192,2930,128,0,3430:0:0:0:0:
448,192,2930,1,0,0:0:0:0:
192,192,3430,1,0,0:0:0:0:
448,192,3430,128,0,3930:0:0:0:0:
64,192,3930,128,0,4263:0:0:0:0:
320,192,3930,1,0,0:0:0:0:
192,192,4263,1,0,0:0:0:0:
64,192,4430,128,0,4930:0:0:0:0:
448,192,4430,1,0,0:0:0:0:
320,192,5263,1,0,0:0:0:0:
192,192,5430,128,0,5930:0:0:0:0:
448,192,5430,1,0,0:0:0:0:
448,192,6096,1,0,0:0:0:0:
64,192,6263,1,0,0:0:0:0:
192,192,6430,1,0,0:0:0:0:
320,192,6430,128,0,6930:0:0:0:0:
192,192,7096,1,0,0:0:0:0:
320,192,7263,1,0,0:0:0:0:
448,192,7763,1,0,0:0:0:0:
64,192,7846,1,0,0:0:0:0:
448,192,7930,1,0,0:0:0:0:
192,192,8096,1,0,0:0:0:0:
192,192,8263,1,0,0:0:0:0:
64,192,8430,128,2,8930:0:0:0:0:
320,192,8430,128,4,8763:0:0:0:0:
448,192,8430,1,0,0:0:0:0:
320,192,8930,1,0,0:0:0:0:
448,192,8930,128,0,9430:0:0:0:0:
64,192,9430,128,8,9930:0:0:0:0:
192,192,9430,1,0,0:0:0:0:
320,192,9430,1,0,0:0:0:0:
192,192,9763,128,0,9930:0:0:0:0:
320,192,9930,1,0,0:0:0:0:
448,192,9930,128,0,10430:0:0:0:0:
192,192,10430,1,0,0:0:0:0:
320,192,10430,128,0,10930:0:0:0:0:
192,192,10763,128,0,10930:0:0:0:0:
64,192,10930,1,2,0:0:0:0:
448,192,10930,128,0,11430:0:0:0:0:
320,192,11263,128,0,11430:0:0:0:0:
64,192,11430,1,8,0:0:0:0:
192,192,11430,128,0,11763:0:0:0:0:
192,192,11930,128,0,12430:0:0:0:0:
320,192,11930,1,0,0:0:0:0:
64,192,12430,1,2,0:0:0:0:
448,192,12430,128,0,12930:0:0:0:0:
320,192,12763,128,0,12930:0:0:0:0:
64,192,12930,1,0,0:0:0:0:
192,192,12930,128,0,13430:0:0:0:0:
320,192,13263,128,0,13430:0:0:0:0:
64,192,13430,128,8,13763:0:0:0:0:
448,192,13430,1,0,0:0:0:0:
64,192,13930,128,0,14096:0:0:0:0:
320,192,13930,1,0,0:0:0:0:
64,192,14263,128,0,14430:0:0:0:0:
192,192,14430,1,0,0:0:0:0:
448,192,14430,128,0,14930:0:0:0:0:
320,192,14763,128,0,14930:0:0:0:0:
64,192,14930,1,2,0:0:0:0:
192,192,14930,128,0,15430:0:0:0:0:
448,192,15263,128,0,15430:0:0:0:0:
64,192,15430,128,8,15763:0:0:0:0:
320,192,15430,1,0,0:0:0:0:
64,192,15930,128,0,16096:0:0:0:0:
192,192,15930,1,0,0:0:0:0:
64,192,16263,128,0,16430:0:0:0:0:
192,192,16430,1,2,0:0:0:0:
320,192,16430,128,4,16763:0:0:0:0:
448,192,16430,128,0,16930:0:0:0:0:
192,192,16930,128,0,17430:0:0:0:0:
64,192,16930,1,0,0:0:0:0:
64,192,17430,128,8,17930:0:0:0:0:
320,192,17430,1,0,0:0:0:0:
448,192,17430,1,0,0:0:0:0:
192,192,17763,128,0,17930:0:0:0:0:
320,192,17930,1,0,0:0:0:0:
448,192,17930,128,0,18430:0:0:0:0:
192,192,18430,1,0,0:0:0:0:
320,192,18430,128,0,18930:0:0:0:0:
192,192,18763,128,0,18930:0:0:0:0:
64,192,18930,1,2,0:0:0:0:
448,192,18930,128,0,19430:0:0:0:0:
320,192,19263,128,0,19430:0:0:0:0:
64,192,19430,1,8,0:0:0:0:
192,192,19430,128,0,19763:0:0:0:0:
192,192,19930,128,0,20430:0:0:0:0:
448,192,19930,1,0,0:0:0:0:
320,192,20096,1,0,0:0:0:0:
64,192,20263,1,0,0:0:0:0:
320,192,20430,1,2,0:0:0:0:
448,192,20430,128,0,20930:0:0:0:0:
320,192,20763,128,0,20930:0:0:0:0:
64,192,20930,1,0,0:0:0:0:
192,192,20930,128,0,21430:0:0:0:0:
320,192,21263,128,0,21430:0:0:0:0:
64,192,21430,1,8,0:0:0:0:
448,192,21430,128,0,21763:0:0:0:0:
64,192,21930,1,0,0:0:0:0:
448,192,21930,128,0,22096:0:0:0:0:
320,192,22096,1,0,0:0:0:0:
448,192,22263,128,0,22430:0:0:0:0:
64,192,22430,128,0,22930:0:0:0:0:
192,192,22430,1,0,0:0:0:0:
320,192,22763,128,0,22930:0:0:0:0:
192,192,22930,128,2,23430:0:0:0:0:
448,192,22930,1,0,0:0:0:0:
448,192,23263,128,0,23430:0:0:0:0:
64,192,23430,1,8,0:0:0:0:
320,192,23430,128,0,23763:0:0:0:0:
64,192,23763,1,0,0:0:0:0:
192,192,23763,1,0,0:0:0:0:
448,192,23930,1,0,0:0:0:0:
320,192,23992,1,0,0:0:0:0:
192,192,24055,1,0,0:0:0:0:
64,192,24263,128,0,24763:0:0:0:0:
192,192,24430,128,2,24763:0:0:0:0:
320,192,24430,1,4,0:0:0:0:
448,192,24763,128,0,24930:0:0:0:0:
192,192,24930,128,0,25263:0:0:0:0:
320,192,25263,128,0,25430:0:0:0:0:
64,192,25430,1,8,0:0:0:0:
448,192,25430,128,0,25930:0:0:0:0:
192,192,25430,1,0,0:0:0:0:
64,192,25763,128,0,26096:0:0:0:0:
192,192,25930,128,2,26096:0:0:0:0:
320,192,25930,1,0,0:0:0:0:
192,192,26263,128,0,26430:0:0:0:0:
64,192,26430,1,2,0:0:0:0:
448,192,26430,128,0,26763:0:0:0:0:
192,192,26930,1,2,0:0:0:0:
320,192,26930,128,0,27263:0:0:0:0:
192,192,27263,128,0,27430:0:0:0:0:
64,192,27430,1,8,0:0:0:0:
320,192,27430,128,0,27930:0:0:0:0:
448,192,27430,1,0,0:0:0:0:
192,192,27596,1,0,0:0:0:0:
64,192,27930,1,0,0:0:0:0:
448,192,28263,128,0,28763:0:0:0:0:
192,192,28430,1,2,0:0:0:0:
320,192,28430,128,0,28763:0:0:0:0:
64,192,28763,128,0,28930:0:0:0:0:
320,192,28930,128,0,29263:0:0:0:0:
192,192,29263,128,0,29430:0:0:0:0:
64,192,29430,128,8,29930:0:0:0:0:
448,192,29430,1,0,0:0:0:0:
320,192,29430,1,0,0:0:0:0:
448,192,29763,128,0,30096:0:0:0:0:
192,192,29930,1,2,0:0:0:0:
320,192,29930,128,0,30096:0:0:0:0:
320,192,30263,128,0,30430:0:0:0:0:
64,192,30430,128,2,30763:0:0:0:0:
448,192,30430,1,0,0:0:0:0:
192,192,30930,128,2,31263:0:0:0:0:
320,192,30930,1,0,0:0:0:0:
320,192,31263,128,0,31430:0:0:0:0:
64,192,31430,1,8,0:0:0:0:
192,192,31430,128,0,31930:0:0:0:0:
448,192,31430,1,0,0:0:0:0:
320,192,31596,1,0,0:0:0:0:
448,192,31930,1,0,0:0:0:0:
64,192,32263,128,0,32763:0:0:0:0:
192,192,32429,128,2,32763:0:0:0:0:
320,192,32429,1,0,0:0:0:0:
448,192,32763,128,0,32930:0:0:0:0:
320,192,32930,128,0,33263:0:0:0:0:
192,192,33263,128,0,33430:0:0:0:0:
64,192,33430,1,8,0:0:0:0:
320,192,33430,1,0,0:0:0:0:
448,192,33430,128,0,33763:0:0:0:0:
64,192,33930,128,2,34263:0:0:0:0:
192,192,33930,1,0,0:0:0:0:
192,192,34263,128,0,34430:0:0:0:0:
320,192,34430,1,2,0:0:0:0:
448,192,34430,128,0,34763:0:0:0:0:
64,192,34930,1,2,0:0:0:0:
320,192,34930,128,0,35263:0:0:0:0:
192,192,35263,128,0,35430:0:0:0:0:
64,192,35430,1,8,0:0:0:0:
320,192,35430,128,0,35763:0:0:0:0:
448,192,35430,1,0,0:0:0:0:
192,192,35930,128,0,36430:0:0:0:0:
64,192,36263,128,0,36430:0:0:0:0:
320,192,36430,1,2,0:0:0:0:
448,192,36430,128,0,36763:0:0:0:0:
320,192,36763,128,0,36930:0:0:0:0:
64,192,37263,128,0,37763:0:0:0:0:
192,192,37430,128,8,37763:0:0:0:0:
320,192,37430,1,0,0:0:0:0:
448,192,37430,1,0,0:0:0:0:
192,192,37930,1,2,0:0:0:0:
320,192,37930,128,0,38263:0:0:0:0:
448,192,38263,128,0,38430:0:0:0:0:
64,192,38430,128,2,38763:0:0:0:0:
192,192,38430,1,0,0:0:0:0:
320,192,38763,128,0,38930:0:0:0:0:
192,192,38930,1,2,0:0:0:0:
448,192,38930,128,0,39263:0:0:0:0:
192,192,39263,128,0,39430:0:0:0:0:
64,192,39430,128,8,39763:0:0:0:0:
320,192,39430,1,0,0:0:0:0:
448,192,39430,1,0,0:0:0:0:
64,192,39930,1,0,0:0:0:0:
192,192,39930,1,0,0:0:0:0:
320,192,40096,1,0,0:0:0:0:
64,192,40263,1,0,0:0:0:0:
192,192,40263,1,0,0:0:0:0:
320,192,40430,128,2,40763:0:0:0:0:
448,192,40430,1,0,0:0:0:0:
64,192,40930,128,0,41263:0:0:0:0:
448,192,41263,1,0,0:0:0:0:
64,192,41430,1,8,0:0:0:0:
192,192,41430,128,0,41763:0:0:0:0:
320,192,41430,1,0,0:0:0:0:
320,192,41930,128,2,42263:0:0:0:0:
448,192,41930,1,0,0:0:0:0:
64,192,42096,1,0,0:0:0:0:
192,192,42263,1,0,0:0:0:0:
64,192,42430,1,2,0:0:0:0:
448,192,42430,128,0,42763:0:0:0:0:
192,192,42930,1,2,0:0:0:0:
320,192,42930,128,0,43263:0:0:0:0:
64,192,43263,1,0,0:0:0:0:
192,192,43430,128,8,43763:0:0:0:0:
320,192,43430,1,0,0:0:0:0:
448,192,43430,1,0,0:0:0:0:
64,192,43930,128,0,44263:0:0:0:0:
448,192,43930,1,0,0:0:0:0:
320,192,44430,1,2,0:0:0:0:
448,192,44430,128,0,44763:0:0:0:0:
192,192,44930,128,0,45263:0:0:0:0:
320,192,45263,1,0,0:0:0:0:
64,192,45430,1,8,0:0:0:0:
192,192,45430,128,0,45763:0:0:0:0:
448,192,45430,1,0,0:0:0:0:
64,192,45930,1,2,0:0:0:0:
320,192,45930,128,0,46263:0:0:0:0:
192,192,46096,1,0,0:0:0:0:
448,192,46263,1,0,0:0:0:0:
192,192,46430,1,2,0:0:0:0:
320,192,46430,128,0,46763:0:0:0:0:
64,192,46930,1,2,0:0:0:0:
448,192,46930,1,0,0:0:0:0:
192,192,47263,1,0,0:0:0:0:
64,192,47430,128,8,47763:0:0:0:0:
320,192,47430,1,0,0:0:0:0:
448,192,47430,1,0,0:0:0:0:
448,192,47930,1,0,0:0:0:0:
320,192,47930,1,0,0:0:0:0:
192,192,48096,1,0,0:0:0:0:
320,192,48263,1,0,0:0:0:0:
64,192,48430,1,2,0:0:0:0:
448,192,48430,1,0,0:0:0:0:
64,192,48930,128,0,49263:0:0:0:0:
320,192,49263,1,0,0:0:0:0:
64,192,49430,1,8,0:0:0:0:
192,192,49430,1,0,0:0:0:0:
448,192,49430,128,0,49763:0:0:0:0:
320,192,49930,128,2,50263:0:0:0:0:
192,192,49930,1,0,0:0:0:0:
64,192,50096,1,0,0:0:0:0:
448,192,50263,1,0,0:0:0:0:
64,192,50430,1,2,0:0:0:0:
192,192,50430,128,0,50763:0:0:0:0:
320,192,50930,128,2,51263:0:0:0:0:
448,192,50930,1,0,0:0:0:0:
192,192,51263,1,0,0:0:0:0:
64,192,51430,128,8,51763:0:0:0:0:
320,192,51430,1,0,0:0:0:0:
448,192,51430,1,0,0:0:0:0:
448,192,51930,128,0,52263:0:0:0:0:
320,192,52096,1,0,0:0:0:0:
192,192,52263,1,0,0:0:0:0:
64,192,52430,128,2,53430:0:0:0:0:
448,192,52430,1,0,0:0:0:0:
192,192,52930,128,0,53430:0:0:0:0:
320,192,53430,128,8,53930:0:0:0:0:
448,192,53430,1,0,0:0:0:0:
64,192,53930,1,2,0:0:0:0:
192,192,53930,128,0,54263:0:0:0:0:
448,192,54096,1,0,0:0:0:0:
320,192,54263,1,0,0:0:0:0:
64,192,54430,1,2,0:0:0:0:
192,192,54430,128,0,54930:0:0:0:0:
320,192,54930,1,2,0:0:0:0:
448,192,54930,128,0,55930:0:0:0:0:
64,192,55430,1,8,0:0:0:0:
192,192,55430,1,0,0:0:0:0:
320,192,55430,128,0,55930:0:0:0:0:
64,192,56430,128,2,56930:0:0:0:0:
192,192,56430,128,4,56763:0:0:0:0:
448,192,56430,1,0,0:0:0:0:
192,192,56930,1,0,0:0:0:0:
448,192,56930,128,0,57430:0:0:0:0:
64,192,57430,1,8,0:0:0:0:
192,192,57430,128,0,57763:0:0:0:0:
320,192,57430,128,0,57930:0:0:0:0:
64,192,57763,128,0,57930:0:0:0:0:
192,192,57930,1,0,0:0:0:0:
448,192,57930,128,0,58430:0:0:0:0:
64,192,58430,128,0,58930:0:0:0:0:
320,192,58430,128,0,58596:0:0:0:0:
192,192,58763,128,0,58930:0:0:0:0:
320,192,58930,128,2,59096:0:0:0:0:
448,192,58930,128,0,59263:0:0:0:0:
192,192,59263,128,0,59430:0:0:0:0:
64,192,59430,128,8,60096:0:0:0:0:
320,192,59430,1,0,0:0:0:0:
448,192,59430,1,0,0:0:0:0:
192,192,59763,128,0,60096:0:0:0:0:
320,192,59930,128,0,60096:0:0:0:0:
320,192,60430,128,2,60763:0:0:0:0:
448,192,60430,128,0,60930:0:0:0:0:
64,192,60930,128,0,61430:0:0:0:0:
192,192,60930,128,0,61263:0:0:0:0:
192,192,61430,128,8,61930:0:0:0:0:
320,192,61430,128,0,61763:0:0:0:0:
448,192,61430,1,0,0:0:0:0:
64,192,61930,128,0,62263:0:0:0:0:
448,192,61930,128,0,62430:0:0:0:0:
320,192,62263,128,0,62430:0:0:0:0:
64,192,62430,128,0,62763:0:0:0:0:
192,192,62430,128,0,62596:0:0:0:0:
192,192,62763,128,0,62930:0:0:0:0:
320,192,62930,128,2,63096:0:0:0:0:
448,192,62930,128,0,63263:0:0:0:0:
320,192,63263,128,0,63430:0:0:0:0:
64,192,63430,128,8,64429:0:0:0:0:
192,192,63430,128,0,63930:0:0:0:0:
448,192,63430,1,0,0:0:0:0:
448,192,63930,128,0,64429:0:0:0:0:
192,192,64429,128,2,64763:0:0:0:0:
320,192,64429,128,4,64929:0:0:0:0:
64,192,64763,128,0,64929:0:0:0:0:
192,192,64929,1,0,0:0:0:0:
448,192,64929,128,0,65429:0:0:0:0:
64,192,65429,128,8,65763:0:0:0:0:
192,192,65429,128,0,65930:0:0:0:0:
320,192,65429,1,0,0:0:0:0:
320,192,65763,128,0,65930:0:0:0:0:
64,192,65930,1,0,0:0:0:0:
448,192,65930,128,0,66263:0:0:0:0:
320,192,66430,128,0,66596:0:0:0:0:
448,192,66430,128,0,66763:0:0:0:0:
320,192,66763,128,0,66930:0:0:0:0:
64,192,66930,128,2,67263:0:0:0:0:
192,192,66930,128,0,67096:0:0:0:0:
320,192,67263,128,0,67596:0:0:0:0:
64,192,67430,1,8,0:0:0:0:
192,192,67430,128,0,67596:0:0:0:0:
448,192,67430,1,0,0:0:0:0:
64,192,67930,128,0,68430:0:0:0:0:
192,192,68430,1,2,0:0:0:0:
448,192,68430,128,0,68930:0:0:0:0:
320,192,68763,128,0,68930:0:0:0:0:
64,192,68930,128,0,69263:0:0:0:0:
192,192,68930,1,0,0:0:0:0:
448,192,69096,128,0,69430:0:0:0:0:
64,192,69430,1,8,0:0:0:0:
192,192,69430,1,0,0:0:0:0:
320,192,69430,128,0,69763:0:0:0:0:
64,192,69930,128,0,70430:0:0:0:0:
192,192,69930,1,0,0:0:0:0:
192,192,70263,128,0,70430:0:0:0:0:
320,192,70430,1,0,0:0:0:0:
448,192,70430,128,0,70930:0:0:0:0:
64,192,70763,128,0,70930:0:0:0:0:
192,192,70930,128,2,71430:0:0:0:0:
320,192,70930,1,0,0:0:0:0:
320,192,71263,128,0,71430:0:0:0:0:
64,192,71430,1,8,0:0:0:0:
448,192,71430,128,0,71930:0:0:0:0:
192,192,71763,1,0,0:0:0:0:
320,192,71930,1,0,0:0:0:0:
192,192,72096,1,0,0:0:0:0:
64,192,72430,1,2,0:0:0:0:
320,192,72430,128,4,72763:0:0:0:0:
448,192,72430,128,0,72930:0:0:0:0:
64,192,72930,128,0,73430:0:0:0:0:
320,192,72930,1,0,0:0:0:0:
192,192,73430,128,8,73930:0:0:0:0:
320,192,73430,128,0,73763:0:0:0:0:
448,192,73430,1,0,0:0:0:0:
448,192,73763,128,0,73930:0:0:0:0:
64,192,73930,128,0,74430:0:0:0:0:
320,192,73930,1,0,0:0:0:0:
192,192,74430,128,0,74596:0:0:0:0:
448,192,74430,128,0,74930:0:0:0:0:
320,192,74763,128,0,74930:0:0:0:0:
64,192,74930,128,2,75263:0:0:0:0:
192,192,74930,128,0,75096:0:0:0:0:
320,192,75263,128,0,75430:0:0:0:0:
64,192,75430,1,8,0:0:0:0:
192,192,75430,1,0,0:0:0:0:
448,192,75430,128,0,76096:0:0:0:0:
320,192,75763,128,0,76096:0:0:0:0:
192,192,75930,128,0,76096:0:0:0:0:
64,192,76430,128,2,76930:0:0:0:0:
448,192,76430,128,0,76763:0:0:0:0:
192,192,76930,1,0,0:0:0:0:
448,192,76930,128,0,77263:0:0:0:0:
64,192,77263,128,0,77430:0:0:0:0:
192,192,77430,128,8,77763:0:0:0:0:
320,192,77430,128,0,77930:0:0:0:0:
448,192,77430,1,0,0:0:0:0:
64,192,77930,128,0,78430:0:0:0:0:
448,192,77930,1,0,0:0:0:0:
192,192,78263,128,0,78430:0:0:0:0:
320,192,78430,128,0,78596:0:0:0:0:
448,192,78430,128,0,78763:0:0:0:0:
320,192,78763,128,0,78930:0:0:0:0:
64,192,78930,128,2,79263:0:0:0:0:
192,192,78930,128,0,79096:0:0:0:0:
192,192,79263,128,0,79430:0:0:0:0:
64,192,79430,1,8,0:0:0:0:
320,192,79430,128,0,79930:0:0:0:0:
448,192,79430,128,0,80430:0:0:0:0:
64,192,79930,128,0,80430:0:0:0:0:
192,192,80430,128,2,80930:0:0:0:0:
320,192,80430,128,4,80763:0:0:0:0:
448,192,80763,128,0,80930:0:0:0:0:
64,192,80930,128,0,81430:0:0:0:0:
320,192,80930,1,0,0:0:0:0:
192,192,81430,1,8,0:0:0:0:
320,192,81430,128,0,81930:0:0:0:0:
448,192,81430,128,0,81763:0:0:0:0:
192,192,81763,128,0,81930:0:0:0:0:
64,192,81930,128,0,82263:0:0:0:0:
448,192,81930,1,0,0:0:0:0:
64,192,82430,128,0,82763:0:0:0:0:
192,192,82430,128,0,82596:0:0:0:0:
192,192,82763,128,0,82930:0:0:0:0:
320,192,82930,128,2,83096:0:0:0:0:
448,192,82930,128,0,83263:0:0:0:0:
192,192,83263,128,0,83763:0:0:0:0:
64,192,83430,1,8,0:0:0:0:
320,192,83430,128,0,83763:0:0:0:0:
448,192,83430,1,0,0:0:0:0:
64,192,83763,128,0,83930:0:0:0:0:
448,192,83930,128,0,84430:0:0:0:0:
320,192,83930,1,0,0:0:0:0:
64,192,84430,128,2,84930:0:0:0:0:
192,192,84430,1,0,0:0:0:0:
320,192,84930,1,0,0:0:0:0:
448,192,84930,128,0,85263:0:0:0:0:
192,192,85263,128,0,85430:0:0:0:0:
64,192,85430,128,8,85930:0:0:0:0:
320,192,85430,1,0,0:0:0:0:
448,192,85430,1,0,0:0:0:0:
192,192,85763,128,0,85930:0:0:0:0:
320,192,85930,1,0,0:0:0:0:
448,192,85930,128,0,86430:0:0:0:0:
320,192,86263,128,0,86430:0:0:0:0:
64,192,86430,128,0,86930:0:0:0:0:
192,192,86430,1,0,0:0:0:0:
448,192,86763,128,0,86930:0:0:0:0:
192,192,86930,1,2,0:0:0:0:
320,192,86930,128,0,87430:0:0:0:0:
192,192,87263,128,0,87430:0:0:0:0:
64,192,87430,128,8,87930:0:0:0:0:
448,192,87430,1,0,0:0:0:0:
192,192,87763,1,0,0:0:0:0:
320,192,87930,1,0,0:0:0:0:
64,192,88430,128,2,88930:0:0:0:0:
192,192,88430,128,4,88763:0:0:0:0:
320,192,88430,1,0,0:0:0:0:
448,192,88930,128,0,89430:0:0:0:0:
64,192,89430,128,0,89930:0:0:0:0:
320,192,89430,1,0,0:0:0:0:
192,192,89763,128,0,89930:0:0:0:0:
448,192,89930,128,0,90430:0:0:0:0:
192,192,90430,1,0,0:0:0:0:
320,192,90430,128,0,90930:0:0:0:0:
192,192,90763,128,0,90930:0:0:0:0:
448,192,90930,128,0,91430:0:0:0:0:
320,192,91263,128,0,91430:0:0:0:0:
192,192,91430,128,0,91763:0:0:0:0:
192,192,91930,128,0,92430:0:0:0:0:
320,192,91930,1,0,0:0:0:0:
64,192,92430,1,0,0:0:0:0:
448,192,92430,128,0,92930:0:0:0:0:
320,192,92763,128,0,92930:0:0:0:0:
192,192,92930,128,0,93430:0:0:0:0:
320,192,93263,128,0,93430:0:0:0:0:
64,192,93430,128,0,93763:0:0:0:0:
448,192,93430,1,0,0:0:0:0:
320,192,93930,1,0,0:0:0:0:
64,192,94263,128,0,94430:0:0:0:0:
192,192,94430,1,0,0:0:0:0:
448,192,94430,128,0,94930:0:0:0:0:
320,192,94763,128,0,94930:0:0:0:0:
192,192,94930,128,0,95430:0:0:0:0:
448,192,95263,128,0,95430:0:0:0:0:
64,192,95430,128,0,95763:0:0:0:0:
320,192,95930,1,0,0:0:0:0:
192,192,96013,1,0,0:0:0:0:
64,192,96096,1,0,0:0:0:0:
448,192,96180,1,0,0:0:0:0:
320,192,96263,1,0,0:0:0:0:
192,192,96346,1,0,0:0:0:0:
64,192,96430,1,0,0:0:0:0:
448,192,96430,128,0,96930:0:0:0:0:
320,192,96763,1,0,0:0:0:0:
192,192,96930,1,0,0:0:0:0:
64,192,97430,128,0,97930:0:0:0:0:
192,192,97930,1,0,0:0:0:0:
448,192,97930,128,0,98430:0:0:0:0:
64,192,98430,1,0,0:0:0:0:
192,192,98430,128,0,98930:0:0:0:0:
320,192,98930,128,0,99430:0:0:0:0:
448,192,98930,1,0,0:0:0:0:
64,192,99263,1,0,0:0:0:0:
192,192,99430,1,0,0:0:0:0:
448,192,99430,128,0,99930:0:0:0:0:
320,192,99763,1,0,0:0:0:0:
64,192,99930,1,0,0:0:0:0:
448,192,100096,1,0,0:0:0:0:
192,192,100263,1,0,0:0:0:0:
448,192,100430,1,0,0:0:0:0:
320,192,100430,128,0,100930:0:0:0:0:
64,192,100763,1,0,0:0:0:0:
192,192,100930,1,0,0:0:0:0:
64,192,101430,128,0,102096:0:0:0:0:
448,192,101430,1,0,0:0:0:0:
320,192,102096,1,0,0:0:0:0:
448,192,102096,1,0,0:0:0:0:
