osu file format v14

[General]
AudioFilename: audio.mp3
AudioLeadIn: 0
PreviewTime: 56430
Countdown: 0
SampleSet: Soft
StackLeniency: 0.7
Mode: 3
LetterboxInBreaks: 0
SpecialStyle: 0
WidescreenStoryboard: 1

[Editor]
DistanceSpacing: 0.8
BeatDivisor: 3
GridSize: 4
TimelineZoom: 1.2

[Metadata]
Title:Jishou Mushoku
TitleUnicode:自傷無色
Artist:25-ji, Nightcord de. x Hatsune Miku
ArtistUnicode:25時、ナイトコードで。 × 初音ミク
Creator:Nicknem_
Version:Easy
Source:プロジェクトセカイ カラフルステージ! feat. 初音ミク
Tags:project sekai hatsune miku miku: colorful stage! jpop j-pop pop japanese brmm-10495 Jishoumushoku Yoisaki Kanade 宵崎 奏 Asahina Mafuyu 朝比奈 まふゆ Shinonome Ena 東雲 絵名 Akiyama Mizuki 暁山 瑞希 vocaloid video game version ver プロセカ proseka Tanabe Rui 田辺 留依 Kusunoki Tomori 楠木 ともり Minori Suzuki 鈴木 みのり Satou Hinata 佐藤 日向 Fujita Saki 藤田 咲
BeatmapID:3678196
BeatmapSetID:1794551

[Difficulty]
HPDrainRate:7
CircleSize:4
OverallDifficulty:7
ApproachRate:5
SliderMultiplier:1.4
SliderTickRate:1

[Events]
//Background and Video events
0,0,"normal.jpg",0,0
//Break Periods
//Storyboard Layer 0 (Background)
//Storyboard Layer 1 (Fail)
//Storyboard Layer 2 (Pass)
//Storyboard Layer 3 (Foreground)
//Storyboard Layer 4 (Overlay)
//Storyboard Sound Samples
Sample,24430,0,"soft-hitfinish.wav",70

[TimingPoints]
430,500,4,2,1,60,1,0
56430,-100,4,2,1,60,0,1
88430,-100,4,2,1,60,0,0

[HitObjects]
448,192,430,5,0,0:0:0:0:
64,192,1430,1,0,0:0:0:0:
448,192,1930,1,0,0:0:0:0:
192,192,2430,1,0,0:0:0:0:
320,192,2930,1,0,0:0:0:0:
448,192,3430,1,0,0:0:0:0:
64,192,3930,1,0,0:0:0:0:
320,192,4430,1,0,0:0:0:0:
192,192,5430,1,0,0:0:0:0:
448,192,6430,1,0,0:0:0:0:
320,192,7763,1,0,0:0:0:0:
320,192,8096,1,0,0:0:0:0:
192,192,8263,1,0,0:0:0:0:
64,192,8430,128,2,8930:0:0:0:0:
448,192,8430,1,4,0:0:0:0:
320,192,8930,128,0,9430:0:0:0:0:
64,192,9430,1,8,0:0:0:0:
192,192,9430,1,0,0:0:0:0:
192,192,9763,1,0,0:0:0:0:
448,192,9930,1,0,0:0:0:0:
64,192,10430,1,0,0:0:0:0:
320,192,10763,1,0,0:0:0:0:
192,192,10930,1,2,0:0:0:0:
448,192,11263,1,0,0:0:0:0:
64,192,11430,128,8,11763:0:0:0:0:
320,192,11430,1,0,0:0:0:0:
64,192,11930,128,0,12430:0:0:0:0:
448,192,12430,1,2,0:0:0:0:
192,192,12763,1,0,0:0:0:0:
320,192,12930,1,0,0:0:0:0:
64,192,13263,1,0,0:0:0:0:
192,192,13430,1,8,0:0:0:0:
448,192,13430,128,0,13763:0:0:0:0:
448,192,13930,128,0,14263:0:0:0:0:
320,192,14263,1,0,0:0:0:0:
64,192,14430,1,0,0:0:0:0:
448,192,14763,1,0,0:0:0:0:
192,192,14930,1,2,0:0:0:0:
320,192,15263,1,0,0:0:0:0:
64,192,15430,128,8,15763:0:0:0:0:
448,192,15430,1,0,0:0:0:0:
64,192,15930,128,0,16263:0:0:0:0:
192,192,16263,1,0,0:0:0:0:
320,192,16430,1,2,0:0:0:0:
448,192,16430,128,4,16930:0:0:0:0:
192,192,16930,128,0,17430:0:0:0:0:
64,192,17430,1,8,0:0:0:0:
320,192,17430,1,0,0:0:0:0:
320,192,17763,1,0,0:0:0:0:
64,192,17930,128,0,18430:0:0:0:0:
448,192,18430,1,0,0:0:0:0:
192,192,18763,1,0,0:0:0:0:
320,192,18930,1,2,0:0:0:0:
64,192,19263,1,0,0:0:0:0:
192,192,19430,1,8,0:0:0:0:
448,192,19430,128,0,19763:0:0:0:0:
448,192,19930,128,0,20430:0:0:0:0:
64,192,20430,1,2,0:0:0:0:
320,192,20763,1,0,0:0:0:0:
192,192,20930,1,0,0:0:0:0:
448,192,21263,1,0,0:0:0:0:
64,192,21430,128,8,21763:0:0:0:0:
320,192,21430,1,0,0:0:0:0:
64,192,21930,128,0,22263:0:0:0:0:
192,192,22263,1,0,0:0:0:0:
448,192,22430,1,0,0:0:0:0:
64,192,22763,1,0,0:0:0:0:
320,192,22930,1,2,0:0:0:0:
192,192,23263,1,0,0:0:0:0:
64,192,23430,1,8,0:0:0:0:
448,192,23430,128,0,23763:0:0:0:0:
192,192,23930,1,0,0:0:0:0:
320,192,24096,1,0,0:0:0:0:
64,192,24430,1,2,0:0:0:0:
448,192,24930,1,0,0:0:0:0:
64,192,25430,1,8,0:0:0:0:
192,192,25430,1,0,0:0:0:0:
320,192,25930,1,2,0:0:0:0:
320,192,26430,1,2,0:0:0:0:
192,192,26930,1,2,0:0:0:0:
64,192,27430,1,8,0:0:0:0:
448,192,27430,1,0,0:0:0:0:
320,192,27930,1,0,0:0:0:0:
448,192,28430,1,2,0:0:0:0:
64,192,28930,1,0,0:0:0:0:
320,192,29430,1,8,0:0:0:0:
448,192,29430,1,0,0:0:0:0:
192,192,29930,1,2,0:0:0:0:
192,192,30430,1,2,0:0:0:0:
320,192,30930,1,2,0:0:0:0:
64,192,31430,1,8,0:0:0:0:
448,192,31430,1,0,0:0:0:0:
192,192,31930,1,0,0:0:0:0:
320,192,32429,1,2,0:0:0:0:
64,192,32930,1,0,0:0:0:0:
192,192,33430,1,8,0:0:0:0:
448,192,33430,1,0,0:0:0:0:
320,192,33930,1,2,0:0:0:0:
320,192,34430,1,2,0:0:0:0:
64,192,34930,1,2,0:0:0:0:
320,192,35430,1,8,0:0:0:0:
448,192,35430,1,0,0:0:0:0:
192,192,35930,1,0,0:0:0:0:
320,192,36430,1,2,0:0:0:0:
192,192,36930,1,0,0:0:0:0:
64,192,37430,1,8,0:0:0:0:
320,192,37430,1,0,0:0:0:0:
448,192,37930,1,2,0:0:0:0:
448,192,38430,1,2,0:0:0:0:
64,192,38930,1,2,0:0:0:0:
192,192,39430,1,8,0:0:0:0:
320,192,39430,1,0,0:0:0:0:
448,192,39930,1,0,0:0:0:0:
448,192,40263,1,0,0:0:0:0:
64,192,40430,1,2,0:0:0:0:
192,192,40430,1,0,0:0:0:0:
448,192,40930,128,0,41263:0:0:0:0:
192,192,41430,1,8,0:0:0:0:
320,192,41430,128,0,41763:0:0:0:0:
192,192,41930,128,2,42263:0:0:0:0:
64,192,42430,128,2,42763:0:0:0:0:
320,192,42930,128,2,43263:0:0:0:0:
64,192,43430,1,8,0:0:0:0:
192,192,43430,128,0,43763:0:0:0:0:
448,192,43930,128,0,44263:0:0:0:0:
320,192,44430,128,2,44763:0:0:0:0:
64,192,44930,128,0,45263:0:0:0:0:
192,192,45430,128,8,45763:0:0:0:0:
320,192,45430,1,0,0:0:0:0:
448,192,45930,128,2,46263:0:0:0:0:
64,192,46430,128,2,46763:0:0:0:0:
320,192,46930,1,2,0:0:0:0:
64,192,47430,1,8,0:0:0:0:
448,192,47430,1,0,0:0:0:0:
192,192,47930,1,0,0:0:0:0:
320,192,48430,1,2,0:0:0:0:
448,192,48930,128,0,49263:0:0:0:0:
192,192,49430,1,8,0:0:0:0:
320,192,49430,128,0,49763:0:0:0:0:
192,192,49930,128,2,50263:0:0:0:0:
64,192,50430,128,2,50763:0:0:0:0:
320,192,50930,128,2,51263:0:0:0:0:
64,192,51430,1,8,0:0:0:0:
192,192,51430,128,0,51763:0:0:0:0:
320,192,51930,128,0,52263:0:0:0:0:
64,192,52430,128,2,52930:0:0:0:0:
448,192,52930,128,0,53430:0:0:0:0:
192,192,53430,1,8,0:0:0:0:
320,192,53430,128,0,53930:0:0:0:0:
64,192,53930,128,2,54430:0:0:0:0:
192,192,54430,128,2,54930:0:0:0:0:
320,192,54930,128,2,55430:0:0:0:0:
64,192,55430,1,8,0:0:0:0:
448,192,55430,128,0,55930:0:0:0:0:
192,192,56430,128,6,56930:0:0:0:0:
64,192,56430,1,0,0:0:0:0:
320,192,56930,128,0,57430:0:0:0:0:
64,192,57430,128,8,57763:0:0:0:0:
448,192,57430,1,0,0:0:0:0:
192,192,57763,1,0,0:0:0:0:
448,192,57930,128,0,58430:0:0:0:0:
192,192,58430,128,0,58763:0:0:0:0:
320,192,58763,1,0,0:0:0:0:
64,192,58930,128,2,59263:0:0:0:0:
192,192,59263,1,0,0:0:0:0:
320,192,59430,1,8,0:0:0:0:
448,192,59430,128,0,59763:0:0:0:0:
64,192,59763,1,0,0:0:0:0:
192,192,59930,128,0,60430:0:0:0:0:
448,192,60430,128,2,60930:0:0:0:0:
64,192,60930,128,0,61430:0:0:0:0:
320,192,61430,128,8,61930:0:0:0:0:
448,192,61430,1,0,0:0:0:0:
192,192,61930,128,0,62263:0:0:0:0:
64,192,62263,1,0,0:0:0:0:
448,192,62430,128,0,62763:0:0:0:0:
320,192,62763,1,0,0:0:0:0:
64,192,62930,128,2,63263:0:0:0:0:
192,192,63263,1,0,0:0:0:0:
320,192,63430,128,8,63930:0:0:0:0:
448,192,63430,1,0,0:0:0:0:
192,192,63930,128,0,64429:0:0:0:0:
448,192,64429,128,6,64763:0:0:0:0:
64,192,64429,1,0,0:0:0:0:
192,192,64763,1,0,0:0:0:0:
320,192,64929,128,0,65429:0:0:0:0:
64,192,65429,128,8,65763:0:0:0:0:
448,192,65429,1,0,0:0:0:0:
192,192,65763,1,0,0:0:0:0:
448,192,65930,128,0,66430:0:0:0:0:
64,192,66430,128,0,66763:0:0:0:0:
320,192,66763,1,0,0:0:0:0:
192,192,66930,128,2,67263:0:0:0:0:
320,192,67263,1,0,0:0:0:0:
64,192,67430,128,8,67763:0:0:0:0:
448,192,67430,1,0,0:0:0:0:
320,192,67930,128,0,68430:0:0:0:0:
192,192,68430,128,2,68763:0:0:0:0:
64,192,68763,1,0,0:0:0:0:
448,192,68930,128,0,69430:0:0:0:0:
64,192,69430,128,8,69763:0:0:0:0:
320,192,69430,1,0,0:0:0:0:
64,192,69930,128,0,70263:0:0:0:0:
192,192,70263,1,0,0:0:0:0:
448,192,70430,1,0,0:0:0:0:
448,192,70763,1,0,0:0:0:0:
192,192,70930,128,2,71263:0:0:0:0:
320,192,71263,1,0,0:0:0:0:
64,192,71430,128,8,71930:0:0:0:0:
448,192,71930,1,0,0:0:0:0:
192,192,72096,1,0,0:0:0:0:
320,192,72430,128,6,72930:0:0:0:0:
448,192,72430,1,0,0:0:0:0:
192,192,72930,128,0,73430:0:0:0:0:
64,192,73430,1,8,0:0:0:0:
448,192,73430,128,0,73763:0:0:0:0:
320,192,73763,1,0,0:0:0:0:
64,192,73930,128,0,74430:0:0:0:0:
320,192,74430,128,0,74763:0:0:0:0:
192,192,74763,1,0,0:0:0:0:
448,192,74930,128,2,75263:0:0:0:0:
320,192,75263,1,0,0:0:0:0:
64,192,75430,128,8,75763:0:0:0:0:
192,192,75430,1,0,0:0:0:0:
448,192,75763,1,0,0:0:0:0:
320,192,75930,128,0,76430:0:0:0:0:
192,192,76430,128,2,76930:0:0:0:0:
448,192,76930,128,0,77263:0:0:0:0:
64,192,77263,1,0,0:0:0:0:
192,192,77430,1,8,0:0:0:0:
320,192,77430,128,0,77930:0:0:0:0:
64,192,77930,128,0,78263:0:0:0:0:
448,192,78263,1,0,0:0:0:0:
192,192,78430,128,0,78763:0:0:0:0:
320,192,78763,1,0,0:0:0:0:
448,192,78930,128,2,79263:0:0:0:0:
64,192,79263,1,0,0:0:0:0:
192,192,79430,128,8,79930:0:0:0:0:
320,192,79430,1,0,0:0:0:0:
320,192,79930,128,0,80430:0:0:0:0:
64,192,80430,128,6,80763:0:0:0:0:
448,192,80430,1,0,0:0:0:0:
320,192,80763,1,0,0:0:0:0:
192,192,80930,128,0,81430:0:0:0:0:
64,192,81430,1,8,0:0:0:0:
448,192,81430,128,0,81763:0:0:0:0:
320,192,81763,1,0,0:0:0:0:
64,192,81930,128,0,82430:0:0:0:0:
448,192,82430,128,0,82763:0:0:0:0:
192,192,82763,1,0,0:0:0:0:
320,192,82930,128,2,83263:0:0:0:0:
192,192,83263,1,0,0:0:0:0:
64,192,83430,1,8,0:0:0:0:
448,192,83430,128,0,83763:0:0:0:0:
320,192,83763,1,0,0:0:0:0:
192,192,83930,128,0,84430:0:0:0:0:
320,192,84430,128,2,84930:0:0:0:0:
64,192,84930,128,0,85263:0:0:0:0:
448,192,85263,1,0,0:0:0:0:
192,192,85430,128,8,85763:0:0:0:0:
320,192,85430,1,0,0:0:0:0:
64,192,85763,1,0,0:0:0:0:
448,192,85930,128,0,86263:0:0:0:0:
192,192,86263,1,0,0:0:0:0:
320,192,86430,128,0,86763:0:0:0:0:
64,192,86763,1,0,0:0:0:0:
192,192,86930,128,2,87430:0:0:0:0:
64,192,87430,1,8,0:0:0:0:
448,192,87430,128,0,87930:0:0:0:0:
320,192,87930,1,0,0:0:0:0:
64,192,88430,128,2,88930:0:0:0:0:
192,192,88430,1,4,0:0:0:0:
448,192,88930,128,0,89430:0:0:0:0:
192,192,89430,1,0,0:0:0:0:
192,192,89763,1,0,0:0:0:0:
320,192,89930,128,0,90430:0:0:0:0:
64,192,90430,1,0,0:0:0:0:
448,192,90763,1,0,0:0:0:0:
192,192,90930,1,0,0:0:0:0:
320,192,91263,1,0,0:0:0:0:
64,192,91430,128,0,91930:0:0:0:0:
448,192,91930,128,0,92430:0:0:0:0:
320,192,92430,1,0,0:0:0:0:
64,192,92763,1,0,0:0:0:0:
448,192,92930,1,0,0:0:0:0:
192,192,93263,1,0,0:0:0:0:
320,192,93430,128,0,93930:0:0:0:0:
64,192,93930,1,0,0:0:0:0:
192,192,94430,128,0,94763:0:0:0:0:
448,192,94763,1,0,0:0:0:0:
64,192,94930,1,0,0:0:0:0:
320,192,95263,1,0,0:0:0:0:
192,192,95430,1,0,0:0:0:0:
64,192,95930,128,0,96430:0:0:0:0:
448,192,96430,1,0,0:0:0:0:
192,192,97430,1,0,0:0:0:0:
448,192,97930,1,0,0:0:0:0:
64,192,98430,1,0,0:0:0:0:
192,192,98930,1,0,0:0:0:0:
448,192,99430,1,0,0:0:0:0:
320,192,99930,1,0,0:0:0:0:
64,192,100430,128,0,102096:0:0:0:0:
448,192,100930,1,0,0:0:0:0:
192,192,101430,1,0,0:0:0:0:
320,192,102096,1,0,0:0:0:0:
