osu file format v14

[General]
AudioFilename: audio.ogg
AudioLeadIn: 0
PreviewTime: 42903
Countdown: 0
SampleSet: Soft
StackLeniency: 0.7
Mode: 3
LetterboxInBreaks: 0
SpecialStyle: 0
WidescreenStoryboard: 1

[Editor]
DistanceSpacing: 1
BeatDivisor: 3
GridSize: 16
TimelineZoom: 1.7

[Metadata]
Title:Jack Pot Sad Girl
TitleUnicode:ジャックポットサッドガール
Artist:25-ji, Nightcord de. x Hatsune Miku
ArtistUnicode:25時、ナイトコードで。 × 初音ミク
Creator:Nicknem_
Version:Normal
Source:プロジェクトセカイ カラフルステージ! feat. 初音ミク
Tags:GungunK Nightcord at 25:00 project sekai hatsune miku miku: colorful stage! jpop j-pop pop japanese brmm-10406 vocaloid video Rhythm Mobile game version ver プロセカ proseka pjsk prsk sega Yoisaki Kanade 宵崎 奏 Asahina Mafuyu 朝比奈 まふゆ Shinonome Ena 東雲 絵名 Akiyama Mizuki 暁山 瑞希 Tanabe Rui 田辺 留依 Kusunoki Tomori 楠木 ともり Minori Suzuki 鈴木 みのり Satou Hinata 佐藤 日向 Fujita Saki 藤田 咲 syudou
BeatmapID:4065311
BeatmapSetID:1961562

[Difficulty]
HPDrainRate:7.5
CircleSize:4
OverallDifficulty:7.5
ApproachRate:5
SliderMultiplier:1.4
SliderTickRate:1

[Events]
//Background and Video events
0,0,"nmbg.jpg",0,0
//Break Periods
//Storyboard Layer 0 (Background)
//Storyboard Layer 1 (Fail)
//Storyboard Layer 2 (Pass)
//Storyboard Layer 3 (Foreground)
//Storyboard Layer 4 (Overlay)
//Storyboard Sound Samples

[TimingPoints]
551,294.117647058824,4,2,1,50,1,0
42903,-100,4,2,1,50,0,1
61727,-100,4,2,1,50,0,0

[HitObjects]
64,192,551,5,0,0:0:0:0:
448,192,551,1,0,0:0:0:0:
320,192,747,1,0,0:0:0:0:
192,192,845,1,0,0:0:0:0:
448,192,1041,1,0,0:0:0:0:
64,192,1139,128,0,1433:0:0:0:0:
448,192,1433,1,0,0:0:0:0:
320,192,1629,1,0,0:0:0:0:
192,192,1727,1,0,0:0:0:0:
448,192,1923,1,0,0:0:0:0:
320,192,2021,1,0,0:0:0:0:
64,192,2217,1,0,0:0:0:0:
448,192,2315,128,0,2609:0:0:0:0:
320,192,2609,1,0,0:0:0:0:
192,192,2805,1,0,0:0:0:0:
320,192,2903,1,0,0:0:0:0:
64,192,3100,1,0,0:0:0:0:
192,192,3198,1,0,0:0:0:0:
320,192,3394,1,0,0:0:0:0:
448,192,3492,128,0,3786:0:0:0:0:
64,192,3786,128,0,4080:0:0:0:0:
320,192,4080,1,0,0:0:0:0:
192,192,4080,1,0,0:0:0:0:
64,192,4668,128,0,5256:0:0:0:0:
192,192,5256,5,0,0:0:0:0:
448,192,5256,1,0,0:0:0:0:
320,192,5452,1,0,0:0:0:0:
64,192,5551,1,0,0:0:0:0:
192,192,5747,1,0,0:0:0:0:
448,192,5845,1,0,0:0:0:0:
320,192,6041,1,0,0:0:0:0:
64,192,6139,1,0,0:0:0:0:
448,192,6335,1,0,0:0:0:0:
192,192,6629,1,0,0:0:0:0:
320,192,6727,128,0,7021:0:0:0:0:
64,192,7021,1,0,0:0:0:0:
448,192,7217,1,0,0:0:0:0:
320,192,7315,1,0,0:0:0:0:
64,192,7609,1,0,0:0:0:0:
192,192,7609,1,0,0:0:0:0:
64,192,7805,1,0,0:0:0:0:
320,192,8100,1,0,0:0:0:0:
448,192,8100,1,0,0:0:0:0:
192,192,8198,1,0,0:0:0:0:
448,192,8492,1,0,0:0:0:0:
320,192,8492,1,0,0:0:0:0:
448,192,8688,1,0,0:0:0:0:
64,192,8982,1,0,0:0:0:0:
192,192,8982,1,0,0:0:0:0:
320,192,9080,1,0,0:0:0:0:
64,192,9374,128,0,9668:0:0:0:0:
192,192,9374,1,0,0:0:0:0:
448,192,9668,128,0,9962:0:0:0:0:
320,192,9668,1,0,0:0:0:0:
64,192,9962,1,0,0:0:0:0:
192,192,9962,1,0,0:0:0:0:
320,192,10158,1,0,0:0:0:0:
448,192,10256,1,0,0:0:0:0:
192,192,10452,1,0,0:0:0:0:
64,192,10551,1,0,0:0:0:0:
320,192,10747,1,0,0:0:0:0:
192,192,10845,1,0,0:0:0:0:
448,192,11041,1,0,0:0:0:0:
320,192,11335,1,0,0:0:0:0:
64,192,11433,128,0,11727:0:0:0:0:
448,192,11727,1,0,0:0:0:0:
192,192,11923,1,0,0:0:0:0:
64,192,12021,1,0,0:0:0:0:
448,192,12315,1,0,0:0:0:0:
192,192,12609,1,0,0:0:0:0:
320,192,12805,1,0,0:0:0:0:
64,192,12903,1,0,0:0:0:0:
448,192,13100,1,0,0:0:0:0:
192,192,13198,1,0,0:0:0:0:
320,192,13394,1,0,0:0:0:0:
64,192,13492,1,0,0:0:0:0:
192,192,13492,1,0,0:0:0:0:
320,192,13786,1,0,0:0:0:0:
448,192,13786,1,0,0:0:0:0:
192,192,14080,1,0,0:0:0:0:
64,192,14080,1,0,0:0:0:0:
320,192,14276,1,0,0:0:0:0:
448,192,14374,1,0,0:0:0:0:
192,192,14668,128,0,14962:0:0:0:0:
64,192,14668,1,0,0:0:0:0:
448,192,14962,128,0,15256:0:0:0:0:
64,192,15256,128,0,15551:0:0:0:0:
320,192,15551,1,0,0:0:0:0:
192,192,15747,1,0,0:0:0:0:
448,192,15845,128,0,16139:0:0:0:0:
320,192,15845,1,0,0:0:0:0:
64,192,16139,128,0,16335:0:0:0:0:
320,192,16335,128,0,16629:0:0:0:0:
192,192,16629,128,0,16923:0:0:0:0:
448,192,16923,128,0,17217:0:0:0:0:
64,192,16923,1,0,0:0:0:0:
320,192,17217,128,0,17511:0:0:0:0:
64,192,17511,1,0,0:0:0:0:
192,192,17609,128,0,17903:0:0:0:0:
320,192,17903,1,0,0:0:0:0:
448,192,18100,1,0,0:0:0:0:
64,192,18198,128,0,18492:0:0:0:0:
192,192,18198,1,0,0:0:0:0:
320,192,18492,1,0,0:0:0:0:
192,192,18688,128,0,18982:0:0:0:0:
448,192,18982,128,0,19276:0:0:0:0:
192,192,19276,1,0,0:0:0:0:
320,192,19374,1,0,0:0:0:0:
64,192,19374,1,0,0:0:0:0:
320,192,19864,1,0,0:0:0:0:
192,192,19962,1,0,0:0:0:0:
448,192,19962,1,0,0:0:0:0:
320,192,20452,1,0,0:0:0:0:
448,192,20551,1,0,0:0:0:0:
192,192,20747,1,0,0:0:0:0:
64,192,20845,1,0,0:0:0:0:
320,192,21041,1,0,0:0:0:0:
448,192,21139,1,0,0:0:0:0:
192,192,21139,1,0,0:0:0:0:
64,192,21629,1,0,0:0:0:0:
192,192,21727,1,0,0:0:0:0:
320,192,21727,1,0,0:0:0:0:
448,192,22217,1,0,0:0:0:0:
320,192,22315,1,0,0:0:0:0:
192,192,22315,1,0,0:0:0:0:
64,192,22805,1,0,0:0:0:0:
192,192,22903,1,0,0:0:0:0:
448,192,23100,1,0,0:0:0:0:
320,192,23198,1,0,0:0:0:0:
64,192,23394,1,0,0:0:0:0:
192,192,23492,1,0,0:0:0:0:
320,192,23492,1,0,0:0:0:0:
448,192,23786,1,0,0:0:0:0:
64,192,23786,1,0,0:0:0:0:
320,192,24080,128,0,24374:0:0:0:0:
192,192,24080,1,0,0:0:0:0:
64,192,24374,128,0,24668:0:0:0:0:
448,192,24668,128,0,24962:0:0:0:0:
320,192,24668,1,0,0:0:0:0:
192,192,24962,1,0,0:0:0:0:
320,192,25158,1,0,0:0:0:0:
64,192,25256,128,0,25551:0:0:0:0:
192,192,25256,1,0,0:0:0:0:
448,192,25551,128,0,25747:0:0:0:0:
192,192,25747,128,0,26041:0:0:0:0:
64,192,25747,1,0,0:0:0:0:
320,192,26041,128,0,26335:0:0:0:0:
64,192,26335,128,0,26629:0:0:0:0:
448,192,26335,1,0,0:0:0:0:
320,192,26629,1,0,0:0:0:0:
192,192,26727,128,0,26923:0:0:0:0:
448,192,26923,1,0,0:0:0:0:
320,192,27021,128,0,27217:0:0:0:0:
64,192,27217,1,0,0:0:0:0:
192,192,27315,128,0,27511:0:0:0:0:
448,192,27511,1,0,0:0:0:0:
320,192,27609,128,0,27903:0:0:0:0:
192,192,27903,1,0,0:0:0:0:
448,192,28100,128,0,28394:0:0:0:0:
64,192,28394,128,0,28688:0:0:0:0:
320,192,28688,1,0,0:0:0:0:
192,192,28786,1,0,0:0:0:0:
448,192,28786,1,0,0:0:0:0:
192,192,29276,1,0,0:0:0:0:
320,192,29374,1,0,0:0:0:0:
64,192,29374,1,0,0:0:0:0:
192,192,29864,1,0,0:0:0:0:
64,192,29962,1,0,0:0:0:0:
320,192,30158,1,0,0:0:0:0:
448,192,30256,1,0,0:0:0:0:
192,192,30452,1,0,0:0:0:0:
64,192,30551,1,0,0:0:0:0:
448,192,30551,1,0,0:0:0:0:
448,192,31041,1,0,0:0:0:0:
320,192,31139,1,0,0:0:0:0:
192,192,31139,1,0,0:0:0:0:
64,192,31629,1,0,0:0:0:0:
192,192,31727,1,0,0:0:0:0:
320,192,31727,1,0,0:0:0:0:
448,192,32217,1,0,0:0:0:0:
320,192,32315,1,0,0:0:0:0:
64,192,32511,1,0,0:0:0:0:
192,192,32609,1,0,0:0:0:0:
448,192,32805,1,0,0:0:0:0:
320,192,32903,1,0,0:0:0:0:
192,192,32903,1,0,0:0:0:0:
64,192,33198,128,0,33492:0:0:0:0:
448,192,33492,1,0,0:0:0:0:
192,192,33786,128,0,34080:0:0:0:0:
320,192,34080,128,0,34374:0:0:0:0:
448,192,34080,1,0,0:0:0:0:
64,192,34374,128,0,34668:0:0:0:0:
192,192,34668,128,0,34962:0:0:0:0:
448,192,34962,128,0,35256:0:0:0:0:
320,192,35256,128,0,35551:0:0:0:0:
64,192,35256,1,0,0:0:0:0:
192,192,35551,128,0,35845:0:0:0:0:
64,192,35845,128,0,36139:0:0:0:0:
320,192,35845,1,0,0:0:0:0:
448,192,36139,1,0,0:0:0:0:
192,192,36433,128,0,36727:0:0:0:0:
320,192,36433,1,0,0:0:0:0:
64,192,36727,1,0,0:0:0:0:
448,192,37021,128,0,37315:0:0:0:0:
320,192,37021,1,0,0:0:0:0:
192,192,37315,1,0,0:0:0:0:
192,192,37609,128,0,37903:0:0:0:0:
64,192,37609,1,0,0:0:0:0:
320,192,37903,128,0,38198:0:0:0:0:
448,192,38198,128,0,38492:0:0:0:0:
64,192,38198,1,0,0:0:0:0:
64,192,38492,128,0,38786:0:0:0:0:
192,192,38492,1,0,0:0:0:0:
320,192,38786,128,0,39080:0:0:0:0:
192,192,39080,128,0,39374:0:0:0:0:
448,192,39080,1,0,0:0:0:0:
64,192,39374,5,0,0:0:0:0:
320,192,39374,1,0,0:0:0:0:
64,192,39962,128,0,40551:0:0:0:0:
192,192,39962,1,0,0:0:0:0:
320,192,40256,1,0,0:0:0:0:
448,192,40551,5,0,0:0:0:0:
320,192,40747,1,0,0:0:0:0:
64,192,41041,1,0,0:0:0:0:
192,192,41335,1,0,0:0:0:0:
320,192,41433,1,0,0:0:0:0:
64,192,41629,1,0,0:0:0:0:
448,192,41727,1,0,0:0:0:0:
320,192,42021,1,0,0:0:0:0:
192,192,42315,1,0,0:0:0:0:
64,192,42609,1,0,0:0:0:0:
448,192,42903,128,0,43198:0:0:0:0:
320,192,42903,1,0,0:0:0:0:
192,192,43394,1,0,0:0:0:0:
64,192,43492,128,0,43786:0:0:0:0:
448,192,43492,1,0,0:0:0:0:
320,192,43982,1,0,0:0:0:0:
448,192,44080,128,0,44374:0:0:0:0:
192,192,44080,1,0,0:0:0:0:
64,192,44374,1,0,0:0:0:0:
192,192,44570,128,0,44864:0:0:0:0:
320,192,44570,1,0,0:0:0:0:
320,192,44864,1,0,0:0:0:0:
64,192,44962,1,0,0:0:0:0:
448,192,45158,1,0,0:0:0:0:
192,192,45256,128,0,45551:0:0:0:0:
320,192,45256,1,0,0:0:0:0:
448,192,45551,128,0,45845:0:0:0:0:
64,192,45845,128,0,46139:0:0:0:0:
192,192,45845,1,0,0:0:0:0:
320,192,46139,128,0,46433:0:0:0:0:
448,192,46433,128,0,46629:0:0:0:0:
64,192,46433,1,0,0:0:0:0:
192,192,46629,1,0,0:0:0:0:
64,192,46727,128,0,46923:0:0:0:0:
320,192,46923,1,0,0:0:0:0:
448,192,47021,128,0,47217:0:0:0:0:
192,192,47217,1,0,0:0:0:0:
320,192,47315,128,0,47511:0:0:0:0:
64,192,47511,1,0,0:0:0:0:
192,192,47609,128,0,47903:0:0:0:0:
448,192,47609,1,0,0:0:0:0:
320,192,48100,1,0,0:0:0:0:
448,192,48198,128,0,48492:0:0:0:0:
64,192,48198,1,0,0:0:0:0:
192,192,48688,1,0,0:0:0:0:
64,192,48786,128,0,49080:0:0:0:0:
320,192,48786,1,0,0:0:0:0:
448,192,49080,1,0,0:0:0:0:
320,192,49276,128,0,49570:0:0:0:0:
192,192,49276,1,0,0:0:0:0:
192,192,49570,1,0,0:0:0:0:
64,192,49668,1,0,0:0:0:0:
448,192,49864,1,0,0:0:0:0:
320,192,49962,128,0,50256:0:0:0:0:
192,192,49962,1,0,0:0:0:0:
64,192,50256,128,0,50551:0:0:0:0:
448,192,50551,128,0,50845:0:0:0:0:
320,192,50551,1,0,0:0:0:0:
192,192,50845,128,0,51139:0:0:0:0:
320,192,51139,128,0,51433:0:0:0:0:
64,192,51139,1,0,0:0:0:0:
448,192,51433,1,0,0:0:0:0:
64,192,51727,128,0,51923:0:0:0:0:
192,192,51923,1,0,0:0:0:0:
448,192,52021,128,0,52217:0:0:0:0:
320,192,52217,1,0,0:0:0:0:
192,192,52315,128,0,52609:0:0:0:0:
320,192,52609,128,0,52903:0:0:0:0:
64,192,52903,128,0,53198:0:0:0:0:
192,192,52903,1,0,0:0:0:0:
448,192,53198,128,0,53394:0:0:0:0:
320,192,53394,1,0,0:0:0:0:
192,192,53492,128,0,53786:0:0:0:0:
320,192,53786,128,0,54080:0:0:0:0:
448,192,54080,128,0,54276:0:0:0:0:
64,192,54080,1,0,0:0:0:0:
320,192,54276,1,0,0:0:0:0:
64,192,54374,128,0,54570:0:0:0:0:
192,192,54570,1,0,0:0:0:0:
448,192,54668,128,0,54962:0:0:0:0:
192,192,54962,128,0,55256:0:0:0:0:
320,192,55256,128,0,55551:0:0:0:0:
448,192,55256,1,0,0:0:0:0:
64,192,55551,128,0,55845:0:0:0:0:
320,192,55845,128,0,56335:0:0:0:0:
448,192,56335,1,0,0:0:0:0:
192,192,56433,128,0,56727:0:0:0:0:
64,192,56433,1,0,0:0:0:0:
320,192,56727,1,0,0:0:0:0:
192,192,56923,1,0,0:0:0:0:
64,192,57021,128,0,57217:0:0:0:0:
448,192,57021,1,0,0:0:0:0:
320,192,57217,1,0,0:0:0:0:
192,192,57315,128,0,57511:0:0:0:0:
448,192,57511,1,0,0:0:0:0:
320,192,57609,128,0,57805:0:0:0:0:
192,192,57805,1,0,0:0:0:0:
448,192,57903,1,0,0:0:0:0:
320,192,58100,1,0,0:0:0:0:
448,192,58198,128,0,58394:0:0:0:0:
64,192,58198,1,0,0:0:0:0:
192,192,58394,1,0,0:0:0:0:
320,192,58492,128,0,58688:0:0:0:0:
64,192,58688,1,0,0:0:0:0:
192,192,58786,128,0,58982:0:0:0:0:
320,192,58982,1,0,0:0:0:0:
448,192,59080,1,0,0:0:0:0:
192,192,59276,1,0,0:0:0:0:
64,192,59374,128,0,59668:0:0:0:0:
320,192,59374,1,0,0:0:0:0:
448,192,59668,1,0,0:0:0:0:
320,192,59864,1,0,0:0:0:0:
192,192,59962,128,0,60256:0:0:0:0:
448,192,59962,1,0,0:0:0:0:
64,192,60256,1,0,0:0:0:0:
320,192,60452,1,0,0:0:0:0:
448,192,60551,5,0,0:0:0:0:
64,192,60551,1,0,0:0:0:0:
192,192,60747,1,0,0:0:0:0:
320,192,60845,1,0,0:0:0:0:
64,192,61041,1,0,0:0:0:0:
192,192,61139,128,0,61433:0:0:0:0:
448,192,61433,1,0,0:0:0:0:
64,192,61727,5,0,0:0:0:0:
448,192,61727,1,0,0:0:0:0:
320,192,61923,1,0,0:0:0:0:
64,192,62021,1,0,0:0:0:0:
192,192,62217,1,0,0:0:0:0:
448,192,62315,1,0,0:0:0:0:
320,192,62511,1,0,0:0:0:0:
64,192,62609,1,0,0:0:0:0:
448,192,62805,1,0,0:0:0:0:
192,192,63100,1,0,0:0:0:0:
320,192,63198,128,0,63492:0:0:0:0:
64,192,63492,1,0,0:0:0:0:
448,192,63688,1,0,0:0:0:0:
320,192,63786,1,0,0:0:0:0:
64,192,64080,1,0,0:0:0:0:
192,192,64080,1,0,0:0:0:0:
64,192,64276,1,0,0:0:0:0:
448,192,64570,1,0,0:0:0:0:
320,192,64570,1,0,0:0:0:0:
192,192,64668,1,0,0:0:0:0:
448,192,64962,1,0,0:0:0:0:
320,192,64962,1,0,0:0:0:0:
448,192,65158,1,0,0:0:0:0:
192,192,65452,1,0,0:0:0:0:
64,192,65452,1,0,0:0:0:0:
320,192,65551,1,0,0:0:0:0:
64,192,65845,128,0,66139:0:0:0:0:
192,192,65845,1,0,0:0:0:0:
448,192,66139,128,0,66433:0:0:0:0:
320,192,66139,1,0,0:0:0:0:
192,192,66433,1,0,0:0:0:0:
64,192,66433,1,0,0:0:0:0:
320,192,66629,1,0,0:0:0:0:
448,192,66727,1,0,0:0:0:0:
192,192,66923,1,0,0:0:0:0:
64,192,67021,1,0,0:0:0:0:
320,192,67217,1,0,0:0:0:0:
192,192,67315,1,0,0:0:0:0:
448,192,67511,1,0,0:0:0:0:
64,192,67805,1,0,0:0:0:0:
192,192,67903,128,0,68198:0:0:0:0:
320,192,68198,1,0,0:0:0:0:
448,192,68394,1,0,0:0:0:0:
64,192,68492,1,0,0:0:0:0:
448,192,68786,1,0,0:0:0:0:
320,192,68786,1,0,0:0:0:0:
192,192,69080,1,0,0:0:0:0:
320,192,69276,1,0,0:0:0:0:
64,192,69374,1,0,0:0:0:0:
448,192,69570,1,0,0:0:0:0:
192,192,69668,1,0,0:0:0:0:
320,192,69864,1,0,0:0:0:0:
64,192,69962,1,0,0:0:0:0:
192,192,69962,1,0,0:0:0:0:
448,192,70256,1,0,0:0:0:0:
320,192,70256,1,0,0:0:0:0:
192,192,70452,1,0,0:0:0:0:
64,192,70551,1,0,0:0:0:0:
448,192,70551,1,0,0:0:0:0:
320,192,70747,1,0,0:0:0:0:
192,192,70845,128,0,71139:0:0:0:0:
448,192,71139,5,0,0:0:0:0:
64,192,71139,1,0,0:0:0:0:
192,192,71335,1,0,0:0:0:0:
448,192,71433,1,0,0:0:0:0:
320,192,71629,1,0,0:0:0:0:
64,192,71727,1,0,0:0:0:0:
192,192,71923,1,0,0:0:0:0:
448,192,72021,1,0,0:0:0:0:
64,192,72217,1,0,0:0:0:0:
320,192,72511,1,0,0:0:0:0:
192,192,72609,128,0,72903:0:0:0:0:
448,192,72903,1,0,0:0:0:0:
64,192,73100,1,0,0:0:0:0:
192,192,73198,1,0,0:0:0:0:
448,192,73492,1,0,0:0:0:0:
320,192,73492,1,0,0:0:0:0:
448,192,73688,1,0,0:0:0:0:
64,192,73982,1,0,0:0:0:0:
192,192,73982,1,0,0:0:0:0:
320,192,74080,1,0,0:0:0:0:
64,192,74374,1,0,0:0:0:0:
192,192,74374,1,0,0:0:0:0:
64,192,74570,1,0,0:0:0:0:
448,192,74864,1,0,0:0:0:0:
320,192,74864,1,0,0:0:0:0:
192,192,74962,1,0,0:0:0:0:
448,192,75256,128,0,75551:0:0:0:0:
320,192,75256,1,0,0:0:0:0:
64,192,75551,128,0,75845:0:0:0:0:
192,192,75551,1,0,0:0:0:0:
448,192,75845,1,0,0:0:0:0:
320,192,75845,1,0,0:0:0:0:
192,192,76041,1,0,0:0:0:0:
64,192,76139,1,0,0:0:0:0:
320,192,76335,1,0,0:0:0:0:
448,192,76433,1,0,0:0:0:0:
192,192,76629,1,0,0:0:0:0:
320,192,76727,1,0,0:0:0:0:
64,192,76923,1,0,0:0:0:0:
192,192,77217,1,0,0:0:0:0:
448,192,77315,128,0,77609:0:0:0:0:
64,192,77609,1,0,0:0:0:0:
320,192,77805,1,0,0:0:0:0:
448,192,77903,1,0,0:0:0:0:
64,192,78198,1,0,0:0:0:0:
192,192,78198,1,0,0:0:0:0:
320,192,78492,1,0,0:0:0:0:
192,192,78688,1,0,0:0:0:0:
448,192,78786,1,0,0:0:0:0:
64,192,78982,1,0,0:0:0:0:
320,192,79080,1,0,0:0:0:0:
192,192,79276,1,0,0:0:0:0:
448,192,79374,1,0,0:0:0:0:
320,192,79374,1,0,0:0:0:0:
192,192,79668,1,0,0:0:0:0:
64,192,79668,1,0,0:0:0:0:
320,192,79962,1,0,0:0:0:0:
448,192,79962,1,0,0:0:0:0:
