osu file format v14

[General]
AudioFilename: audio.mp3
AudioLeadIn: 0
PreviewTime: 42220
Countdown: 0
SampleSet: Soft
StackLeniency: 0.7
Mode: 0
LetterboxInBreaks: 0
WidescreenStoryboard: 1

[Editor]
DistanceSpacing: 1
BeatDivisor: 3
GridSize: 16
TimelineZoom: 1.7

[Metadata]
Title:Jack Pot Sad Girl
TitleUnicode:ジャックポットサッドガール
Artist:25-ji, Nightcord de. x Hatsune Miku
ArtistUnicode:25時、ナイトコードで。 × 初音ミク
Creator:-Amia-
Version:Hard
Source:プロジェクトセカイ カラフルステージ! feat. 初音ミク
Tags:HATSUNE MIKU: COLORFUL STAGE! Nightcord at 25:00 ニーゴ ni-go NightCode Project Sekai プロセカ Proseka Puroseka Jackpot syudou ボカロ ボーカロイド Vocaloid 宵崎奏 YOISAKI KANADE 朝比奈まふゆ ASAHINA MAFUYU 東雲絵名 SHINONOME ENA 暁山瑞希 AKIYAMA MIZUKI 楠木ともり TOMORI KUSUNOKI 田辺留依 TANABE RUI 鈴木みのり SUZUKI MINORI 佐藤日向 SATO HINATA xianoll Japanese Pop Jpop J-pop Piano Video Rhythm Mobile Game
BeatmapID:3318407
BeatmapSetID:1625177

[Difficulty]
HPDrainRate:4
CircleSize:3.3
OverallDifficulty:6.3
ApproachRate:8
SliderMultiplier:1.55
SliderTickRate:1

[Events]
//Background and Video events
0,0,"Mizuki.jpg",0,0
//Break Periods
//Storyboard Layer 0 (Background)
//Storyboard Layer 1 (Fail)
//Storyboard Layer 2 (Pass)
//Storyboard Layer 3 (Foreground)
//Storyboard Layer 4 (Overlay)
//Storyboard Sound Samples

[TimingPoints]
1142,294.117647058824,4,2,3,65,1,0
1142,-95.2380952380952,4,2,3,65,0,0
5847,-100,4,2,3,70,0,0
15259,-117.647058823529,4,2,3,60,0,0
24671,-111.111111111111,4,2,3,65,0,0
33789,-111.111111111111,4,2,4,65,0,0
34083,-153.846153846154,4,2,3,50,0,0
38789,-125,4,2,3,60,0,0
43494,-95.2380952380952,4,2,3,80,0,1
52318,-95.2380952380952,4,2,4,80,0,1
52514,-95.2380952380952,4,2,3,80,0,1
52906,-95.2380952380952,4,2,3,80,0,0
57318,-95.2380952380952,4,2,4,80,0,0
57612,-95.2380952380952,4,2,3,80,0,1
61142,-95.2380952380952,4,2,3,80,0,0
62024,-95.2380952380952,4,2,3,80,0,1
62318,-100,4,2,3,70,0,0
71436,-100,4,2,4,70,0,0
71730,-100,4,2,3,70,0,0

[Colours]
Combo1 : 221,170,204
Combo2 : 187,102,136
Combo3 : 136,136,204
Combo4 : 204,170,136

[HitObjects]
473,316,1043,5,8,0:3:0:0:
473,316,1142,2,0,P|424:295|370:286,1,108.499996688843,8|8,0:3|0:3,0:0:0:0:
335,310,1436,1,0,3:2:0:0:
222,246,1730,2,0,L|237:194,2,54.2499983444214,2|10|10,3:2|0:3|0:3,0:0:0:0:
186,269,2024,2,0,L|201:321,2,54.2499983444214,2|8|8,3:2|0:3|0:3,0:0:0:0:
152,243,2318,6,0,P|116:204|125:153,1,108.499996688843,2|8,3:2|0:3,0:0:0:0:
109,112,2613,1,2,3:2:0:0:
206,32,2907,1,2,3:2:0:0:
206,32,3005,2,0,B|263:39|263:39|288:83,1,108.499996688843,10|2,0:3|3:2,0:0:0:0:
327,103,3299,1,8,0:3:0:0:
361,183,3495,6,0,P|345:234|335:288,1,108.499996688843,2|0,3:2|0:0,0:0:0:0:
368,316,3789,1,0,3:2:0:0:
248,365,4083,2,0,B|198:350|198:350|190:355|190:355|146:341,1,108.499996688843,2|10,3:2|0:3,0:0:0:0:
99,350,4377,1,2,3:2:0:0:
99,350,4475,2,0,P|86:326|79:300,1,54.2499983444214,10|10,0:3|0:3,0:0:0:0:
53,265,4671,1,6,3:2:0:0:
484,38,5847,6,0,P|518:74|512:124,1,103.333333333333,6|2,3:2|0:2,0:0:0:0:
481,166,6142,1,10,0:2:0:0:
389,118,6338,1,2,0:2:0:0:
389,118,6436,2,0,B|332:109|332:109|297:138,1,103.333333333333,0|2,3:2|3:2,0:0:0:0:
253,165,6730,1,10,0:2:0:0:
163,112,6926,1,2,3:2:0:0:
38,202,7220,5,2,3:2:0:0:
38,202,7318,2,0,B|22:258|22:258|49:294,1,103.333333333333,10|2,0:2|3:2,0:0:0:0:
58,345,7613,1,2,3:2:0:0:
169,237,7907,1,10,0:2:0:0:
255,365,8201,6,0,B|306:352|306:352|308:348|308:348|351:336,1,103.333333333333,2|2,3:2|0:2,0:0:0:0:
393,353,8495,1,10,0:2:0:0:
482,298,8691,1,2,3:2:0:0:
482,298,8789,2,0,P|487:247|454:210,1,103.333333333333,2|2,3:2|3:2,0:0:0:0:
421,169,9083,1,10,3:2:0:0:
481,84,9279,1,2,3:2:0:0:
342,27,9573,5,2,3:2:0:0:
342,27,9671,2,0,B|297:38|297:38|298:34|298:34|246:48,1,103.333333333333,10|0,0:2|3:2,0:0:0:0:
201,22,9966,2,0,P|153:37|140:83,1,103.333333333333,2|0,0:2|3:2,0:0:0:0:
97,112,10260,2,0,P|86:160|120:194,1,103.333333333333,6|0,0:3|3:2,0:0:0:0:
171,207,10554,6,0,B|207:245|207:245|193:294,1,103.333333333333,6|2,3:2|0:2,0:0:0:0:
160,334,10848,1,10,0:2:0:0:
260,375,11044,1,2,0:2:0:0:
260,375,11142,2,0,P|303:347|351:328,1,103.333333333333,0|2,3:2|3:2,0:0:0:0:
374,282,11436,1,10,0:2:0:0:
467,326,11632,1,2,3:2:0:0:
475,175,11926,5,2,3:2:0:0:
475,175,12024,2,0,P|434:144|384:146,1,103.333333333333,10|2,0:2|3:2,0:0:0:0:
338,171,12319,1,2,3:2:0:0:
261,36,12613,1,10,0:2:0:0:
135,127,12907,6,0,P|118:175|135:223,1,103.333333333333,2|0,3:2|0:0,0:0:0:0:
181,245,13201,2,0,P|196:293|179:341,1,103.333333333333,10|2,0:2|3:2,0:0:0:0:
139,374,13495,1,2,3:2:0:0:
42,373,13691,1,2,3:2:0:0:
42,373,13789,2,0,B|22:262,1,103.333333333333,10|2,0:2|0:2,0:0:0:0:
44,224,14083,5,6,3:2:0:0:
124,91,14377,1,6,3:2:0:0:
221,210,14671,2,0,P|251:167|286:129,1,103.333333333333,6|2,3:2|3:2,0:0:0:0:
328,98,14966,1,8,3:1:0:0:
459,43,15259,6,0,P|444:107|440:172,1,131.750002512932,6|10,3:2|0:2,0:0:0:0:
485,263,15750,1,0,3:2:0:0:
485,263,15848,2,0,L|394:286,1,87.8333350086212,2|0,0:2|3:2,0:0:0:0:
377,327,16142,1,10,0:2:0:0:
297,281,16338,1,2,3:2:0:0:
297,281,16436,6,0,P|232:277|184:320,1,131.750002512932,2|10,3:2|0:2,0:0:0:0:
96,358,16926,2,0,P|83:315|65:275,1,87.8333350086212,2|0,3:2|0:0,0:0:0:0:
35,237,17220,1,2,3:2:0:0:
113,116,17514,1,2,3:2:0:0:
113,116,17613,6,0,B|197:139|197:139|207:182,1,131.750002512932,2|10,3:2|0:2,0:0:0:0:
275,258,18103,1,0,3:2:0:0:
275,258,18201,2,0,P|317:252|348:222,1,87.8333350086212,2|0,0:2|3:2,0:0:0:0:
386,191,18495,1,10,0:2:0:0:
377,101,18691,1,2,3:2:0:0:
377,101,18789,6,0,P|315:77|250:69,1,131.750002512932,2|10,3:2|0:2,0:0:0:0:
153,65,19279,2,0,L|171:155,1,87.8333350086212,2|0,3:2|0:0,0:0:0:0:
129,177,19573,1,2,3:2:0:0:
129,325,19867,1,2,3:2:0:0:
129,325,19966,6,0,P|190:337|234:291,1,131.750002512932,2|8,3:2|0:2,0:0:0:0:
249,199,20456,1,2,3:2:0:0:
249,199,20554,2,0,P|292:153|354:165,1,131.750002512932,2|8,0:2|0:2,0:0:0:0:
433,229,21044,1,2,3:2:0:0:
433,229,21142,6,0,L|407:336,1,87.8333350086212,2|2,3:2|0:2,0:0:0:0:
399,360,21436,1,10,0:2:0:0:
306,363,21632,1,2,3:2:0:0:
306,363,21730,2,0,L|199:337,1,87.8333350086212,2|0,0:2|3:2,0:0:0:0:
178,365,22024,1,10,0:2:0:0:
109,304,22220,1,2,3:2:0:0:
109,304,22318,6,0,B|133:227|63:246|85:170,1,131.750002512932,2|8,3:2|0:2,0:0:0:0:
61,91,22809,1,2,3:2:0:0:
61,91,22907,2,0,B|138:67|119:137|194:114,1,131.750002512932,2|8,0:2|0:2,0:0:0:0:
228,33,23397,1,2,3:2:0:0:
228,33,23495,6,0,P|268:15|311:25,1,87.8333350086212,2|2,3:2|0:2,0:0:0:0:
348,52,23789,1,10,0:2:0:0:
281,122,23985,1,2,3:2:0:0:
281,122,24083,2,0,P|263:163|248:204,1,87.8333350086212,2|0,0:2|3:2,0:0:0:0:
246,251,24377,1,6,0:3:0:0:
152,111,24671,6,0,L|59:123,1,92.9999971618653,6|0,3:2|0:0,0:0:0:0:
13,156,24966,2,0,L|0:248,1,92.9999971618653,10|0,0:2|3:2,0:0:0:0:
14,302,25260,1,2,0:2:0:0:
107,362,25456,1,2,3:2:0:0:
107,362,25554,2,0,P|140:331|142:286,1,92.9999971618653,10|2,0:2|3:2,0:0:0:0:
141,235,25848,6,0,P|208:216|277:205,1,139.499995742798,2|10,3:2|0:2,0:0:0:0:
335,120,26338,2,0,B|388:131|388:131|392:129|392:129|425:138,1,92.9999971618653,2|0,3:2|0:0,0:0:0:0:
462,173,26632,1,2,3:2:0:0:
500,326,26926,1,2,3:2:0:0:
500,326,27024,6,0,P|467:356|418:361,1,92.9999971618653,2|2,3:2|0:2,0:0:0:0:
392,318,27318,2,0,L|302:342,1,92.9999971618653,10|2,0:2|3:2,0:0:0:0:
251,354,27613,1,2,0:2:0:0:
232,258,27809,1,2,3:2:0:0:
232,258,27907,2,0,L|249:166,1,92.9999971618653,10|2,0:2|3:2,0:0:0:0:
270,118,28201,6,0,P|224:73|149:87,1,139.499995742798,2|10,3:2|0:2,0:0:0:0:
52,86,28691,2,0,P|81:122|88:167,1,92.9999971618653,2|0,3:2|0:0,0:0:0:0:
121,206,28985,2,0,P|91:241|84:286,1,92.9999971618653,2|0,3:2|0:0,0:0:0:0:
74,339,29279,1,2,3:2:0:0:
74,339,29377,6,0,B|121:360|121:360|206:338,1,139.499995742798,2|8,3:2|0:2,0:0:0:0:
260,249,29867,1,2,3:2:0:0:
260,249,29965,2,0,B|345:227|345:227|392:248,1,139.499995742798,2|8,0:2|0:2,0:0:0:0:
433,352,30456,1,2,3:2:0:0:
433,352,30554,6,0,P|475:340|496:284,1,92.9999971618653,2|2,3:2|0:2,0:0:0:0:
512,245,30848,2,0,P|479:213|434:215,1,92.9999971618653,10|2,0:2|3:2,0:0:0:0:
392,248,31142,2,0,P|359:279|314:277,1,92.9999971618653,2|0,0:2|3:2,0:0:0:0:
273,238,31436,1,10,0:2:0:0:
201,323,31632,1,2,3:2:0:0:
201,323,31730,6,0,B|128:302|128:302|125:306|125:306|51:288,1,139.499995742798,2|8,3:2|0:2,0:0:0:0:
23,195,32220,1,2,3:2:0:0:
23,195,32318,2,0,B|95:174|95:174|98:178|98:178|172:160,1,139.499995742798,2|8,0:2|0:2,0:0:0:0:
207,66,32809,1,2,3:2:0:0:
207,66,32907,6,0,P|250:78|274:117,1,92.9999971618653,2|2,3:2|0:2,0:0:0:0:
304,163,33201,1,6,0:3:0:0:
257,266,33397,1,10,0:3:0:0:
257,266,33494,2,0,L|358:289,1,92.9999971618653,2|0,0:3|3:2,0:0:0:0:
372,336,33789,1,6,3:2:0:0:
468,277,33985,1,0,3:2:0:0:
468,277,34083,5,4,3:2:0:0:
416,156,34377,2,0,P|463:137|511:123,2,100.749995388031,2|10|2,3:2|0:2|3:2,0:0:0:0:
333,53,35260,2,0,P|297:18|248:19,1,100.749995388031,2|2,3:2|3:2,0:0:0:0:
165,120,35848,1,10,0:2:0:0:
81,19,36142,1,2,3:2:0:0:
11,130,36436,6,0,B|-2:180|-2:180|28:218,1,100.749995388031,2|0,3:2|3:2,0:0:0:0:
23,349,37024,2,0,B|73:362|73:362|111:331,1,100.749995388031,10|0,0:2|3:2,0:0:0:0:
156,208,37613,2,0,P|203:224|250:243,1,100.749995388031,2|0,3:2|3:2,0:0:0:0:
304,362,38201,1,10,0:2:0:0:
367,247,38495,1,2,3:2:0:0:
492,326,38789,6,0,B|481:267|481:267|483:268|483:268|472:205,1,124,6|10,3:2|0:2,0:0:0:0:
428,65,39377,1,2,3:2:0:0:
357,134,39573,1,0,3:2:0:0:
357,134,39671,2,0,L|259:116,1,82.6666666666667,10|0,0:2|3:2,0:0:0:0:
241,155,39966,5,2,3:2:0:0:
96,33,40456,1,0,3:2:0:0:
96,33,40554,2,0,P|37:44|20:100,1,124,2|8,3:2|0:2,0:0:0:0:
18,248,41142,6,0,L|97:225,1,82.6666666666667,2|2,3:2|3:2,0:0:0:0:
229,259,41632,1,2,3:2:0:0:
303,146,41926,1,2,3:2:0:0:
303,146,42024,1,2,3:2:0:0:
381,201,42220,1,2,3:2:0:0:
381,201,42318,1,2,3:2:0:0:
491,16,43494,6,0,P|412:26|399:102,1,162.749995033264,6|10,3:2|0:2,0:0:0:0:
481,189,43985,1,2,3:2:0:0:
481,189,44083,2,0,P|400:203|329:243,1,162.749995033264,2|10,3:2|0:2,0:0:0:0:
220,280,44573,1,2,3:2:0:0:
220,280,44671,6,0,L|239:166,1,108.499996688843,2|0,3:2|0:0,0:0:0:0:
284,134,44966,1,10,0:2:0:0:
219,33,45162,2,0,P|156:9|103:44,1,108.499996688843,2|0,3:2|0:0,0:0:0:0:
72,56,45456,1,2,3:2:0:0:
72,56,45554,2,0,P|83:109|87:163,1,108.499996688843,10|2,0:2|3:2,0:0:0:0:
66,219,45848,6,0,B|117:208|117:208|114:211|114:211|165:202,1,108.499996688843,2|0,3:2|0:0,0:0:0:0:
202,248,46142,1,10,0:2:0:0:
292,169,46338,1,0,0:0:0:0:
292,169,46436,2,0,P|325:210|325:263,1,108.499996688843,2|0,3:2|3:2,0:0:0:0:
369,303,46730,2,0,P|410:269|463:269,1,108.499996688843,10|0,0:2|3:2,0:0:0:0:
503,226,47024,6,0,B|506:168|518:119,1,108.499996688843,2|2,3:2|0:2,0:0:0:0:
487,67,47318,1,10,0:2:0:0:
386,130,47515,1,0,3:2:0:0:
386,130,47613,2,0,B|329:130|329:130|294:92,1,108.499996688843,2|0,0:2|3:2,0:0:0:0:
278,34,47907,2,0,B|221:33|221:33|186:71,1,108.499996688843,10|2,0:2|3:2,0:0:0:0:
154,121,48201,6,0,P|84:92|31:148,1,162.749995033264,2|10,3:2|0:2,0:0:0:0:
10,269,48691,1,2,3:2:0:0:
10,269,48789,2,0,B|175:237,1,162.749995033264,2|10,3:2|0:2,0:0:0:0:
290,217,49279,1,2,3:2:0:0:
290,217,49377,6,0,P|303:255|309:333,1,108.499996688843,2|0,3:2|0:0,0:0:0:0:
345,369,49671,1,10,0:2:0:0:
451,314,49867,2,0,L|467:206,1,108.499996688843,2|0,3:2|0:0,0:0:0:0:
511,165,50162,1,2,3:2:0:0:
511,165,50260,1,10,0:2:0:0:
436,78,50456,1,2,3:2:0:0:
436,78,50554,6,0,B|379:82|379:82|381:84|381:84|320:90,1,108.499996688843,2|0,3:2|0:0,0:0:0:0:
281,57,50848,2,0,B|277:114|277:114|275:112|275:112|269:173,1,108.499996688843,10|0,0:2|3:2,0:0:0:0:
276,219,51142,1,2,3:2:0:0:
169,177,51338,1,0,3:2:0:0:
169,177,51436,1,10,0:2:0:0:
111,283,51632,1,0,3:2:0:0:
111,283,51730,6,0,P|60:266|38:218,1,108.499996688843,0|0,3:2|0:0,0:0:0:0:
11,165,52024,2,0,B|-8:126|-8:126|17:66,1,108.499996688843,12|0,0:2|3:2,0:0:0:0:
58,22,52318,1,6,3:2:0:0:
147,109,52514,1,2,3:2:0:0:
147,109,52613,1,10,0:2:0:0:
227,21,52808,1,2,3:2:0:0:
227,21,52906,6,0,P|275:-1|328:5,1,108.499996688843,6|2,3:2|0:2,0:0:0:0:
384,27,53201,2,0,P|366:78|361:131,1,108.499996688843,10|0,0:2|0:0,0:0:0:0:
308,160,53495,2,0,P|325:211|330:264,1,108.499996688843,2|0,3:2|0:0,0:0:0:0:
339,324,53789,1,10,0:2:0:0:
241,265,53985,1,2,3:2:0:0:
241,265,54083,6,0,P|188:268|156:309,1,108.499996688843,2|0,3:2|0:0,0:0:0:0:
121,357,54377,2,0,P|68:353|36:312,1,108.499996688843,10|0,0:2|0:0,0:0:0:0:
7,259,54671,1,2,3:2:0:0:
94,177,54867,1,0,0:0:0:0:
94,177,54966,1,10,0:2:0:0:
20,90,55162,1,2,0:2:0:0:
20,90,55260,6,0,B|52:52|52:52|125:57,1,108.499996688843,2|0,3:2|0:0,0:0:0:0:
152,13,55554,2,0,B|201:8|201:8|249:63,1,108.499996688843,10|0,0:2|0:0,0:0:0:0:
299,54,55848,2,0,B|337:86|337:86|332:159,1,108.499996688843,2|0,3:2|0:0,0:0:0:0:
316,201,56142,1,10,0:2:0:0:
262,309,56338,1,2,3:2:0:0:
262,309,56436,6,0,P|337:296|377:362,1,162.749995033264,2|8,3:2|0:2,0:0:0:0:
500,367,56926,1,2,0:2:0:0:
500,367,57024,2,0,L|459:250,1,108.499996688843,2|0,3:2|0:0,0:0:0:0:
496,214,57318,1,4,0:2:0:0:
504,98,57514,1,2,0:2:0:0:
504,98,57612,6,0,P|451:94|409:127,1,108.499996688843,6|2,3:2|0:2,0:0:0:0:
384,180,57907,2,0,P|331:183|289:150,1,108.499996688843,10|2,0:2|0:2,0:0:0:0:
277,91,58201,1,2,3:2:0:0:
174,148,58397,1,0,0:0:0:0:
174,148,58495,1,10,0:2:0:0:
85,76,58691,1,2,0:2:0:0:
85,76,58789,6,0,P|70:128|58:181,1,108.499996688843,6|2,3:2|0:2,0:0:0:0:
10,216,59083,2,0,P|24:268|36:321,1,108.499996688843,10|2,0:2|3:2,0:0:0:0:
75,366,59377,1,2,3:2:0:0:
155,278,59573,1,0,0:0:0:0:
155,278,59671,1,10,0:2:0:0:
240,359,59867,1,2,3:2:0:0:
240,359,59966,6,0,B|355:338|355:338|375:291,1,162.749995033264,2|8,3:2|0:2,0:0:0:0:
382,180,60456,1,2,0:2:0:0:
382,180,60554,2,0,B|294:159|322:249|230:225,1,162.749995033264,2|8,3:2|0:2,0:0:0:0:
133,178,61044,1,2,3:2:0:0:
133,178,61142,6,0,B|110:302|110:302|144:330,2,162.749995033264,6|8|8,3:2|3:1|3:1,0:0:0:0:
224,101,61926,1,0,3:2:0:0:
224,101,62024,1,2,3:2:0:0:
241,254,62318,6,0,P|293:250|323:290,1,103.333333333333,6|2,3:2|0:2,0:0:0:0:
349,330,62612,1,10,0:2:0:0:
432,268,62808,1,2,0:2:0:0:
432,268,62906,2,0,L|418:165,1,103.333333333333,0|2,3:2|3:2,0:0:0:0:
383,127,63200,1,10,0:2:0:0:
435,38,63396,1,2,3:2:0:0:
285,22,63690,5,2,3:2:0:0:
285,22,63788,2,0,B|263:45|263:45|192:31,1,103.333333333333,10|2,0:2|3:2,0:0:0:0:
145,8,64083,1,2,3:2:0:0:
184,157,64377,1,10,0:2:0:0:
30,135,64671,6,0,P|43:187|47:243,1,103.333333333333,2|2,3:2|0:2,0:0:0:0:
20,281,64965,1,10,0:2:0:0:
96,350,65161,1,2,3:2:0:0:
96,350,65259,2,0,P|128:309|179:314,1,103.333333333333,2|2,3:2|3:2,0:0:0:0:
209,350,65553,1,10,3:2:0:0:
286,281,65749,1,2,3:2:0:0:
411,371,66043,5,2,3:2:0:0:
411,371,66141,2,0,L|395:268,1,103.333333333333,10|0,0:2|3:2,0:0:0:0:
428,227,66436,2,0,P|390:191|337:197,1,103.333333333333,2|0,0:2|3:2,0:0:0:0:
332,143,66730,2,0,P|279:144|246:185,1,103.333333333333,14|0,0:2|3:2,0:0:0:0:
220,223,67024,6,0,B|165:208|165:208|166:211|166:211|122:201,1,103.333333333333,6|2,3:2|0:2,0:0:0:0:
80,245,67318,1,10,0:2:0:0:
7,171,67514,1,2,0:2:0:0:
7,171,67612,2,0,P|26:123|75:104,1,103.333333333333,0|2,3:2|3:2,0:0:0:0:
101,62,67906,1,10,0:2:0:0:
169,139,68102,1,2,3:2:0:0:
250,7,68396,5,2,3:2:0:0:
250,7,68494,2,0,P|302:18|354:34,1,103.333333333333,10|2,0:2|3:2,0:0:0:0:
394,60,68789,1,2,3:2:0:0:
263,144,69083,1,10,0:2:0:0:
361,263,69377,6,0,P|326:224|275:236,1,103.333333333333,2|0,3:2|0:0,0:0:0:0:
264,281,69671,2,0,P|229:319|178:307,1,103.333333333333,10|2,0:2|3:2,0:0:0:0:
142,277,69965,1,2,3:2:0:0:
44,243,70161,1,2,3:2:0:0:
44,243,70259,2,0,P|54:189|72:138,1,103.333333333333,10|2,0:2|3:2,0:0:0:0:
109,109,70554,6,0,L|99:55,2,51.6666666666667,14|2|2,0:2|0:2|0:2,0:0:0:0:
154,132,70848,2,0,L|144:186,2,51.6666666666667,10|2|2,0:2|0:2|3:2,0:0:0:0:
196,102,71142,1,2,3:2:0:0:
290,56,71338,1,2,3:2:0:0:
290,56,71436,2,0,P|339:77|383:111,1,103.333333333333,6|0,3:2|0:0,0:0:0:0:
425,88,71730,6,0,L|409:190,1,103.333333333333,6|2,3:2|0:2,0:0:0:0:
419,240,72024,1,10,0:2:0:0:
351,318,72220,1,2,0:2:0:0:
351,318,72318,2,0,L|244:298,1,103.333333333333,0|2,3:2|3:2,0:0:0:0:
218,257,72612,1,10,0:2:0:0:
155,339,72808,1,2,3:2:0:0:
33,242,73102,5,2,3:2:0:0:
33,242,73200,2,0,P|51:192|100:175,1,103.333333333333,10|2,0:2|3:2,0:0:0:0:
146,188,73495,1,2,3:2:0:0:
197,42,73789,1,10,0:2:0:0:
302,155,74083,6,0,P|351:134|406:121,1,103.333333333333,2|2,3:2|0:2,0:0:0:0:
435,85,74377,1,10,0:2:0:0:
491,171,74573,1,2,3:2:0:0:
491,171,74671,2,0,L|466:293,1,103.333333333333,2|2,3:2|3:2,0:0:0:0:
470,323,74965,1,10,3:2:0:0:
381,270,75161,1,2,3:2:0:0:
264,372,75455,5,2,3:2:0:0:
264,372,75553,2,0,P|224:340|174:343,1,103.333333333333,10|0,0:2|3:2,0:0:0:0:
125,362,75848,2,0,L|151:257,1,103.333333333333,2|0,0:2|3:2,0:0:0:0:
195,236,76142,2,0,L|168:131,1,103.333333333333,14|0,0:2|3:2,0:0:0:0:
187,87,76436,6,0,P|165:42|115:37,1,103.333333333333,6|2,3:2|0:2,0:0:0:0:
77,71,76730,1,10,0:2:0:0:
6,146,76926,1,2,0:2:0:0:
6,146,77024,2,0,P|22:194|32:244,1,103.333333333333,0|2,3:2|3:2,0:0:0:0:
38,296,77318,1,10,0:2:0:0:
126,349,77514,1,2,3:2:0:0:
225,230,77808,5,2,3:2:0:0:
225,230,77907,2,0,P|244:182|268:136,1,103.333333333333,10|2,0:2|3:2,0:0:0:0:
314,113,78201,1,2,3:2:0:0:
453,181,78495,1,10,0:2:0:0:
465,335,78789,6,0,P|415:341|380:306,1,103.333333333333,2|0,3:2|0:0,0:0:0:0:
353,262,79083,2,0,P|303:255|268:290,1,103.333333333333,10|2,0:2|3:2,0:0:0:0:
247,337,79377,1,2,3:2:0:0:
171,274,79573,1,2,3:2:0:0:
171,274,79671,2,0,B|159:223,2,51.6666666666667,10|0|2,0:2|3:2|3:2,0:0:0:0:
136,312,79966,5,6,3:2:0:0:
46,185,80260,1,6,3:2:0:0:
127,48,80554,1,6,3:2:0:0:
