osu file format v14

[General]
AudioFilename: audio.ogg
AudioLeadIn: 0
PreviewTime: 58705
Countdown: 0
SampleSet: Soft
StackLeniency: 0.7
Mode: 3
LetterboxInBreaks: 0
SpecialStyle: 0
WidescreenStoryboard: 1

[Editor]
DistanceSpacing: 1
BeatDivisor: 4
GridSize: 4
TimelineZoom: 2

[Metadata]
Title:Inochi ni Kirawarete Iru.
TitleUnicode:命に嫌われている。
Artist:25-ji, Nightcord de. x Hatsune Miku
ArtistUnicode:25時、ナイトコードで。 × 初音ミク
Creator:ML-ysg
Version:Hated by life
Source:プロジェクトセカイ カラフルステージ! feat. 初音ミク
Tags:japanese video game size cut short ver j-pop pop jpop vocaloid Hated by life Itself Iori Kanzaki カンザキイオリ Project Sekai Colorful Stage! feat. Hatsune Miku SEGA Craft Egg Crypton Future Media at 25:00 藤田 咲 Fujita Saki 宵崎 奏 Yoisaki Kanade 楠木ともり Kusunoki Tomori 朝比奈 まふゆ Asahina Mafuyu 田边 留依 Tanabe Rui 東雲 絵名 Shinonome Ena 鈴木 みのり Suzuki Minori 暁山 瑞希 Akiyama Mizuki 佐藤 日向 Sato Hinata
BeatmapID:4301473
BeatmapSetID:2058130

[Difficulty]
HPDrainRate:8
CircleSize:4
OverallDifficulty:8
ApproachRate:5
SliderMultiplier:1.4
SliderTickRate:1

[Events]
//Background and Video events
0,0,"ming.jpg",0,0
//Break Periods
//Storyboard Layer 0 (Background)
//Storyboard Layer 1 (Fail)
//Storyboard Layer 2 (Pass)
//Storyboard Layer 3 (Foreground)
//Storyboard Layer 4 (Overlay)
//Storyboard Sound Samples
Sample,15280,0,"Edge.wav",50
Sample,20080,0,"Edge.wav",50
Sample,82480,0,"Edge.wav",50
Sample,87280,0,"Edge.wav",50

[TimingPoints]
1180,300,4,2,1,50,1,0
58780,-100,4,2,1,50,0,1
77980,-100,4,2,1,50,0,0

[HitObjects]
320,192,580,128,0,880:0:0:0:0:
192,192,880,128,0,1205:0:0:0:0:
64,192,1205,128,0,1655:0:0:0:0:
448,192,1205,128,0,2405:0:0:0:0:
320,192,1655,128,0,2105:0:0:0:0:
192,192,2105,128,0,2405:0:0:0:0:
64,192,2405,128,0,3605:0:0:0:0:
320,192,2405,128,0,2880:0:0:0:0:
448,192,2880,128,0,3305:0:0:0:0:
192,192,3305,128,0,3605:0:0:0:0:
320,192,3605,128,0,5080:0:0:0:0:
448,192,3605,128,0,6005:0:0:0:0:
64,192,5080,128,0,5405:0:0:0:0:
192,192,5405,128,0,5705:0:0:0:0:
320,192,5705,128,0,6005:0:0:0:0:
64,192,6005,128,0,7180:0:0:0:0:
192,192,6005,128,0,6880:0:0:0:0:
448,192,6880,128,0,7180:0:0:0:0:
192,192,7180,128,0,7655:0:0:0:0:
320,192,7180,128,0,8405:0:0:0:0:
448,192,7655,128,0,8080:0:0:0:0:
64,192,8080,128,0,8405:0:0:0:0:
192,192,8405,128,0,8980:0:0:0:0:
448,192,8405,128,0,9455:0:0:0:0:
320,192,9455,1,0,0:0:0:0:
192,192,9505,1,0,0:0:0:0:
64,192,9580,128,0,10180:0:0:0:0:
320,192,10180,128,0,10480:0:0:0:0:
64,192,10330,1,2,0:0:0:0:
192,192,10330,1,0,0:0:0:0:
64,192,10480,1,8,0:0:0:0:
192,192,10480,1,0,0:0:0:0:
448,192,10480,128,0,10780:0:0:0:0:
64,192,10780,1,2,0:0:0:0:
192,192,10780,128,4,10930:0:0:0:0:
320,192,10780,128,0,11080:0:0:0:0:
448,192,10930,128,0,11080:0:0:0:0:
64,192,11080,1,2,0:0:0:0:
192,192,11080,1,0,0:0:0:0:
64,192,11230,1,0,0:0:0:50:Edge.wav
448,192,11230,128,0,11680:0:0:0:0:
192,192,11380,1,2,0:0:0:0:
320,192,11380,1,0,0:0:0:0:
64,192,11680,1,2,0:0:0:0:
192,192,11680,128,0,12130:0:0:0:50:Edge.wav
320,192,11980,1,2,0:0:0:0:
448,192,11980,1,0,0:0:0:0:
64,192,12130,128,0,12580:0:0:0:0:
320,192,12280,1,2,0:0:0:0:
448,192,12280,1,0,0:0:0:0:
192,192,12430,1,0,0:0:0:50:Edge.wav
448,192,12430,1,0,0:0:0:0:
192,192,12580,1,2,0:0:0:0:
320,192,12580,128,0,12880:0:0:0:0:
448,192,12730,1,0,0:0:0:0:
64,192,12880,1,2,0:0:0:0:
192,192,12880,128,0,13180:0:0:0:50:Edge.wav
320,192,13030,1,0,0:0:0:0:
64,192,13180,1,2,0:0:0:0:
448,192,13180,128,0,13630:0:0:0:0:
192,192,13330,1,0,0:0:0:0:
64,192,13480,1,2,0:0:0:0:
320,192,13480,1,0,0:0:0:0:
64,192,13630,128,0,14080:0:0:0:50:Edge.wav
192,192,13630,1,0,0:0:0:0:
320,192,13780,1,2,0:0:0:0:
448,192,13780,1,0,0:0:0:0:
192,192,13930,1,0,0:0:0:0:
320,192,14080,128,2,14530:0:0:0:0:
448,192,14080,1,0,0:0:0:50:Edge.wav
192,192,14230,1,0,0:0:0:0:
64,192,14380,1,2,0:0:0:0:
448,192,14380,1,0,0:0:0:0:
192,192,14530,128,0,14980:0:0:0:0:
64,192,14680,1,2,0:0:0:0:
448,192,14680,1,0,0:0:0:50:Edge.wav
320,192,14830,1,0,0:0:0:0:
64,192,14980,1,2,0:0:0:0:
448,192,14980,128,0,15280:0:0:0:50:Edge.wav
192,192,15130,1,0,0:0:0:0:
64,192,15280,128,2,15580:0:0:0:0:
320,192,15280,1,0,0:0:0:50:Hat Open.wav
192,192,15580,1,2,0:0:0:0:
448,192,15580,128,0,16030:0:0:0:0:
64,192,15730,1,0,0:0:0:0:
64,192,15880,1,2,0:0:0:0:
320,192,15880,1,0,0:0:0:0:
192,192,16030,128,0,16480:0:0:0:50:Edge.wav
320,192,16030,1,0,0:0:0:0:
64,192,16180,1,2,0:0:0:0:
448,192,16180,1,0,0:0:0:0:
64,192,16330,1,0,0:0:0:0:
320,192,16480,128,2,16780:0:0:0:0:
448,192,16480,1,0,0:0:0:50:Edge.wav
64,192,16780,128,2,17230:0:0:0:0:
192,192,16780,1,0,0:0:0:0:
320,192,16930,1,0,0:0:0:0:
192,192,17080,1,2,0:0:0:0:
448,192,17080,1,0,0:0:0:0:
192,192,17230,1,0,0:0:0:50:Hat Open.wav
320,192,17230,128,0,17680:0:0:0:50:Edge.wav
64,192,17380,1,2,0:0:0:0:
448,192,17380,1,0,0:0:0:0:
448,192,17530,1,0,0:0:0:0:
64,192,17680,1,2,0:0:0:0:
192,192,17680,128,0,17980:0:0:0:50:Edge.wav
320,192,17830,1,0,0:0:0:0:
64,192,17980,1,2,0:0:0:0:
448,192,17980,128,0,19180:0:0:0:0:
64,192,18280,1,2,0:0:0:0:
192,192,18280,1,0,0:0:0:0:
64,192,18430,1,0,0:0:0:50:Edge.wav
320,192,18430,1,0,0:0:0:0:
192,192,18580,1,2,0:0:0:0:
320,192,18580,1,0,0:0:0:0:
64,192,18730,1,0,0:0:0:0:
64,192,18880,1,2,0:0:0:0:
320,192,18880,1,0,0:0:0:50:Edge.wav
192,192,19030,1,0,0:0:0:0:
64,192,19180,128,2,19480:0:0:0:0:
320,192,19180,1,0,0:0:0:0:
448,192,19330,1,0,0:0:0:0:
192,192,19480,128,2,19780:0:0:0:0:
320,192,19480,1,0,0:0:0:50:Edge.wav
64,192,19630,1,0,0:0:0:0:
320,192,19780,128,2,20080:0:0:0:0:
448,192,19780,1,0,0:0:0:50:Edge.wav
192,192,19930,1,0,0:0:0:0:
64,192,20080,1,2,0:0:0:0:
448,192,20080,128,0,20380:0:0:0:50:Hat Open.wav
64,192,20380,128,2,20455:0:0:0:0:
192,192,20380,128,4,20455:0:0:0:0:
320,192,20380,1,0,0:0:0:0:
64,192,20530,128,0,20605:0:0:0:0:
64,192,20680,128,2,20980:0:0:0:0:
320,192,20680,1,0,0:0:0:0:
192,192,20830,1,0,0:0:0:50:Edge.wav
448,192,20830,128,0,20905:0:0:0:0:
320,192,20980,1,2,0:0:0:0:
448,192,20980,128,0,21280:0:0:0:0:
64,192,21280,128,2,21355:0:0:0:0:
192,192,21280,128,0,21355:0:0:0:50:Edge.wav
320,192,21430,128,0,21505:0:0:0:0:
64,192,21580,128,2,21655:0:0:0:0:
448,192,21580,128,0,21655:0:0:0:0:
192,192,21730,128,0,21805:0:0:0:0:
192,192,21880,128,2,22180:0:0:0:0:
448,192,21880,1,0,0:0:0:0:
64,192,22030,1,0,0:0:0:50:Edge.wav
320,192,22030,128,0,22105:0:0:0:0:
64,192,22180,1,2,0:0:0:0:
448,192,22180,1,0,0:0:0:0:
320,192,22330,1,0,0:0:0:0:
64,192,22480,1,2,0:0:0:0:
192,192,22480,128,0,22555:0:0:0:50:Edge.wav
320,192,22630,1,0,0:0:0:0:
64,192,22780,128,2,22855:0:0:0:0:
448,192,22780,128,0,22855:0:0:0:0:
192,192,22930,128,0,23005:0:0:0:0:
320,192,23080,1,2,0:0:0:0:
448,192,23080,128,0,23155:0:0:0:0:
192,192,23230,1,0,0:0:0:50:Edge.wav
448,192,23230,128,0,23305:0:0:0:0:
64,192,23380,1,2,0:0:0:0:
448,192,23380,128,0,23680:0:0:0:0:
192,192,23680,128,2,23755:0:0:0:0:
320,192,23680,1,0,0:0:0:50:Edge.wav
64,192,23830,128,0,23905:0:0:0:0:
320,192,23980,128,2,24055:0:0:0:0:
448,192,23980,1,0,0:0:0:0:
64,192,24130,128,0,24205:0:0:0:0:
64,192,24280,128,2,24580:0:0:0:0:
448,192,24280,128,0,24580:0:0:0:50:Edge.wav
192,192,24580,1,2,0:0:0:0:
320,192,24580,128,0,24880:0:0:0:50:Edge.wav
64,192,24880,128,2,25180:0:0:0:0:
192,192,24880,128,0,25180:0:0:0:50:Edge.wav
320,192,25180,128,2,25480:0:0:0:0:
448,192,25180,128,0,25480:0:0:0:0:
64,192,25480,128,2,25555:0:0:0:0:
192,192,25480,1,0,0:0:0:0:
320,192,25630,128,0,25705:0:0:0:50:Edge.wav
448,192,25630,1,0,0:0:0:0:
64,192,25780,1,2,0:0:0:0:
192,192,25780,128,0,25855:0:0:0:0:
192,192,25930,128,0,26005:0:0:0:0:
64,192,26080,128,2,26155:0:0:0:0:
448,192,26080,128,0,26380:0:0:0:50:Edge.wav
192,192,26380,128,2,26680:0:0:0:0:
320,192,26380,128,0,26455:0:0:0:0:
64,192,26680,1,2,0:0:0:0:
320,192,26680,128,0,26980:0:0:0:0:
64,192,26830,128,0,26905:0:0:0:50:Edge.wav
448,192,26830,1,0,0:0:0:0:
192,192,26980,1,2,0:0:0:0:
448,192,26980,1,0,0:0:0:0:
64,192,27280,128,2,27355:0:0:0:0:
320,192,27280,128,0,27355:0:0:0:50:Edge.wav
64,192,27430,128,0,27505:0:0:0:0:
192,192,27580,128,2,27655:0:0:0:0:
320,192,27580,128,0,27880:0:0:0:0:
64,192,27880,1,2,0:0:0:0:
448,192,27880,128,0,27955:0:0:0:0:
192,192,28030,128,0,28330:0:0:0:50:Edge.wav
320,192,28030,1,0,0:0:0:0:
64,192,28180,1,2,0:0:0:0:
448,192,28180,1,0,0:0:0:0:
320,192,28330,128,0,28405:0:0:0:0:
64,192,28480,1,2,0:0:0:0:
320,192,28480,128,0,28780:0:0:0:50:Edge.wav
192,192,28780,1,2,0:0:0:0:
448,192,28780,1,0,0:0:0:0:
320,192,28930,1,0,0:0:0:0:
64,192,29080,1,2,0:0:0:0:
448,192,29080,1,0,0:0:0:50:Edge.wav
192,192,29230,1,0,0:0:0:0:
320,192,29380,128,2,29680:0:0:0:0:
448,192,29380,128,0,29680:0:0:0:50:Edge.wav
64,192,29680,128,2,29980:0:0:0:0:
192,192,29680,128,0,29980:0:0:0:50:Edge.wav
320,192,29980,128,2,30055:0:0:0:0:
448,192,29980,128,0,30055:0:0:0:0:
320,192,30130,128,0,30205:0:0:0:0:
192,192,30280,1,2,0:0:0:0:
320,192,30280,128,0,30355:0:0:0:0:
64,192,30430,128,0,30505:0:0:0:50:Edge.wav
448,192,30430,128,0,30505:0:0:0:0:
192,192,30580,128,2,30880:0:0:0:0:
320,192,30580,1,0,0:0:0:0:
64,192,30880,128,2,30955:0:0:0:0:
448,192,30880,128,0,30955:0:0:0:50:Edge.wav
320,192,31030,128,0,31105:0:0:0:0:
192,192,31180,128,2,31255:0:0:0:0:
448,192,31180,128,0,31255:0:0:0:0:
64,192,31330,128,0,31405:0:0:0:0:
64,192,31480,128,2,31780:0:0:0:0:
448,192,31480,1,0,0:0:0:0:
192,192,31630,1,0,0:0:0:50:Edge.wav
320,192,31630,1,0,0:0:0:0:
320,192,31780,128,2,31855:0:0:0:0:
448,192,31780,1,0,0:0:0:0:
192,192,31930,1,0,0:0:0:0:
64,192,32080,128,2,32155:0:0:0:0:
448,192,32080,128,0,32155:0:0:0:50:Edge.wav
448,192,32230,128,0,32305:0:0:0:0:
192,192,32380,128,2,32455:0:0:0:0:
320,192,32380,128,0,32455:0:0:0:0:
192,192,32530,128,0,32605:0:0:0:0:
192,192,32680,128,2,32980:0:0:0:0:
448,192,32680,1,0,0:0:0:0:
64,192,32830,1,0,0:0:0:50:Edge.wav
320,192,32830,128,0,32905:0:0:0:0:
64,192,32980,1,2,0:0:0:0:
448,192,32980,128,0,33055:0:0:0:0:
448,192,33130,128,0,33205:0:0:0:0:
64,192,33280,128,2,33355:0:0:0:0:
448,192,33280,128,0,33355:0:0:0:50:Edge.wav
192,192,33430,128,0,33505:0:0:0:0:
320,192,33580,1,2,0:0:0:0:
448,192,33580,128,0,33655:0:0:0:0:
64,192,33730,128,0,33805:0:0:0:0:
192,192,33730,128,0,33805:0:0:0:0:
64,192,33880,128,2,34180:0:0:0:0:
448,192,33880,1,0,0:0:0:50:Edge.wav
192,192,34180,1,2,0:0:0:0:
320,192,34180,128,0,34480:0:0:0:50:Edge.wav
64,192,34480,128,2,34555:0:0:0:0:
448,192,34480,128,0,34555:0:0:0:50:Edge.wav
64,192,34630,128,0,34705:0:0:0:0:
192,192,34780,128,2,34855:0:0:0:0:
320,192,34780,128,0,35080:0:0:0:0:
64,192,35080,128,2,35155:0:0:0:0:
448,192,35080,1,0,0:0:0:0:
192,192,35230,128,0,35305:0:0:0:50:Edge.wav
320,192,35230,128,0,35305:0:0:0:0:
64,192,35380,1,2,0:0:0:0:
448,192,35380,128,0,35455:0:0:0:0:
448,192,35530,128,0,35605:0:0:0:0:
192,192,35680,128,2,35755:0:0:0:0:
320,192,35680,128,0,35755:0:0:0:50:Edge.wav
64,192,35980,128,2,36055:0:0:0:0:
448,192,35980,128,0,36055:0:0:0:0:
192,192,36130,128,0,36205:0:0:0:0:
192,192,36280,128,2,36580:0:0:0:0:
320,192,36280,1,0,0:0:0:0:
64,192,36430,1,0,0:0:0:50:Edge.wav
448,192,36430,128,0,36505:0:0:0:0:
64,192,36580,1,2,0:0:0:0:
320,192,36580,1,0,0:0:0:0:
192,192,36730,1,0,0:0:0:0:
64,192,36880,128,2,37030:0:0:0:0:
448,192,36880,128,0,36955:0:0:0:50:Edge.wav
192,192,37180,128,2,37480:0:0:0:0:
320,192,37180,128,0,37255:0:0:0:0:
64,192,37480,1,2,0:0:0:0:
448,192,37480,128,0,37555:0:0:0:0:
64,192,37630,128,0,37780:0:0:0:50:Edge.wav
192,192,37630,1,0,0:0:0:0:
320,192,37780,1,2,0:0:0:0:
448,192,37780,1,0,0:0:0:0:
192,192,37930,128,0,38005:0:0:0:0:
192,192,38080,128,2,38380:0:0:0:0:
448,192,38080,1,0,0:0:0:50:Edge.wav
64,192,38380,1,2,0:0:0:0:
320,192,38380,128,0,38680:0:0:0:0:
192,192,38530,1,0,0:0:0:0:
64,192,38680,128,2,38980:0:0:0:0:
448,192,38680,1,0,0:0:0:50:Edge.wav
320,192,38830,1,0,0:0:0:0:
192,192,38980,1,2,0:0:0:0:
448,192,38980,128,0,39280:0:0:0:50:Edge.wav
320,192,39130,1,0,0:0:0:0:
64,192,39280,1,2,0:0:0:0:
192,192,39280,128,0,39580:0:0:0:50:Edge.wav
448,192,39430,1,0,0:0:0:0:
64,192,39580,1,2,0:0:0:0:
320,192,39580,128,4,40030:0:0:0:0:
448,192,39580,1,0,0:0:0:0:
192,192,39730,1,0,0:0:0:0:
448,192,39880,1,0,0:0:0:0:
64,192,40030,1,2,0:0:0:0:
192,192,40030,128,0,40330:0:0:0:0:
448,192,40180,1,0,0:0:0:0:
320,192,40330,1,0,0:0:0:0:
64,192,40480,1,8,0:0:0:0:
192,192,40480,1,0,0:0:0:0:
448,192,40480,1,0,0:0:0:0:
320,192,40630,1,0,0:0:0:0:
64,192,40780,128,2,41680:0:0:0:0:
192,192,40780,128,0,41080:0:0:0:0:
448,192,41080,1,0,0:0:0:0:
192,192,41230,1,2,0:0:0:0:
320,192,41230,1,0,0:0:0:0:
448,192,41380,1,0,0:0:0:0:
192,192,41530,1,2,0:0:0:0:
320,192,41530,1,0,0:0:0:0:
192,192,41680,1,0,0:0:0:50:Edge.wav
448,192,41680,1,0,0:0:0:0:
64,192,41830,1,2,0:0:0:0:
320,192,41830,1,0,0:0:0:0:
192,192,41980,128,2,42430:0:0:0:0:
448,192,41980,1,0,0:0:0:0:
320,192,42130,1,0,0:0:0:0:
64,192,42280,1,0,0:0:0:0:
320,192,42430,1,2,0:0:0:0:
448,192,42430,1,0,0:0:0:0:
64,192,42580,1,0,0:0:0:0:
192,192,42730,1,0,0:0:0:0:
64,192,42880,1,8,0:0:0:0:
320,192,42880,1,0,0:0:0:0:
448,192,42880,1,0,0:0:0:0:
192,192,43030,1,0,0:0:0:0:
320,192,43180,1,2,0:0:0:0:
448,192,43180,128,0,44080:0:0:0:0:
64,192,43330,1,2,0:0:0:0:
192,192,43330,1,0,0:0:0:0:
320,192,43480,1,0,0:0:0:0:
64,192,43630,1,2,0:0:0:0:
192,192,43630,1,0,0:0:0:0:
64,192,43780,1,0,0:0:0:50:Edge.wav
320,192,43780,1,0,0:0:0:0:
192,192,43930,1,2,0:0:0:0:
320,192,43930,1,0,0:0:0:0:
64,192,44080,1,8,0:0:0:0:
192,192,44080,1,0,0:0:0:0:
320,192,44080,1,0,0:0:0:0:
448,192,44230,1,0,0:0:0:0:
192,192,44380,128,2,44830:0:0:0:0:
320,192,44380,1,0,0:0:0:0:
64,192,44530,1,0,0:0:0:0:
320,192,44680,1,0,0:0:0:0:
64,192,44830,1,2,0:0:0:0:
448,192,44830,1,0,0:0:0:0:
320,192,44980,128,0,45280:0:0:0:0:
64,192,45280,1,8,0:0:0:0:
192,192,45280,1,0,0:0:0:0:
448,192,45280,1,0,0:0:0:0:
320,192,45430,1,0,0:0:0:0:
64,192,45580,1,2,0:0:0:0:
448,192,45580,128,0,46480:0:0:0:0:
192,192,45730,1,0,0:0:0:0:
64,192,45880,128,0,46180:0:0:0:0:
192,192,46030,1,2,0:0:0:0:
320,192,46030,1,0,0:0:0:0:
320,192,46180,128,0,46480:0:0:0:0:
64,192,46330,1,2,0:0:0:0:
192,192,46330,1,0,0:0:0:0:
64,192,46480,1,0,0:0:0:50:Edge.wav
192,192,46480,1,0,0:0:0:0:
320,192,46630,1,0,0:0:0:0:
64,192,46780,128,2,47230:0:0:0:0:
448,192,46780,128,0,47080:0:0:0:0:
192,192,47080,1,0,0:0:0:0:
320,192,47230,1,2,0:0:0:0:
448,192,47230,1,0,0:0:0:0:
320,192,47380,128,0,47680:0:0:0:0:
64,192,47680,1,8,0:0:0:0:
192,192,47680,1,0,0:0:0:0:
448,192,47680,1,0,0:0:0:0:
320,192,47830,1,0,0:0:0:0:
64,192,47980,128,2,48280:0:0:0:0:
192,192,47980,128,0,48580:0:0:0:0:
320,192,48130,1,2,0:0:0:0:
448,192,48130,1,0,0:0:0:0:
320,192,48280,1,0,0:0:0:50:Edge.wav
64,192,48430,1,2,0:0:0:0:
448,192,48430,1,0,0:0:0:0:
64,192,48580,1,0,0:0:0:50:Edge.wav
320,192,48580,1,0,0:0:0:0:
192,192,48730,1,2,0:0:0:0:
320,192,48730,1,0,0:0:0:0:
64,192,48880,1,8,0:0:0:0:
192,192,48880,1,0,0:0:0:0:
448,192,48880,1,0,0:0:0:0:
64,192,49180,1,2,0:0:0:0:
320,192,49180,128,4,50380:0:0:0:0:
448,192,49180,1,0,0:0:0:0:
64,192,49330,128,0,49630:0:0:0:0:
192,192,49480,1,2,0:0:0:0:
448,192,49480,1,0,0:0:0:0:
192,192,49630,1,0,0:0:0:0:
64,192,49780,1,2,0:0:0:0:
448,192,49780,1,0,0:0:0:0:
192,192,49930,1,0,0:0:0:0:
64,192,50080,1,2,0:0:0:0:
448,192,50080,1,0,0:0:0:0:
448,192,50230,1,0,0:0:0:0:
64,192,50380,1,2,0:0:0:0:
192,192,50380,128,0,51580:0:0:0:0:
448,192,50530,1,0,0:0:0:0:
64,192,50680,1,2,0:0:0:0:
320,192,50680,1,0,0:0:0:0:
320,192,50830,1,0,0:0:0:0:
64,192,50980,128,2,51280:0:0:0:0:
448,192,50980,1,0,0:0:0:0:
320,192,51280,128,2,51580:0:0:0:0:
448,192,51280,1,0,0:0:0:0:
64,192,51580,1,2,0:0:0:0:
448,192,51580,128,0,52480:0:0:0:0:
192,192,51730,1,0,0:0:0:0:
64,192,51880,1,2,0:0:0:0:
320,192,51880,1,0,0:0:0:0:
192,192,52030,1,0,0:0:0:0:
64,192,52180,128,2,52480:0:0:0:0:
320,192,52180,1,0,0:0:0:0:
192,192,52480,128,2,53080:0:0:0:0:
320,192,52480,1,0,0:0:0:0:
448,192,52630,1,0,0:0:0:0:
64,192,52780,1,2,0:0:0:0:
320,192,52780,1,0,0:0:0:0:
448,192,52930,1,0,0:0:0:0:
64,192,53080,1,2,0:0:0:0:
448,192,53080,128,0,53380:0:0:0:0:
320,192,53230,1,0,0:0:0:0:
64,192,53380,128,2,53680:0:0:0:0:
192,192,53380,1,0,0:0:0:0:
320,192,53530,1,0,0:0:0:50:Edge.wav
448,192,53530,1,0,0:0:0:0:
192,192,53680,1,2,0:0:0:0:
448,192,53680,128,0,53980:0:0:0:0:
192,192,53830,1,0,0:0:0:50:Edge.wav
320,192,53830,1,0,0:0:0:0:
64,192,53980,1,2,0:0:0:0:
320,192,53980,128,0,54580:0:0:0:0:
192,192,54130,1,0,0:0:0:0:
64,192,54280,1,2,0:0:0:0:
448,192,54280,1,0,0:0:0:0:
64,192,54430,1,0,0:0:0:0:
192,192,54580,128,2,55180:0:0:0:0:
448,192,54580,1,0,0:0:0:0:
320,192,54730,1,0,0:0:0:0:
64,192,54880,1,2,0:0:0:0:
448,192,54880,1,0,0:0:0:0:
320,192,55030,1,0,0:0:0:0:
64,192,55180,1,2,0:0:0:0:
448,192,55180,128,0,55780:0:0:0:0:
192,192,55480,1,2,0:0:0:0:
320,192,55480,1,0,0:0:0:0:
64,192,55630,1,0,0:0:0:50:Edge.wav
320,192,55630,1,0,0:0:0:0:
64,192,55780,128,2,56380:0:0:0:0:
192,192,55780,128,0,56080:0:0:0:0:
320,192,55930,1,0,0:0:0:50:Edge.wav
448,192,55930,1,0,0:0:0:0:
320,192,56080,1,2,0:0:0:0:
448,192,56080,128,0,56380:0:0:0:0:
192,192,56380,128,2,56680:0:0:0:0:
320,192,56380,128,0,57580:0:0:0:0:
64,192,56680,1,2,0:0:0:0:
448,192,56680,1,0,0:0:0:0:
192,192,56830,1,0,0:0:0:0:
64,192,56980,128,2,57130:0:0:0:0:
448,192,56980,1,0,0:0:0:0:
64,192,57280,1,2,0:0:0:0:
192,192,57280,1,0,0:0:0:0:
448,192,57430,1,0,0:0:0:0:
64,192,57580,1,8,0:0:0:0:
192,192,57580,1,2,0:0:0:0:
448,192,57580,1,0,0:0:0:0:
320,192,57655,1,8,0:0:0:0:
64,192,57730,1,8,0:0:0:0:
192,192,57805,1,8,0:0:0:0:
64,192,57880,1,8,0:0:0:0:
320,192,57880,1,2,0:0:0:0:
448,192,57880,1,0,0:0:0:0:
192,192,57955,1,8,0:0:0:0:
448,192,58030,1,8,0:0:0:0:
320,192,58105,1,8,0:0:0:0:
64,192,58180,1,8,0:0:0:0:
192,192,58180,1,2,0:0:0:0:
448,192,58180,1,0,0:0:0:0:
320,192,58255,1,8,0:0:0:0:
64,192,58330,1,0,0:0:0:50:Tom1.wav
192,192,58330,1,0,0:0:0:0:
320,192,58405,1,0,0:0:0:50:Tom1.wav
64,192,58480,1,2,0:0:0:0:
448,192,58480,1,0,0:0:0:50:Tom2.wav
192,192,58555,1,0,0:0:0:50:Tom2.wav
320,192,58630,1,0,0:0:0:50:Tom3.wav
448,192,58630,1,0,0:0:0:0:
192,192,58705,1,0,0:0:0:50:Tom3.wav
64,192,58780,1,4,0:0:0:0:
320,192,58780,1,2,0:0:0:0:
448,192,58780,1,0,0:0:0:0:
320,192,58930,1,0,0:0:0:0:
64,192,59080,1,8,0:0:0:0:
192,192,59080,1,0,0:0:0:40:Hat Open.wav
448,192,59080,128,0,59305:0:0:0:0:
64,192,59305,1,0,0:0:0:25:soft-hitclap.wav
192,192,59305,1,0,0:0:0:0:
320,192,59380,1,2,0:0:0:0:
448,192,59380,1,0,0:0:0:40:Hat Open.wav
64,192,59530,1,2,0:0:0:0:
192,192,59530,1,0,0:0:0:0:
320,192,59680,1,0,0:0:0:40:Hat Open.wav
64,192,59830,1,8,0:0:0:0:
192,192,59830,1,0,0:0:0:0:
448,192,59830,1,0,0:0:0:0:
64,192,59980,128,0,60280:0:0:0:40:Hat Open.wav
320,192,60130,1,2,0:0:0:0:
448,192,60130,1,0,0:0:0:0:
192,192,60280,1,8,0:0:0:0:
320,192,60280,1,0,0:0:0:40:Hat Open.wav
448,192,60280,128,0,60580:0:0:0:0:
64,192,60430,1,0,0:0:0:0:
192,192,60580,1,2,0:0:0:0:
320,192,60580,1,0,0:0:0:40:Hat Open.wav
64,192,60730,1,2,0:0:0:0:
448,192,60730,1,0,0:0:0:0:
192,192,60880,1,8,0:0:0:0:
320,192,60880,1,0,0:0:0:40:Hat Open.wav
448,192,60880,1,0,0:0:0:0:
64,192,61030,1,0,0:0:0:0:
320,192,61180,128,2,61480:0:0:0:0:
448,192,61180,1,0,0:0:0:40:Hat Open.wav
64,192,61480,1,8,0:0:0:0:
192,192,61480,1,0,0:0:0:40:Hat Open.wav
448,192,61480,1,0,0:0:0:0:
320,192,61630,1,0,0:0:0:0:
64,192,61705,1,0,0:0:0:25:soft-hitclap.wav
192,192,61705,1,0,0:0:0:0:
320,192,61780,1,2,0:0:0:0:
448,192,61780,1,0,0:0:0:40:Hat Open.wav
64,192,61930,1,2,0:0:0:0:
192,192,61930,1,0,0:0:0:0:
64,192,62080,1,8,0:0:0:0:
320,192,62080,1,0,0:0:0:40:Hat Open.wav
448,192,62080,1,0,0:0:0:0:
192,192,62230,1,2,0:0:0:0:
320,192,62230,1,0,0:0:0:0:
64,192,62380,128,0,62530:0:0:0:40:Hat Open.wav
448,192,62380,128,0,62530:0:0:0:0:
192,192,62530,1,2,0:0:0:0:
64,192,62680,1,8,0:0:0:0:
320,192,62680,128,4,62830:0:0:0:0:
448,192,62680,128,0,62830:0:0:0:0:
192,192,62830,1,2,0:0:0:0:
192,192,62980,128,8,63130:0:0:0:0:
320,192,62980,128,4,63130:0:0:0:0:
448,192,62980,1,0,0:0:0:0:
64,192,63130,1,2,0:0:0:0:
64,192,63280,128,8,63430:0:0:0:0:
192,192,63280,128,4,63430:0:0:0:0:
320,192,63280,1,0,0:0:0:0:
320,192,63430,1,8,0:0:0:0:
448,192,63430,1,0,0:0:0:0:
64,192,63580,1,4,0:0:0:0:
192,192,63580,1,2,0:0:0:0:
448,192,63580,1,0,0:0:0:0:
192,192,63730,1,0,0:0:0:0:
64,192,63880,1,8,0:0:0:0:
320,192,63880,1,0,0:0:0:40:Hat Open.wav
448,192,63880,1,0,0:0:0:0:
192,192,64030,1,0,0:0:0:25:soft-hitclap.wav
320,192,64105,1,0,0:0:0:25:soft-hitclap.wav
448,192,64105,1,0,0:0:0:0:
64,192,64180,1,2,0:0:0:0:
192,192,64180,1,0,0:0:0:40:Hat Open.wav
320,192,64330,1,2,0:0:0:0:
448,192,64330,1,0,0:0:0:0:
192,192,64480,1,0,0:0:0:40:Hat Open.wav
64,192,64630,1,8,0:0:0:0:
320,192,64630,1,0,0:0:0:0:
448,192,64630,1,0,0:0:0:0:
192,192,64780,1,0,0:0:0:40:Hat Open.wav
64,192,64930,1,2,0:0:0:0:
320,192,64930,1,0,0:0:0:0:
64,192,65080,1,8,0:0:0:0:
192,192,65080,1,0,0:0:0:40:Hat Open.wav
448,192,65080,128,0,65380:0:0:0:0:
64,192,65380,1,2,0:0:0:0:
192,192,65380,1,0,0:0:0:40:Hat Open.wav
320,192,65530,1,2,0:0:0:0:
448,192,65530,1,0,0:0:0:0:
64,192,65680,128,8,65905:0:0:0:0:
192,192,65680,1,0,0:0:0:40:Hat Open.wav
448,192,65680,1,0,0:0:0:0:
320,192,65905,1,0,0:0:0:25:soft-hitclap.wav
64,192,65980,1,2,0:0:0:0:
192,192,65980,1,4,0:0:0:0:
448,192,65980,128,0,66280:0:0:0:0:
64,192,66280,1,8,0:0:0:0:
192,192,66280,1,0,0:0:0:40:Hat Open.wav
320,192,66280,1,0,0:0:0:0:
320,192,66430,1,0,0:0:0:0:
64,192,66580,1,2,0:0:0:0:
192,192,66580,1,0,0:0:0:40:Hat Open.wav
320,192,66730,1,2,0:0:0:0:
448,192,66730,1,0,0:0:0:0:
64,192,66880,1,8,0:0:0:0:
192,192,66880,1,0,0:0:0:40:Hat Open.wav
448,192,66880,1,0,0:0:0:0:
192,192,67030,1,2,0:0:0:0:
320,192,67030,1,0,0:0:0:0:
64,192,67180,1,8,0:0:0:0:
320,192,67180,1,0,0:0:0:40:Hat Open.wav
448,192,67180,1,0,0:0:0:0:
192,192,67330,1,2,0:0:0:0:
448,192,67330,1,0,0:0:0:0:
64,192,67480,1,8,0:0:0:0:
192,192,67480,1,0,0:0:0:40:Hat Open.wav
320,192,67480,1,0,0:0:0:0:
320,192,67630,1,2,0:0:0:0:
448,192,67630,1,0,0:0:0:0:
64,192,67780,1,8,0:0:0:0:
192,192,67780,1,0,0:0:0:0:
320,192,67855,1,8,0:0:0:0:
448,192,67855,1,0,0:0:0:0:
64,192,67930,1,0,0:0:0:50:Tom1.wav
192,192,67930,1,0,0:0:0:0:
320,192,68005,1,0,0:0:0:50:Tom1.wav
64,192,68080,1,0,0:0:0:50:Tom2.wav
448,192,68080,1,0,0:0:0:0:
192,192,68155,1,0,0:0:0:50:Tom2.wav
320,192,68230,1,0,0:0:0:50:Tom3.wav
448,192,68230,1,0,0:0:0:0:
192,192,68305,1,0,0:0:0:50:Tom3.wav
64,192,68380,128,4,68455:0:0:0:0:
320,192,68380,1,2,0:0:0:0:
448,192,68380,1,0,0:0:0:0:
64,192,68530,128,0,68680:0:0:0:40:Hat Open.wav
192,192,68530,1,0,0:0:0:0:
192,192,68680,1,8,0:0:0:0:
320,192,68680,1,2,0:0:0:0:
448,192,68680,1,0,0:0:0:0:
64,192,68830,1,0,0:0:0:40:Hat Open.wav
448,192,68830,128,0,68905:0:0:0:0:
192,192,68980,1,2,0:0:0:0:
448,192,68980,128,0,69130:0:0:0:0:
64,192,69130,1,0,0:0:0:40:Hat Open.wav
192,192,69280,128,8,69355:0:0:0:0:
320,192,69280,1,2,0:0:0:0:
448,192,69280,1,0,0:0:0:0:
192,192,69430,128,0,69580:0:0:0:40:Hat Open.wav
320,192,69430,1,0,0:0:0:0:
64,192,69580,1,2,0:0:0:0:
448,192,69580,1,0,0:0:0:0:
192,192,69730,1,0,0:0:0:40:Hat Open.wav
320,192,69730,128,0,69805:0:0:0:0:
64,192,69880,128,8,70030:0:0:0:0:
192,192,69880,128,2,70180:0:0:0:0:
448,192,69880,1,0,0:0:0:0:
320,192,70030,128,0,70180:0:0:0:40:Hat Open.wav
64,192,70180,1,2,0:0:0:0:
448,192,70180,128,0,70480:0:0:0:0:
192,192,70330,1,0,0:0:0:40:Hat Open.wav
64,192,70480,1,8,0:0:0:0:
192,192,70480,1,2,0:0:0:0:
320,192,70480,1,0,0:0:0:0:
320,192,70630,1,0,0:0:0:40:Hat Open.wav
64,192,70780,1,2,0:0:0:0:
448,192,70780,128,0,70855:0:0:0:0:
320,192,70930,1,0,0:0:0:40:Hat Open.wav
448,192,70930,128,0,71080:0:0:0:0:
64,192,71080,1,8,0:0:0:0:
192,192,71080,1,2,0:0:0:0:
320,192,71080,1,0,0:0:0:0:
192,192,71230,128,0,71305:0:0:0:40:Hat Open.wav
448,192,71230,1,0,0:0:0:0:
192,192,71380,128,2,71530:0:0:0:0:
320,192,71380,1,0,0:0:0:0:
64,192,71530,1,0,0:0:0:40:Hat Open.wav
192,192,71680,1,8,0:0:0:0:
320,192,71680,128,2,71755:0:0:0:0:
448,192,71680,1,0,0:0:0:0:
64,192,71830,1,0,0:0:0:40:Hat Open.wav
320,192,71830,128,0,71980:0:0:0:0:
64,192,71980,1,2,0:0:0:0:
192,192,71980,1,0,0:0:0:0:
320,192,72130,1,0,0:0:0:40:Hat Open.wav
448,192,72130,128,0,72205:0:0:0:0:
64,192,72280,1,8,0:0:0:0:
192,192,72280,128,2,72430:0:0:0:0:
320,192,72280,128,0,72580:0:0:0:0:
448,192,72430,128,0,72580:0:0:0:40:Hat Open.wav
64,192,72580,128,2,72880:0:0:0:0:
192,192,72580,1,0,0:0:0:0:
320,192,72730,1,0,0:0:0:40:Hat Open.wav
192,192,72880,1,8,0:0:0:0:
448,192,72880,1,2,0:0:0:0:
320,192,72955,1,0,0:0:0:50:Tom1.wav
64,192,73030,1,0,0:0:0:50:Tom2.wav
192,192,73030,1,0,0:0:0:0:
320,192,73105,1,0,0:0:0:50:Tom3.wav
64,192,73180,1,4,0:0:0:0:
192,192,73180,1,2,0:0:0:0:
448,192,73180,128,0,73630:0:0:0:0:
320,192,73330,1,0,0:0:0:0:
64,192,73480,1,8,0:0:0:0:
192,192,73480,1,0,0:0:0:50:Tom3.wav
64,192,73630,128,0,73930:0:0:0:0:
320,192,73705,1,0,0:0:0:50:Tom1.wav
192,192,73780,1,2,0:0:0:0:
448,192,73780,1,0,0:0:0:50:Tom3.wav
320,192,73930,128,2,74080:0:0:0:0:
448,192,73930,1,0,0:0:0:0:
64,192,74080,1,8,0:0:0:0:
192,192,74080,128,0,74230:0:0:0:50:Tom3.wav
320,192,74230,1,0,0:0:0:0:
448,192,74230,128,0,74380:0:0:0:0:
64,192,74380,1,2,0:0:0:0:
192,192,74380,128,0,74830:0:0:0:50:Tom3.wav
320,192,74530,1,2,0:0:0:0:
448,192,74530,1,0,0:0:0:0:
64,192,74680,1,8,0:0:0:0:
448,192,74680,1,0,0:0:0:50:Tom3.wav
320,192,74830,1,0,0:0:0:0:
64,192,74905,1,0,0:0:0:50:Tom2.wav
192,192,74905,1,0,0:0:0:0:
320,192,74980,1,2,0:0:0:0:
448,192,74980,128,0,75430:0:0:0:50:Tom3.wav
64,192,75130,1,2,0:0:0:0:
192,192,75130,1,0,0:0:0:0:
64,192,75280,1,8,0:0:0:0:
320,192,75280,1,0,0:0:0:50:Tom1.wav
192,192,75430,1,0,0:0:0:0:
320,192,75505,1,8,0:0:0:0:
448,192,75505,1,0,0:0:0:0:
64,192,75580,1,2,0:0:0:0:
192,192,75580,128,0,76030:0:0:0:50:Tom3.wav
320,192,75730,1,0,0:0:0:0:
64,192,75880,1,8,0:0:0:0:
448,192,75880,1,0,0:0:0:50:Tom3.wav
320,192,76030,128,0,76480:0:0:0:0:
448,192,76105,1,0,0:0:0:50:Tom1.wav
64,192,76180,1,2,0:0:0:0:
192,192,76180,1,0,0:0:0:50:Tom3.wav
192,192,76330,1,2,0:0:0:0:
448,192,76330,1,0,0:0:0:0:
64,192,76480,1,8,0:0:0:0:
192,192,76480,1,0,0:0:0:50:Tom3.wav
448,192,76480,1,0,0:0:0:0:
64,192,76630,1,2,0:0:0:0:
320,192,76630,1,0,0:0:0:0:
192,192,76705,1,2,0:0:0:0:
320,192,76780,1,8,0:0:0:0:
448,192,76780,1,0,0:0:0:0:
64,192,76855,1,8,0:0:0:0:
192,192,76855,1,0,0:0:0:0:
320,192,76930,1,2,0:0:0:0:
448,192,76930,1,0,0:0:0:0:
192,192,77005,1,2,0:0:0:0:
64,192,77080,1,0,0:0:0:50:Tom1.wav
448,192,77080,1,0,0:0:0:0:
320,192,77155,1,0,0:0:0:50:Tom1.wav
64,192,77230,1,2,0:0:0:0:
192,192,77230,1,0,0:0:0:0:
448,192,77305,1,2,0:0:0:0:
192,192,77380,1,0,0:0:0:50:Tom2.wav
320,192,77380,1,0,0:0:0:0:
64,192,77455,1,0,0:0:0:50:Tom2.wav
320,192,77530,1,2,0:0:0:0:
448,192,77530,1,0,0:0:0:0:
192,192,77605,1,2,0:0:0:0:
64,192,77680,1,8,0:0:0:0:
320,192,77680,1,4,0:0:0:0:
448,192,77680,1,0,0:0:0:0:
64,192,77980,1,4,0:0:0:0:
320,192,77980,128,2,78430:0:0:0:0:
448,192,77980,128,0,78130:0:0:0:0:
64,192,78280,1,2,0:0:0:0:
448,192,78280,1,0,0:0:0:0:
64,192,78430,128,0,78880:0:0:0:50:Edge.wav
192,192,78430,128,0,78580:0:0:0:0:
320,192,78580,1,2,0:0:0:0:
448,192,78580,1,0,0:0:0:0:
320,192,78880,128,2,79030:0:0:0:0:
448,192,78880,128,0,79330:0:0:0:50:Edge.wav
64,192,79180,1,2,0:0:0:0:
320,192,79180,1,0,0:0:0:0:
64,192,79330,128,0,79480:0:0:0:0:
192,192,79330,128,0,79780:0:0:0:0:
320,192,79480,1,2,0:0:0:0:
448,192,79480,1,0,0:0:0:0:
64,192,79630,1,0,0:0:0:50:Edge.wav
448,192,79630,1,0,0:0:0:0:
64,192,79780,128,2,79930:0:0:0:0:
320,192,79780,128,0,80080:0:0:0:0:
448,192,79930,1,0,0:0:0:0:
192,192,80080,128,2,80230:0:0:0:0:
448,192,80080,128,0,80380:0:0:0:50:Edge.wav
64,192,80230,1,0,0:0:0:0:
64,192,80380,128,2,80830:0:0:0:0:
320,192,80380,128,0,80530:0:0:0:0:
192,192,80680,1,2,0:0:0:0:
448,192,80680,1,0,0:0:0:0:
192,192,80830,128,0,80980:0:0:0:50:Edge.wav
320,192,80830,128,0,81280:0:0:0:0:
64,192,80980,1,2,0:0:0:0:
448,192,80980,1,0,0:0:0:0:
192,192,81130,1,0,0:0:0:0:
64,192,81280,128,2,81430:0:0:0:0:
448,192,81280,128,0,81730:0:0:0:50:Edge.wav
192,192,81430,1,0,0:0:0:0:
64,192,81580,1,2,0:0:0:0:
320,192,81580,1,0,0:0:0:0:
192,192,81730,128,0,82180:0:0:0:0:
320,192,81730,128,0,81880:0:0:0:0:
64,192,81880,1,2,0:0:0:0:
448,192,81880,1,0,0:0:0:50:Edge.wav
320,192,82030,1,0,0:0:0:0:
64,192,82180,128,2,82480:0:0:0:0:
448,192,82180,128,0,82330:0:0:0:50:Edge.wav
320,192,82330,1,0,0:0:0:0:
192,192,82480,128,2,82630:0:0:0:0:
320,192,82480,128,0,82780:0:0:0:50:Hat Open.wav
64,192,82780,128,2,83230:0:0:0:0:
448,192,82780,128,0,82930:0:0:0:0:
192,192,82930,1,0,0:0:0:0:
320,192,83080,1,2,0:0:0:0:
448,192,83080,1,0,0:0:0:0:
192,192,83230,128,0,83380:0:0:0:50:Edge.wav
448,192,83230,128,0,83680:0:0:0:0:
64,192,83380,1,2,0:0:0:0:
320,192,83380,1,0,0:0:0:0:
64,192,83530,1,0,0:0:0:0:
192,192,83680,128,2,83980:0:0:0:0:
320,192,83680,128,0,83830:0:0:0:50:Edge.wav
64,192,83830,1,0,0:0:0:0:
64,192,83980,128,2,84430:0:0:0:0:
448,192,83980,128,0,84130:0:0:0:0:
192,192,84130,1,0,0:0:0:0:
320,192,84280,1,2,0:0:0:0:
448,192,84280,1,0,0:0:0:0:
192,192,84430,128,0,84580:0:0:0:50:Edge.wav
448,192,84430,128,0,84880:0:0:0:0:
64,192,84580,1,2,0:0:0:0:
320,192,84580,1,0,0:0:0:0:
192,192,84730,1,0,0:0:0:0:
64,192,84880,128,2,85030:0:0:0:0:
192,192,84880,128,0,85180:0:0:0:50:Edge.wav
320,192,85030,1,0,0:0:0:0:
320,192,85180,128,2,86080:0:0:0:0:
448,192,85180,128,0,85330:0:0:0:0:
64,192,85330,1,0,0:0:0:0:
192,192,85480,1,2,0:0:0:0:
448,192,85480,1,0,0:0:0:0:
64,192,85630,1,0,0:0:0:50:Edge.wav
192,192,85630,1,0,0:0:0:0:
64,192,85780,1,2,0:0:0:0:
448,192,85780,1,0,0:0:0:0:
192,192,85930,1,0,0:0:0:0:
64,192,86080,1,2,0:0:0:0:
448,192,86080,1,0,0:0:0:50:Edge.wav
192,192,86230,1,0,0:0:0:0:
320,192,86380,128,2,86680:0:0:0:0:
448,192,86380,128,0,86530:0:0:0:0:
64,192,86530,1,0,0:0:0:0:
64,192,86680,128,2,86830:0:0:0:0:
192,192,86680,128,0,86980:0:0:0:50:Edge.wav
448,192,86830,1,0,0:0:0:0:
320,192,86980,128,2,87130:0:0:0:0:
448,192,86980,128,0,87280:0:0:0:50:Edge.wav
64,192,87130,1,0,0:0:0:0:
64,192,87280,128,2,87580:0:0:0:0:
192,192,87280,128,0,87430:0:0:0:50:Hat Open.wav
320,192,87580,128,2,87730:0:0:0:0:
448,192,87580,128,0,88030:0:0:0:50:Hat Open.wav
64,192,87880,1,2,0:0:0:0:
192,192,87880,1,0,0:0:0:0:
192,192,88030,128,0,88480:0:0:0:50:Edge.wav
320,192,88030,128,0,88180:0:0:0:0:
64,192,88180,1,2,0:0:0:0:
448,192,88180,1,0,0:0:0:0:
64,192,88330,1,0,0:0:0:0:
320,192,88480,128,2,88930:0:0:0:0:
448,192,88480,128,0,88630:0:0:0:50:Edge.wav
64,192,88630,1,0,0:0:0:0:
192,192,88780,1,2,0:0:0:0:
448,192,88780,1,0,0:0:0:0:
64,192,88930,128,0,89380:0:0:0:0:
192,192,88930,128,0,89080:0:0:0:0:
320,192,89080,1,2,0:0:0:0:
448,192,89080,1,0,0:0:0:0:
192,192,89230,1,0,0:0:0:50:Edge.wav
448,192,89230,1,0,0:0:0:0:
192,192,89380,128,2,89530:0:0:0:0:
320,192,89380,128,0,89680:0:0:0:0:
448,192,89530,1,0,0:0:0:0:
64,192,89680,128,2,89980:0:0:0:0:
192,192,89680,128,0,89830:0:0:0:50:Edge.wav
448,192,89830,1,0,0:0:0:0:
320,192,89980,128,2,90130:0:0:0:0:
448,192,89980,128,0,90430:0:0:0:0:
64,192,90280,1,2,0:0:0:0:
192,192,90280,1,0,0:0:0:0:
192,192,90430,128,0,90880:0:0:0:50:Edge.wav
320,192,90430,128,0,90580:0:0:0:0:
64,192,90580,1,2,0:0:0:0:
448,192,90580,1,0,0:0:0:0:
320,192,90730,1,0,0:0:0:0:
64,192,90880,128,2,91030:0:0:0:0:
320,192,90880,128,0,91330:0:0:0:50:Edge.wav
448,192,91030,1,0,0:0:0:0:
64,192,91180,1,2,0:0:0:0:
192,192,91180,1,0,0:0:0:0:
64,192,91330,128,0,91780:0:0:0:0:
448,192,91330,128,0,91480:0:0:0:0:
192,192,91480,1,2,0:0:0:0:
320,192,91480,1,0,0:0:0:50:Edge.wav
192,192,91630,1,0,0:0:0:0:
320,192,91780,128,2,91930:0:0:0:0:
448,192,91780,128,0,92080:0:0:0:50:Edge.wav
64,192,91930,1,0,0:0:0:0:
64,192,92080,128,2,92230:0:0:0:0:
192,192,92080,128,0,92380:0:0:0:50:Edge.wav
320,192,92380,128,2,92530:0:0:0:0:
448,192,92380,128,0,92830:0:0:0:0:
64,192,92530,1,0,0:0:0:0:
192,192,92680,1,2,0:0:0:0:
320,192,92680,1,0,0:0:0:0:
64,192,92830,128,0,93280:0:0:0:50:Edge.wav
192,192,92830,128,0,92980:0:0:0:0:
320,192,92980,1,2,0:0:0:0:
448,192,92980,1,0,0:0:0:0:
192,192,93130,1,0,0:0:0:0:
320,192,93280,128,2,93580:0:0:0:0:
448,192,93280,128,0,93430:0:0:0:50:Edge.wav
64,192,93580,128,2,94030:0:0:0:0:
192,192,93580,128,0,93730:0:0:0:0:
448,192,93730,1,0,0:0:0:0:
192,192,93880,1,2,0:0:0:0:
320,192,93880,1,0,0:0:0:0:
320,192,94030,128,0,94180:0:0:0:50:Edge.wav
448,192,94030,128,0,94480:0:0:0:0:
64,192,94180,1,2,0:0:0:0:
192,192,94180,1,0,0:0:0:0:
64,192,94330,1,0,0:0:0:0:
192,192,94480,128,2,94630:0:0:0:0:
320,192,94480,128,0,94780:0:0:0:50:Edge.wav
64,192,94630,1,0,0:0:0:0:
64,192,94780,128,2,95680:0:0:0:0:
448,192,94780,1,0,0:0:0:0:
320,192,94930,1,0,0:0:0:0:
192,192,95080,1,2,0:0:0:0:
448,192,95080,1,0,0:0:0:0:
192,192,95230,1,0,0:0:0:50:Edge.wav
320,192,95230,1,0,0:0:0:0:
320,192,95380,1,2,0:0:0:0:
448,192,95380,1,0,0:0:0:0:
192,192,95530,1,0,0:0:0:0:
320,192,95680,1,2,0:0:0:0:
448,192,95680,1,0,0:0:0:50:Edge.wav
64,192,95830,1,0,0:0:0:0:
192,192,95980,128,2,96130:0:0:0:0:
448,192,95980,128,0,96280:0:0:0:0:
64,192,96130,1,0,0:0:0:0:
64,192,96280,128,2,96430:0:0:0:0:
320,192,96280,128,0,96580:0:0:0:50:Edge.wav
448,192,96430,1,0,0:0:0:0:
192,192,96580,128,2,96880:0:0:0:0:
448,192,96580,128,0,96730:0:0:0:50:Edge.wav
64,192,96730,1,0,0:0:0:0:
64,192,96880,128,2,97180:0:0:0:0:
320,192,96880,128,0,97030:0:0:0:50:Edge.wav
