osu file format v14

[General]
AudioFilename: audio.ogg
AudioLeadIn: 0
PreviewTime: 58705
Countdown: 0
SampleSet: Soft
StackLeniency: 0.7
Mode: 3
LetterboxInBreaks: 0
SpecialStyle: 0
WidescreenStoryboard: 1

[Editor]
DistanceSpacing: 1
BeatDivisor: 4
GridSize: 4
TimelineZoom: 2

[Metadata]
Title:Inochi ni Kirawarete Iru.
TitleUnicode:命に嫌われている。
Artist:25-ji, Nightcord de. x Hatsune Miku
ArtistUnicode:25時、ナイトコードで。 × 初音ミク
Creator:ML-ysg
Version:Easy
Source:プロジェクトセカイ カラフルステージ! feat. 初音ミク
Tags:japanese video game size cut short ver j-pop pop jpop vocaloid Hated by life Itself Iori Kanzaki カンザキイオリ Project Sekai Colorful Stage! feat. Hatsune Miku SEGA Craft Egg Crypton Future Media at 25:00 藤田 咲 Fujita Saki 宵崎 奏 Yoisaki Kanade 楠木ともり Kusunoki Tomori 朝比奈 まふゆ Asahina Mafuyu 田边 留依 Tanabe Rui 東雲 絵名 Shinonome Ena 鈴木 みのり Suzuki Minori 暁山 瑞希 Akiyama Mizuki 佐藤 日向 Sato Hinata
BeatmapID:4301471
BeatmapSetID:2058130

[Difficulty]
HPDrainRate:7
CircleSize:4
OverallDifficulty:7
ApproachRate:5
SliderMultiplier:1.4
SliderTickRate:1

[Events]
//Background and Video events
0,0,"ming.jpg",0,0
//Break Periods
//Storyboard Layer 0 (Background)
//Storyboard Layer 1 (Fail)
//Storyboard Layer 2 (Pass)
//Storyboard Layer 3 (Foreground)
//Storyboard Layer 4 (Overlay)
//Storyboard Sound Samples
Sample,11680,0,"Edge.wav",50
Sample,12880,0,"Edge.wav",50
Sample,14080,0,"Edge.wav",50
Sample,14680,0,"Edge.wav",50
Sample,14980,0,"Edge.wav",50
Sample,15280,0,"Hat Open.wav",50
Sample,15280,0,"Edge.wav",50
Sample,16480,0,"Edge.wav",50
Sample,17230,0,"Edge.wav",50
Sample,17680,0,"Edge.wav",50
Sample,18880,0,"Edge.wav",50
Sample,19480,0,"Edge.wav",50
Sample,19780,0,"Edge.wav",50
Sample,20080,0,"Hat Open.wav",50
Sample,20080,0,"Edge.wav",50
Sample,21280,0,"Edge.wav",50
Sample,22480,0,"Edge.wav",50
Sample,23680,0,"Edge.wav",50
Sample,24280,0,"Edge.wav",50
Sample,24580,0,"Edge.wav",50
Sample,24880,0,"Edge.wav",50
Sample,26080,0,"Edge.wav",50
Sample,27280,0,"Edge.wav",50
Sample,28480,0,"Edge.wav",50
Sample,29080,0,"Edge.wav",50
Sample,29380,0,"Edge.wav",50
Sample,29680,0,"Edge.wav",50
Sample,30880,0,"Edge.wav",50
Sample,32080,0,"Edge.wav",50
Sample,33280,0,"Edge.wav",50
Sample,33880,0,"Edge.wav",50
Sample,34180,0,"Edge.wav",50
Sample,34480,0,"Edge.wav",50
Sample,35680,0,"Edge.wav",50
Sample,36880,0,"Edge.wav",50
Sample,38080,0,"Edge.wav",50
Sample,38680,0,"Edge.wav",50
Sample,38980,0,"Edge.wav",50
Sample,39280,0,"Edge.wav",50
Sample,58480,0,"Tom2.wav",50
Sample,59080,0,"Hat Open.wav",40
Sample,59380,0,"Hat Open.wav",40
Sample,60280,0,"Hat Open.wav",40
Sample,60580,0,"Hat Open.wav",40
Sample,60880,0,"Hat Open.wav",40
Sample,61180,0,"Hat Open.wav",40
Sample,61480,0,"Hat Open.wav",40
Sample,61780,0,"Hat Open.wav",40
Sample,62080,0,"Hat Open.wav",40
Sample,63880,0,"Hat Open.wav",40
Sample,64180,0,"Hat Open.wav",40
Sample,65080,0,"Hat Open.wav",40
Sample,65380,0,"Hat Open.wav",40
Sample,65680,0,"Hat Open.wav",40
Sample,66280,0,"Hat Open.wav",40
Sample,66580,0,"Hat Open.wav",40
Sample,66880,0,"Hat Open.wav",40
Sample,67180,0,"Hat Open.wav",40
Sample,67480,0,"Hat Open.wav",40
Sample,73480,0,"Tom3.wav",50
Sample,73780,0,"Tom3.wav",50
Sample,74080,0,"Tom3.wav",50
Sample,74380,0,"Tom3.wav",50
Sample,74680,0,"Tom3.wav",50
Sample,74980,0,"Tom3.wav",50
Sample,75280,0,"Tom1.wav",50
Sample,75580,0,"Tom3.wav",50
Sample,75880,0,"Tom3.wav",50
Sample,76180,0,"Tom3.wav",50
Sample,76480,0,"Tom3.wav",50
Sample,78880,0,"Edge.wav",50
Sample,80080,0,"Edge.wav",50
Sample,81280,0,"Edge.wav",50
Sample,81880,0,"Edge.wav",50
Sample,82180,0,"Edge.wav",50
Sample,82480,0,"Hat Open.wav",50
Sample,82480,0,"Edge.wav",50
Sample,83680,0,"Edge.wav",50
Sample,84880,0,"Edge.wav",50
Sample,86080,0,"Edge.wav",50
Sample,86680,0,"Edge.wav",50
Sample,86980,0,"Edge.wav",50
Sample,87280,0,"Hat Open.wav",50
Sample,87280,0,"Edge.wav",50
Sample,87580,0,"Hat Open.wav",50
Sample,88480,0,"Edge.wav",50
Sample,89680,0,"Edge.wav",50
Sample,90880,0,"Edge.wav",50
Sample,91480,0,"Edge.wav",50
Sample,91780,0,"Edge.wav",50
Sample,92080,0,"Edge.wav",50
Sample,93280,0,"Edge.wav",50
Sample,94480,0,"Edge.wav",50
Sample,95680,0,"Edge.wav",50
Sample,96280,0,"Edge.wav",50
Sample,96580,0,"Edge.wav",50
Sample,96880,0,"Edge.wav",50

[TimingPoints]
1180,300.0,4,2,1,50,1,0
58780,-100.0,4,2,1,50,0,1
77980,-100.0,4,2,1,50,0,0

[HitObjects]
64,192,580,1,0,0:0:0:0:
448,192,880,1,0,0:0:0:0:
192,192,1205,1,0,0:0:0:0:
320,192,1205,1,0,0:0:0:0:
64,192,1655,1,0,0:0:0:0:
448,192,2105,1,0,0:0:0:0:
192,192,2405,1,0,0:0:0:0:
320,192,2405,1,0,0:0:0:0:
64,192,2880,1,0,0:0:0:0:
448,192,3305,1,0,0:0:0:0:
64,192,3605,1,0,0:0:0:0:
320,192,3605,1,0,0:0:0:0:
192,192,5080,1,0,0:0:0:0:
320,192,5405,1,0,0:0:0:0:
64,192,5705,1,0,0:0:0:0:
192,192,6005,1,0,0:0:0:0:
448,192,6005,1,0,0:0:0:0:
320,192,6880,1,0,0:0:0:0:
64,192,7180,1,0,0:0:0:0:
448,192,7180,1,0,0:0:0:0:
192,192,7655,1,0,0:0:0:0:
320,192,8080,1,0,0:0:0:0:
192,192,8405,1,0,0:0:0:0:
448,192,8405,1,0,0:0:0:0:
320,192,9455,1,0,0:0:0:0:
64,192,9580,1,0,0:0:0:0:
192,192,10180,1,0,0:0:0:0:
448,192,10330,1,2,0:0:0:0:
64,192,10480,1,8,0:0:0:0:
192,192,10780,1,2,0:0:0:0:
320,192,10780,1,4,0:0:0:0:
64,192,11080,1,2,0:0:0:0:
448,192,11230,1,0,0:0:0:50:Edge.wav
192,192,11380,1,2,0:0:0:0:
320,192,11680,1,2,0:0:0:0:
64,192,11980,1,2,0:0:0:0:
448,192,12280,1,2,0:0:0:0:
192,192,12430,1,0,0:0:0:50:Edge.wav
320,192,12580,1,2,0:0:0:0:
64,192,12880,1,2,0:0:0:0:
448,192,13180,1,2,0:0:0:0:
192,192,13480,1,2,0:0:0:0:
320,192,13630,1,0,0:0:0:50:Edge.wav
64,192,13780,1,2,0:0:0:0:
448,192,14080,1,2,0:0:0:0:
192,192,14380,1,2,0:0:0:0:
320,192,14680,1,2,0:0:0:0:
64,192,14980,1,2,0:0:0:0:
448,192,15280,1,2,0:0:0:0:
192,192,15580,1,2,0:0:0:0:
320,192,15880,1,2,0:0:0:0:
64,192,16030,1,0,0:0:0:50:Edge.wav
448,192,16180,1,2,0:0:0:0:
192,192,16480,1,2,0:0:0:0:
320,192,16780,1,2,0:0:0:0:
192,192,17080,1,2,0:0:0:0:
448,192,17230,1,0,0:0:0:50:Hat Open.wav
64,192,17380,1,2,0:0:0:0:
320,192,17680,1,2,0:0:0:0:
192,192,17980,1,2,0:0:0:0:
448,192,18280,1,2,0:0:0:0:
64,192,18430,1,0,0:0:0:50:Edge.wav
320,192,18580,1,2,0:0:0:0:
192,192,18880,1,2,0:0:0:0:
64,192,19180,128,2,19480:0:0:0:0:
192,192,19480,128,2,19780:0:0:0:0:
320,192,19780,128,2,20080:0:0:0:0:
448,192,20080,128,2,20380:0:0:0:0:
64,192,20380,1,2,0:0:0:0:
192,192,20380,1,4,0:0:0:0:
320,192,20680,1,2,0:0:0:0:
192,192,20830,1,0,0:0:0:50:Edge.wav
448,192,20980,1,2,0:0:0:0:
64,192,21280,1,2,0:0:0:0:
320,192,21580,1,2,0:0:0:0:
448,192,21580,1,0,0:0:0:0:
192,192,21880,1,2,0:0:0:0:
320,192,22030,1,0,0:0:0:50:Edge.wav
64,192,22180,1,2,0:0:0:0:
448,192,22480,1,2,0:0:0:0:
64,192,22780,1,2,0:0:0:0:
320,192,22780,128,0,23980:0:0:0:0:
192,192,23080,1,2,0:0:0:0:
448,192,23380,1,2,0:0:0:0:
64,192,23680,1,2,0:0:0:0:
192,192,23980,1,2,0:0:0:0:
448,192,24280,128,2,24580:0:0:0:0:
64,192,24580,128,2,24880:0:0:0:0:
320,192,24880,128,2,25180:0:0:0:0:
192,192,25180,1,2,0:0:0:0:
448,192,25180,1,0,0:0:0:0:
64,192,25480,1,2,0:0:0:0:
448,192,25630,1,0,0:0:0:50:Edge.wav
192,192,25780,1,2,0:0:0:0:
64,192,26080,1,2,0:0:0:0:
192,192,26380,1,2,0:0:0:0:
448,192,26380,1,0,0:0:0:0:
320,192,26680,1,2,0:0:0:0:
64,192,26830,1,0,0:0:0:50:Edge.wav
448,192,26980,1,2,0:0:0:0:
192,192,27280,1,2,0:0:0:0:
64,192,27580,1,2,0:0:0:0:
320,192,27580,128,0,28780:0:0:0:0:
192,192,27880,1,2,0:0:0:0:
64,192,28180,1,2,0:0:0:0:
448,192,28480,1,2,0:0:0:0:
192,192,28780,1,2,0:0:0:0:
64,192,29080,1,2,0:0:0:0:
320,192,29380,128,2,29680:0:0:0:0:
64,192,29680,128,2,29980:0:0:0:0:
192,192,29980,1,2,0:0:0:0:
448,192,29980,1,0,0:0:0:0:
320,192,30280,1,2,0:0:0:0:
192,192,30430,1,0,0:0:0:50:Edge.wav
64,192,30580,1,2,0:0:0:0:
448,192,30880,1,2,0:0:0:0:
64,192,31180,1,2,0:0:0:0:
320,192,31180,1,0,0:0:0:0:
192,192,31480,1,2,0:0:0:0:
320,192,31630,1,0,0:0:0:50:Edge.wav
448,192,31780,1,2,0:0:0:0:
64,192,32080,1,2,0:0:0:0:
320,192,32380,1,2,0:0:0:0:
448,192,32380,1,0,0:0:0:0:
192,192,32680,1,2,0:0:0:0:
448,192,32830,1,0,0:0:0:50:Edge.wav
64,192,32980,1,2,0:0:0:0:
320,192,33280,1,2,0:0:0:0:
192,192,33580,1,2,0:0:0:0:
320,192,33880,1,2,0:0:0:0:
64,192,34180,1,2,0:0:0:0:
448,192,34480,1,2,0:0:0:0:
64,192,34780,1,2,0:0:0:0:
192,192,34780,1,0,0:0:0:0:
320,192,35080,1,2,0:0:0:0:
448,192,35230,1,0,0:0:0:50:Edge.wav
192,192,35380,1,2,0:0:0:0:
320,192,35680,1,2,0:0:0:0:
64,192,35980,1,2,0:0:0:0:
448,192,35980,1,0,0:0:0:0:
192,192,36280,1,2,0:0:0:0:
64,192,36430,1,0,0:0:0:50:Edge.wav
320,192,36580,1,2,0:0:0:0:
192,192,36880,1,2,0:0:0:0:
64,192,37180,128,2,38380:0:0:0:0:
320,192,37180,1,0,0:0:0:0:
448,192,37480,1,2,0:0:0:0:
192,192,37780,1,2,0:0:0:0:
448,192,38080,1,2,0:0:0:0:
320,192,38380,128,2,38680:0:0:0:0:
192,192,38680,128,2,38980:0:0:0:0:
448,192,38980,128,2,39280:0:0:0:0:
64,192,39280,128,2,39580:0:0:0:0:
192,192,39580,1,2,0:0:0:0:
320,192,39580,1,4,0:0:0:0:
320,192,40030,1,2,0:0:0:0:
64,192,40480,1,8,0:0:0:0:
448,192,40480,1,0,0:0:0:0:
192,192,40780,1,2,0:0:0:0:
320,192,41230,1,2,0:0:0:0:
448,192,41530,1,2,0:0:0:0:
64,192,41830,1,2,0:0:0:0:
192,192,41980,1,2,0:0:0:0:
192,192,42430,1,2,0:0:0:0:
64,192,42880,1,8,0:0:0:0:
320,192,42880,1,0,0:0:0:0:
448,192,43180,1,2,0:0:0:0:
64,192,43330,1,2,0:0:0:0:
320,192,43630,1,2,0:0:0:0:
192,192,43930,1,2,0:0:0:0:
64,192,44080,1,8,0:0:0:0:
448,192,44080,1,0,0:0:0:0:
320,192,44380,1,2,0:0:0:0:
320,192,44830,1,2,0:0:0:0:
192,192,45280,1,8,0:0:0:0:
448,192,45280,1,0,0:0:0:0:
64,192,45580,1,2,0:0:0:0:
192,192,46030,1,2,0:0:0:0:
448,192,46330,1,2,0:0:0:0:
192,192,46780,1,2,0:0:0:0:
192,192,47230,1,2,0:0:0:0:
64,192,47680,1,8,0:0:0:0:
448,192,47680,1,0,0:0:0:0:
192,192,47980,1,2,0:0:0:0:
320,192,48130,1,2,0:0:0:0:
64,192,48430,1,2,0:0:0:0:
192,192,48730,1,2,0:0:0:0:
320,192,48880,1,8,0:0:0:0:
448,192,48880,1,0,0:0:0:0:
64,192,49180,1,2,0:0:0:0:
192,192,49180,1,4,0:0:0:0:
64,192,49480,1,2,0:0:0:0:
320,192,49780,1,2,0:0:0:0:
320,192,50080,1,2,0:0:0:0:
192,192,50380,1,2,0:0:0:0:
192,192,50680,1,2,0:0:0:0:
448,192,50980,1,2,0:0:0:0:
448,192,51280,1,2,0:0:0:0:
64,192,51580,1,2,0:0:0:0:
64,192,51880,1,2,0:0:0:0:
192,192,52180,1,2,0:0:0:0:
192,192,52480,1,2,0:0:0:0:
320,192,52780,1,2,0:0:0:0:
320,192,53080,1,2,0:0:0:0:
448,192,53380,1,2,0:0:0:0:
192,192,53530,1,0,0:0:0:50:Edge.wav
320,192,53680,1,2,0:0:0:0:
64,192,53830,1,0,0:0:0:50:Edge.wav
448,192,53980,1,2,0:0:0:0:
448,192,54280,1,2,0:0:0:0:
64,192,54580,1,2,0:0:0:0:
64,192,54880,1,2,0:0:0:0:
320,192,55180,1,2,0:0:0:0:
320,192,55480,1,2,0:0:0:0:
192,192,55780,1,2,0:0:0:0:
448,192,55930,1,0,0:0:0:50:Edge.wav
64,192,56080,1,2,0:0:0:0:
320,192,56380,1,2,0:0:0:0:
320,192,56680,1,2,0:0:0:0:
64,192,56980,1,2,0:0:0:0:
64,192,57280,1,2,0:0:0:0:
320,192,57580,128,8,57880:0:0:0:0:
448,192,57580,1,2,0:0:0:0:
64,192,57880,1,8,0:0:0:0:
192,192,57880,128,2,58180:0:0:0:0:
448,192,58180,128,10,58480:0:0:0:0:
64,192,58480,128,2,58780:0:0:0:0:
192,192,58780,1,4,0:0:0:0:
320,192,58780,1,2,0:0:0:0:
448,192,59080,1,8,0:0:0:0:
64,192,59380,1,2,0:0:0:0:
192,192,59530,1,2,0:0:0:0:
448,192,59830,1,8,0:0:0:0:
192,192,60130,1,2,0:0:0:0:
320,192,60280,1,8,0:0:0:0:
64,192,60580,1,2,0:0:0:0:
192,192,60730,1,2,0:0:0:0:
320,192,60880,1,8,0:0:0:0:
64,192,61180,1,2,0:0:0:0:
448,192,61480,1,8,0:0:0:0:
320,192,61780,1,2,0:0:0:0:
192,192,61930,1,2,0:0:0:0:
448,192,62080,1,8,0:0:0:0:
64,192,62230,1,2,0:0:0:0:
320,192,62530,1,2,0:0:0:0:
64,192,62680,1,8,0:0:0:0:
192,192,62680,1,4,0:0:0:0:
320,192,62980,1,8,0:0:0:0:
448,192,62980,1,4,0:0:0:0:
64,192,63280,1,8,0:0:0:0:
192,192,63280,1,4,0:0:0:0:
320,192,63580,1,4,0:0:0:0:
448,192,63580,1,2,0:0:0:0:
192,192,63880,1,8,0:0:0:0:
448,192,64180,1,2,0:0:0:0:
320,192,64330,1,2,0:0:0:0:
64,192,64630,1,8,0:0:0:0:
320,192,64930,1,2,0:0:0:0:
192,192,65080,1,8,0:0:0:0:
448,192,65380,1,2,0:0:0:0:
320,192,65530,1,2,0:0:0:0:
192,192,65680,1,8,0:0:0:0:
64,192,65980,1,2,0:0:0:0:
448,192,65980,1,4,0:0:0:0:
320,192,66280,1,8,0:0:0:0:
64,192,66580,1,2,0:0:0:0:
192,192,66730,1,2,0:0:0:0:
320,192,66880,1,8,0:0:0:0:
448,192,67180,1,8,0:0:0:0:
64,192,67330,1,2,0:0:0:0:
320,192,67480,1,8,0:0:0:0:
192,192,67780,128,8,68080:0:0:0:0:
320,192,68080,128,0,68380:0:0:0:50:Tom2.wav
64,192,68380,1,4,0:0:0:0:
448,192,68380,1,2,0:0:0:0:
192,192,68680,1,8,0:0:0:0:
320,192,68680,1,2,0:0:0:0:
64,192,68980,1,2,0:0:0:0:
320,192,69280,1,8,0:0:0:0:
448,192,69280,1,2,0:0:0:0:
192,192,69580,1,2,0:0:0:0:
64,192,69880,1,8,0:0:0:0:
320,192,69880,1,2,0:0:0:0:
448,192,70180,1,2,0:0:0:0:
64,192,70480,1,8,0:0:0:0:
192,192,70480,1,2,0:0:0:0:
448,192,70780,1,2,0:0:0:0:
192,192,71080,1,8,0:0:0:0:
320,192,71080,1,2,0:0:0:0:
64,192,71380,1,2,0:0:0:0:
320,192,71680,1,8,0:0:0:0:
448,192,71680,1,2,0:0:0:0:
192,192,71980,1,2,0:0:0:0:
64,192,72280,1,8,0:0:0:0:
448,192,72280,1,2,0:0:0:0:
320,192,72580,1,2,0:0:0:0:
64,192,72880,1,8,0:0:0:0:
192,192,72880,1,2,0:0:0:0:
320,192,73180,1,4,0:0:0:0:
448,192,73180,1,2,0:0:0:0:
64,192,73480,1,8,0:0:0:0:
192,192,73780,1,2,0:0:0:0:
320,192,73930,1,2,0:0:0:0:
448,192,74080,1,8,0:0:0:0:
320,192,74380,1,2,0:0:0:0:
192,192,74530,1,2,0:0:0:0:
64,192,74680,1,8,0:0:0:0:
448,192,74980,1,2,0:0:0:0:
320,192,75130,1,2,0:0:0:0:
192,192,75280,1,8,0:0:0:0:
64,192,75580,1,2,0:0:0:0:
448,192,75880,1,8,0:0:0:0:
192,192,76180,1,2,0:0:0:0:
320,192,76330,1,2,0:0:0:0:
64,192,76480,1,8,0:0:0:0:
448,192,76630,1,2,0:0:0:0:
192,192,76780,128,8,77080:0:0:0:0:
320,192,77080,128,0,77380:0:0:0:50:Tom1.wav
448,192,77380,128,0,77680:0:0:0:50:Tom2.wav
64,192,77680,1,8,0:0:0:0:
192,192,77680,1,4,0:0:0:0:
320,192,77980,1,4,0:0:0:0:
448,192,77980,1,2,0:0:0:0:
64,192,78280,1,2,0:0:0:0:
192,192,78430,1,0,0:0:0:50:Edge.wav
320,192,78580,1,2,0:0:0:0:
448,192,78880,1,2,0:0:0:0:
64,192,79180,1,2,0:0:0:0:
448,192,79480,1,2,0:0:0:0:
320,192,79630,1,0,0:0:0:50:Edge.wav
192,192,79780,1,2,0:0:0:0:
448,192,80080,1,2,0:0:0:0:
64,192,80380,1,2,0:0:0:0:
320,192,80680,1,2,0:0:0:0:
192,192,80830,1,0,0:0:0:50:Edge.wav
448,192,80980,1,2,0:0:0:0:
320,192,81280,1,2,0:0:0:0:
64,192,81580,1,2,0:0:0:0:
192,192,81880,1,2,0:0:0:0:
448,192,82180,1,2,0:0:0:0:
320,192,82480,1,2,0:0:0:0:
64,192,82780,1,2,0:0:0:0:
192,192,83080,1,2,0:0:0:0:
448,192,83230,1,0,0:0:0:50:Edge.wav
64,192,83380,1,2,0:0:0:0:
320,192,83680,1,2,0:0:0:0:
192,192,83980,1,2,0:0:0:0:
320,192,84280,1,2,0:0:0:0:
64,192,84430,1,0,0:0:0:50:Edge.wav
448,192,84580,1,2,0:0:0:0:
192,192,84880,1,2,0:0:0:0:
320,192,85180,1,2,0:0:0:0:
64,192,85480,1,2,0:0:0:0:
192,192,85630,1,0,0:0:0:50:Edge.wav
448,192,85780,1,2,0:0:0:0:
320,192,86080,1,2,0:0:0:0:
64,192,86380,128,2,86680:0:0:0:0:
192,192,86680,128,2,86980:0:0:0:0:
448,192,86980,128,2,87280:0:0:0:0:
320,192,87280,128,2,87580:0:0:0:0:
64,192,87580,1,2,0:0:0:0:
192,192,87880,1,2,0:0:0:0:
448,192,88030,1,0,0:0:0:50:Edge.wav
192,192,88180,1,2,0:0:0:0:
320,192,88480,1,2,0:0:0:0:
448,192,88780,1,2,0:0:0:0:
320,192,89080,1,2,0:0:0:0:
64,192,89230,1,0,0:0:0:50:Edge.wav
320,192,89380,1,2,0:0:0:0:
192,192,89680,1,2,0:0:0:0:
64,192,89980,1,2,0:0:0:0:
448,192,90280,1,2,0:0:0:0:
192,192,90430,1,0,0:0:0:50:Edge.wav
320,192,90580,1,2,0:0:0:0:
64,192,90880,1,2,0:0:0:0:
192,192,91180,1,2,0:0:0:0:
448,192,91480,1,2,0:0:0:0:
320,192,91780,1,2,0:0:0:0:
192,192,92080,1,2,0:0:0:0:
64,192,92380,1,2,0:0:0:0:
448,192,92680,1,2,0:0:0:0:
192,192,92830,1,0,0:0:0:50:Edge.wav
320,192,92980,1,2,0:0:0:0:
192,192,93280,1,2,0:0:0:0:
448,192,93580,1,2,0:0:0:0:
64,192,93880,1,2,0:0:0:0:
320,192,94030,1,0,0:0:0:50:Edge.wav
192,192,94180,1,2,0:0:0:0:
320,192,94480,1,2,0:0:0:0:
64,192,94780,1,2,0:0:0:0:
448,192,95080,1,2,0:0:0:0:
320,192,95230,1,0,0:0:0:50:Edge.wav
64,192,95380,1,2,0:0:0:0:
192,192,95680,1,2,0:0:0:0:
448,192,95980,128,2,96280:0:0:0:0:
320,192,96280,128,2,96580:0:0:0:0:
192,192,96580,128,2,96880:0:0:0:0:
64,192,96880,128,2,97180:0:0:0:0:
