osu file format v14

[General]
AudioFilename: audio.mp3
AudioLeadIn: 0
PreviewTime: 47494
Countdown: 0
SampleSet: Soft
StackLeniency: 0.7
Mode: 0
LetterboxInBreaks: 0
WidescreenStoryboard: 0

[Editor]
Bookmarks: 630,5819,12305,17494,22684,25278,27873,30467,33062,40846,47657,52845,59331,63223,68412,80088,85277,90466,95655,102142
DistanceSpacing: 1.2
BeatDivisor: 4
GridSize: 4
TimelineZoom: 2.6

[Metadata]
Title:I am you
TitleUnicode:Iなんです
Artist:25-ji, Nightcord de. x Hatsune Miku
ArtistUnicode:25時、ナイトコードで。 × 初音ミク
Creator:Local Hero
Version:Expert
Source:プロジェクトセカイ カラフルステージ! feat. 初音ミク
Tags:Kuroise TNPosu Runigh sxnshine2020 Ixcors HATSUNE MIKU: COLORFUL STAGE! Nightcord at 25:00 ニーゴ ni-go niigo NightCode Project Sekai プロセカ Proseka Puroseka れるりり rerulili ai nan desu 陰険自撮りガール ボカロ ボーカロイド Vocaloid COLOURFUL 宵崎奏 YOISAKI KANADE 朝比奈まふゆ ASAHINA MAFUYU 東雲絵名 SHINONOME ENA 暁山瑞希 AKIYAMA MIZUKI 楠木ともり TOMORI KUSUNOKI 田辺留依 TANABE RUI 鈴木みのり SUZUKI MINORI 佐藤日向 SATO HINATA xianoll Japanese Pop Jpop J-pop Video Rhythm Mobile Game prsk pjsk I nandesu reruriri
BeatmapID:3911394
BeatmapSetID:1897775

[Difficulty]
HPDrainRate:5
CircleSize:4.2
OverallDifficulty:8.4
ApproachRate:9.3
SliderMultiplier:1.8
SliderTickRate:1

[Events]
//Background and Video events
0,0,"mezookee.jpg",0,0
Video,-272,"Ainandesu.mp4"
//Break Periods
2,58234,62669
//Storyboard Layer 0 (Background)
//Storyboard Layer 1 (Fail)
//Storyboard Layer 2 (Pass)
//Storyboard Layer 3 (Foreground)
//Storyboard Layer 4 (Overlay)
//Storyboard Sound Samples

[TimingPoints]
630,324.324324324324,4,2,1,70,1,0
630,-66.6666666666667,4,2,1,70,0,0
1279,-83.3333333333333,4,2,1,70,0,0
1765,-66.6666666666667,4,2,1,70,0,0
2090,-83.3333333333333,4,2,1,70,0,0
4359,-66.6666666666667,4,2,1,70,0,0
4684,-83.3333333333333,4,2,1,70,0,0
5819,-83.3333333333333,4,2,1,60,0,0
9711,-83.3333333333333,4,2,1,70,0,0
12305,-83.3333333333333,4,2,1,60,0,0
13440,-66.6666666666667,4,2,1,60,0,0
13765,-83.3333333333333,4,2,1,60,0,0
14738,-66.6666666666667,4,2,1,60,0,0
15063,-83.3333333333333,4,2,1,60,0,0
16035,-66.6666666666667,4,2,1,60,0,0
16359,-83.3333333333333,4,2,1,60,0,0
17494,-66.6666666666667,4,2,1,60,0,0
18143,-83.3333333333333,4,2,1,60,0,0
18629,-66.6666666666667,4,2,1,60,0,0
18954,-83.3333333333333,4,2,1,60,0,0
19927,-66.6666666666667,4,2,1,60,0,0
20251,-83.3333333333333,4,2,1,60,0,0
21224,-66.6666666666667,4,2,1,60,0,0
22035,-142.857142857143,4,2,1,60,0,0
22359,-100,4,2,1,60,0,0
22684,-100,4,2,1,50,0,0
26332,-100,4,1,1,50,0,0
26413,-100,4,2,1,50,0,0
27791,-100,4,1,1,50,0,0
27873,-100,4,2,1,50,0,0
31521,-100,4,1,1,50,0,0
31602,-100,4,2,1,50,0,0
31683,-100,4,1,1,50,0,0
31765,-62.5,4,2,1,60,0,0
32089,-71.4285714285714,4,2,1,50,0,0
32413,-83.3333333333333,4,2,1,40,0,0
32738,-100,4,2,1,30,0,0
33062,324.324324324324,3,2,1,40,1,0
33062,-125,3,2,1,40,0,0
35980,-1000,3,2,1,40,0,0
36629,-250,3,2,1,40,0,0
36953,-125,3,2,1,40,0,0
37926,-125,3,2,1,40,0,0
37980,-125,3,2,1,5,0,0
38034,-125,3,2,1,10,0,0
38089,-125,3,2,1,20,0,0
38143,-125,3,2,1,30,0,0
38197,-125,3,2,1,40,0,0
38251,-125,3,2,1,50,0,0
39872,-250,3,2,1,40,0,0
40845,-250,3,2,1,50,0,0
43116,324.324324324324,3,2,1,50,1,0
45061,324.324324324324,4,2,1,40,1,0
45061,-100,3,2,1,40,0,0
46359,-100,3,2,1,50,0,0
47007,-1000,3,2,1,50,0,0
47656,-83.3333333333333,4,2,1,70,0,0
48791,-66.6666666666667,4,2,1,70,0,0
49115,-83.3333333333333,4,2,1,70,0,0
50088,-66.6666666666667,4,2,1,70,0,0
50412,-83.3333333333333,4,2,1,70,0,0
51385,-66.6666666666667,4,2,1,70,0,0
51710,-83.3333333333333,4,2,1,70,0,0
52845,-66.6666666666667,4,2,1,70,0,0
53088,-66.6666666666667,4,2,1,5,0,0
53169,-66.6666666666667,4,2,1,70,0,0
53412,-66.6666666666667,4,2,1,5,0,0
53493,-83.3333333333333,4,2,1,70,0,0
53574,-83.3333333333333,4,2,1,5,0,0
53737,-83.3333333333333,4,2,1,70,0,0
53818,-83.3333333333333,4,2,1,5,0,0
53980,-66.6666666666667,4,2,1,70,0,0
54304,-83.3333333333333,4,2,1,70,0,0
55277,-66.6666666666667,4,2,1,70,0,0
55601,-83.3333333333333,4,2,1,70,0,0
63223,-83.3333333333333,4,2,1,50,0,0
68412,-125,4,2,1,40,0,0
73601,-125,4,2,1,50,0,0
76034,-100,4,2,1,50,0,0
80412,-66.6666666666667,4,2,1,70,0,0
80737,-83.3333333333333,4,2,1,70,0,0
81223,-66.6666666666667,4,2,1,70,0,0
81547,-83.3333333333333,4,2,1,70,0,0
82358,-66.6666666666667,4,2,1,70,0,0
82683,-83.3333333333333,4,2,1,70,0,0
83818,-66.6666666666667,4,2,1,70,0,0
84953,-100,4,2,1,70,0,0
85277,-66.6666666666667,4,2,1,70,0,0
85926,-83.3333333333333,4,2,1,70,0,0
86412,-66.6666666666667,4,2,1,70,0,0
86737,-83.3333333333333,4,2,1,70,0,0
87710,-66.6666666666667,4,2,1,70,0,0
88034,-83.3333333333333,4,2,1,70,0,0
89169,-66.6666666666667,4,2,1,70,0,0
89412,-83.3333333333333,4,2,1,70,0,0
90466,-66.6666666666667,4,2,1,60,0,0
90709,-66.6666666666667,4,2,1,5,0,0
90791,-66.6666666666667,4,2,1,60,0,0
91115,-83.3333333333333,4,2,1,60,0,0
91439,-83.3333333333333,4,2,1,5,0,0
91601,-66.6666666666667,4,2,1,60,0,0
91926,-83.3333333333333,4,2,1,60,0,0
92899,-66.6666666666667,4,2,1,60,0,0
93223,-83.3333333333333,4,2,1,60,0,0
94034,-83.3333333333333,4,2,1,60,0,0
94196,-66.6666666666667,4,2,1,60,0,0
94520,-83.3333333333333,4,2,1,60,0,0
95655,-66.6666666666667,4,2,1,60,0,0
96304,-83.3333333333333,4,2,1,60,0,0
96547,-83.3333333333333,4,2,1,60,0,0
96791,-66.6666666666667,4,2,1,60,0,0
97115,-83.3333333333333,4,2,1,60,0,0
98088,-66.6666666666667,4,2,1,60,0,0
98412,-83.3333333333333,4,2,1,60,0,0
99385,-66.6666666666667,4,2,1,60,0,0
100845,-66.6666666666667,4,2,1,70,0,0

[Colours]
Combo1 : 134,164,240
Combo2 : 10,203,203
Combo3 : 214,165,218
Combo4 : 134,65,190
Combo5 : 204,162,136
Combo6 : 191,0,96
Combo7 : 208,33,222
Combo8 : 148,133,220

[HitObjects]
467,105,630,54,0,P|379:137|367:239,1,202.500007724762,8|0,1:1|0:0,0:0:0:0:
455,249,954,2,0,P|422:336|320:348,1,202.500007724762,8|0,1:1|0:0,0:0:0:0:
260,299,1278,1,8,1:1:0:0:
258,23,1521,1,8,1:1:0:0:
260,302,1765,6,0,B|248:257|248:257|276:222|276:222|259:174|259:174|274:115,1,202.500007724762,12|0,1:1|0:0,0:0:0:0:
381,27,2089,1,0,1:0:0:0:
353,62,2170,1,0,0:0:0:0:
353,62,2251,2,0,P|380:65|415:69,1,53.9999983520508,8|0,1:1|0:0,0:0:0:0:
471,252,2413,2,0,P|444:248|417:245,1,53.9999983520508,8|0,1:1|0:0,0:0:0:0:
347,149,2575,1,0,1:0:0:0:
370,151,2656,1,0,1:0:0:0:
393,154,2737,1,0,1:0:0:0:
416,156,2818,1,0,1:0:0:0:
439,159,2899,1,0,1:0:0:0:
461,161,2980,1,0,1:0:0:0:
484,163,3062,38,0,P|475:231|464:349,1,161.999995056153,12|0,1:1|0:0,0:0:0:0:
384,366,3386,2,0,P|377:335|369:292,1,53.9999983520508,8|0,1:1|0:0,0:0:0:0:
333,228,3548,1,8,1:1:0:0:
249,373,3711,1,8,1:1:0:0:
333,228,3873,2,0,P|280:238|215:246,1,107.999996704102,0|0,1:0|1:0,0:0:0:0:
121,228,4116,1,0,1:0:0:0:
121,228,4197,1,0,1:0:0:0:
121,228,4359,6,0,B|97:106|97:106|176:88,1,202.500007724762,12|0,1:1|0:0,0:0:0:0:
370,52,4684,2,0,L|307:43,1,53.9999983520508,0|0,1:0|0:0,0:0:0:0:
143,12,4846,1,8,1:1:0:0:
194,165,5008,1,0,1:0:0:0:
24,87,5170,1,8,1:1:0:0:
24,87,5332,1,0,1:0:0:0:
75,158,5494,2,0,P|88:229|100:323,1,161.999995056153,0|0,1:0|0:0,0:0:0:0:
188,380,5819,38,0,P|261:350|252:256,1,161.999995056153,8|0,1:1|0:0,0:0:0:0:
210,197,6143,2,0,P|303:191|356:254,1,161.999995056153,0|0,1:0|0:0,0:0:0:0:
412,373,6467,2,0,P|418:313|427:254,1,107.999996704102,0|0,1:0|0:0,0:0:0:0:
472,115,6711,2,0,P|465:75|459:19,2,53.9999983520508,0|0|0,1:0|0:0|0:0,0:0:0:0:
512,209,6954,6,0,P|436:193|351:185,1,161.999995056153,0|0,1:0|0:0,0:0:0:0:
259,207,7278,1,0,1:0:0:0:
259,207,7359,1,0,1:0:0:0:
259,207,7440,1,0,1:0:0:0:
344,78,7602,1,0,1:0:0:0:
198,19,7765,1,0,1:0:0:0:
129,130,8008,1,0,1:0:0:0:
111,141,8089,2,0,P|84:136|57:134,1,53.9999983520508,0|0,1:0|0:0,0:0:0:0:
0,32,8251,6,0,P|60:55|151:52,1,107.999996704102,0|0,1:0|1:0,0:0:0:0:
230,165,8575,1,0,1:0:0:0:
194,353,8738,1,0,1:0:0:0:
108,227,8900,1,0,1:0:0:0:
30,301,9062,2,0,P|146:327|207:346,1,161.999995056153,0|0,1:0|1:0,0:0:0:0:
341,357,9386,1,0,1:0:0:0:
341,357,9467,2,0,P|369:349|405:344,2,53.9999983520508,0|0|0,0:0|1:0|0:0,0:0:0:0:
268,302,9711,5,8,1:1:0:0:
307,97,9873,1,8,1:1:0:0:
108,194,10035,1,8,1:1:0:0:
205,9,10197,1,8,1:1:0:0:
263,202,10359,1,8,1:1:0:0:
13,70,10521,1,8,1:1:0:0:
250,136,10684,1,8,1:1:0:0:
132,317,10846,6,0,B|112:184|63:218|28:169|43:85|92:51|159:97|161:149|161:149|184:95|259:80|294:129|279:213|230:248|195:198|132:317,1,701.999978576661,12|0,1:1|0:0,0:0:0:0:
126,328,11981,1,2,0:2:0:0:
407,372,12305,6,0,B|447:287|447:287|394:207,1,161.999995056153,12|0,1:1|0:0,0:0:0:0:
260,103,12629,2,0,P|314:116|374:123,1,107.999996704102,8|0,1:1|0:0,0:0:0:0:
479,13,12873,1,0,0:0:0:0:
443,77,12954,2,0,P|440:97|433:136,1,53.9999983520508,8|0,1:1|0:0,0:0:0:0:
335,330,13197,2,0,P|328:307|317:277,1,53.9999983520508,8|0,1:1|0:0,0:0:0:0:
494,216,13440,6,0,P|393:202|292:193,1,202.500007724762,12|0,1:1|0:0,0:0:0:0:
187,140,13765,1,0,1:0:0:0:
232,341,13927,1,8,1:1:0:0:
359,124,14089,1,8,1:1:0:0:
130,270,14251,1,0,1:0:0:0:
93,254,14332,1,0,1:0:0:0:
79,215,14413,1,0,1:0:0:0:
92,173,14494,1,0,1:0:0:0:
92,129,14575,2,0,L|75:76,1,53.9999983520508,0|0,1:0|1:0,0:0:0:0:
191,22,14738,6,0,P|171:121|162:222,1,202.500007724762,12|0,1:1|0:0,0:0:0:0:
142,352,15062,1,8,1:1:0:0:
6,174,15224,1,8,1:1:0:0:
21,209,15305,1,0,0:0:0:0:
31,248,15386,2,0,P|62:253|90:260,1,53.9999983520508,8|0,1:1|0:0,0:0:0:0:
214,297,15548,1,0,1:0:0:0:
150,142,15711,1,0,1:0:0:0:
318,71,15873,1,0,1:0:0:0:
318,71,16035,6,0,P|335:176|356:276,1,202.500007724762,12|0,1:1|0:0,0:0:0:0:
420,376,16359,2,0,P|425:348|435:304,1,53.9999983520508,0|0,1:0|0:0,0:0:0:0:
512,187,16521,2,0,P|504:163|495:122,2,53.9999983520508,8|0|0,1:1|0:0|1:0,0:0:0:0:
498,283,16846,1,8,1:1:0:0:
466,255,16927,1,0,1:0:0:0:
416,249,17008,1,0,1:0:0:0:
383,265,17089,1,0,1:0:0:0:
340,243,17170,1,0,1:0:0:0:
367,196,17251,1,0,1:0:0:0:
344,148,17332,1,0,1:0:0:0:
365,102,17413,1,0,1:0:0:0:
340,60,17494,6,0,B|435:52|435:52|443:168,1,202.500007724762,12|0,1:1|0:0,0:0:0:0:
326,253,17819,2,0,P|211:232|99:223,1,202.500007724762,8|0,1:1|0:0,0:0:0:0:
22,94,18143,2,0,L|41:153,1,53.9999983520508,8|0,1:1|0:0,0:0:0:0:
234,86,18386,2,0,L|239:28,1,53.9999983520508,8|0,1:1|0:0,0:0:0:0:
117,3,18629,6,0,P|127:100|130:204,1,202.500007724762,12|0,1:1|0:0,0:0:0:0:
65,304,18954,1,0,1:0:0:0:
94,341,19035,1,0,0:0:0:0:
76,379,19116,2,0,P|116:365|148:359,1,53.9999983520508,8|0,1:1|0:0,0:0:0:0:
414,252,19278,2,0,P|384:266|347:277,1,53.9999983520508,8|0,1:1|0:0,0:0:0:0:
235,373,19440,1,0,1:0:0:0:
222,337,19521,1,0,1:0:0:0:
248,318,19602,1,0,1:0:0:0:
234,295,19684,1,0,1:0:0:0:
250,277,19765,2,0,P|254:246|257:207,1,53.9999983520508,0|0,1:0|1:0,0:0:0:0:
336,62,19927,6,0,P|342:168|355:276,1,202.500007724762,12|0,1:1|0:0,0:0:0:0:
406,362,20251,2,0,P|377:350|343:340,1,53.9999983520508,8|0,1:1|0:0,0:0:0:0:
426,288,20413,1,8,1:1:0:0:
451,254,20494,1,0,0:0:0:0:
441,222,20575,1,8,1:1:0:0:
461,199,20657,1,0,0:0:0:0:
458,180,20738,2,0,P|402:175|343:169,1,107.999996704102,0|0,1:0|1:0,0:0:0:0:
164,126,20981,2,0,P|130:130|89:136,2,53.9999983520508,0|0|0,1:0|1:0|0:0,0:0:0:0:
268,26,21224,6,0,B|246:74|246:74|270:120|270:120|240:172|240:172|246:242,1,202.500007724762,12|0,1:1|0:0,0:0:0:0:
238,368,21548,1,0,1:0:0:0:
90,235,21711,1,8,1:1:0:0:
341,283,21873,1,0,1:0:0:0:
113,328,22035,1,2,0:2:0:0:
113,328,22116,1,0,0:0:0:0:
113,328,22197,2,0,L|59:322,1,31.4999990386963,2|0,0:2|0:0,0:0:0:0:
24,378,22359,2,0,P|34:304|17:219,1,135,2|0,0:2|0:0,0:0:0:0:
11,124,22684,6,0,P|79:130|161:144,1,135,12|0,1:1|0:0,0:0:0:0:
165,155,23008,2,0,P|190:150|243:132,2,45,0|0|0,1:0|0:0|0:0,0:0:0:0:
105,219,23332,1,0,1:0:0:0:
144,61,23494,1,0,1:0:0:0:
12,136,23657,1,8,1:1:0:0:
12,136,23819,1,0,1:0:0:0:
231,150,23981,6,0,P|261:110|299:62,1,90,0|0,1:0|1:0,0:0:0:0:
384,4,24224,2,0,P|378:62|373:119,1,90,0|0,1:0|1:0,0:0:0:0:
347,175,24467,2,0,P|290:125|309:57,1,135,0|0,1:0|0:0,0:0:0:0:
448,191,24792,1,0,1:0:0:0:
448,191,24873,1,0,1:0:0:0:
448,191,24954,2,0,P|393:235|329:295,1,135,8|0,1:1|0:0,0:0:0:0:
250,347,25278,5,8,1:1:0:0:
250,347,25359,1,0,0:0:0:0:
250,347,25440,2,0,L|240:300,1,45,0|0,1:0|0:0,0:0:0:0:
166,232,25602,1,0,1:0:0:0:
332,273,25765,1,0,1:0:0:0:
156,362,25927,2,0,P|132:355|103:352,1,45,0|0,1:0|0:0,0:0:0:0:
31,380,26089,1,0,1:0:0:0:
31,380,26170,2,0,P|33:337|26:288,1,90,8|0,1:1|0:0,0:0:0:0:
52,207,26413,1,0,1:0:0:0:
52,207,26575,5,8,1:1:0:0:
121,158,26738,1,0,1:0:0:0:
157,239,26900,1,0,1:0:0:0:
237,215,27062,2,0,P|306:223|383:226,1,135,8|0,1:1|1:0,0:0:0:0:
503,181,27386,1,0,1:0:0:0:
446,251,27548,2,0,P|432:192|403:98,1,135,8|0,1:1|0:0,0:0:0:0:
441,13,27873,6,0,P|390:48|291:55,1,135,8|0,1:1|0:0,0:0:0:0:
301,43,28197,1,0,1:0:0:0:
475,86,28359,1,0,1:0:0:0:
298,165,28521,1,0,1:0:0:0:
313,244,28684,1,0,1:0:0:0:
230,105,28846,1,8,1:1:0:0:
230,105,29008,1,0,1:0:0:0:
206,98,29089,1,0,1:0:0:0:
182,93,29170,6,0,P|140:103|74:109,1,90,0|0,1:0|0:0,0:0:0:0:
3,187,29413,2,0,P|49:194|104:210,1,90,0|0,1:0|0:0,0:0:0:0:
171,317,29657,2,0,B|221:263|221:263|192:192,1,135,0|0,1:0|0:0,0:0:0:0:
103,92,29981,1,0,1:0:0:0:
104,106,30062,1,0,1:0:0:0:
106,120,30143,2,0,P|113:182|119:269,1,135,8|0,1:1|0:0,0:0:0:0:
178,366,30467,5,0,1:0:0:0:
288,317,30629,1,0,1:0:0:0:
397,363,30792,1,0,1:0:0:0:
503,314,30954,1,0,1:0:0:0:
500,323,31035,1,0,1:0:0:0:
495,335,31116,2,0,L|481:276,1,45,8|0,1:1|0:0,0:0:0:0:
475,161,31278,2,0,L|448:228,1,45,0|0,1:0|0:0,0:0:0:0:
401,275,31440,2,0,L|337:258,1,45,8|0,1:1|0:0,0:0:0:0:
312,138,31602,2,0,L|375:180,1,45,0|0,1:0|0:0,0:0:0:0:
270,213,31765,6,0,P|222:129|298:46,1,216,12|0,1:1|0:0,0:0:0:0:
290,47,32089,2,0,P|240:114|268:212,1,188.999994232178,12|0,1:1|0:0,0:0:0:0:
284,308,32413,2,0,P|181:338|137:284,1,161.999995056153,12|0,1:1|0:0,0:0:0:0:
79,247,32738,2,0,P|67:173|50:115,1,135,12|0,1:1|0:0,0:0:0:0:
62,34,33062,5,6,1:2:0:0:
133,71,33278,1,2,0:2:0:0:
133,71,33386,1,2,1:2:0:0:
206,43,33602,1,2,0:2:0:0:
210,45,33710,1,2,1:2:0:0:
76,219,34034,1,2,1:2:0:0:
158,215,34251,1,2,0:2:0:0:
158,215,34359,1,2,1:2:0:0:
199,152,34575,1,2,0:2:0:0:
199,152,34683,1,2,1:2:0:0:
233,375,35007,1,2,1:2:0:0:
300,305,35224,1,2,0:2:0:0:
300,305,35332,1,2,1:2:0:0:
239,224,35548,1,2,0:2:0:0:
239,224,35656,1,2,1:2:0:0:
272,145,35872,1,2,0:2:0:0:
272,145,35980,6,0,L|287:148,1,12,2|0,1:2|0:0,0:0:0:0:
367,214,36305,2,0,L|366:199,1,12,2|0,0:2|0:0,0:0:0:0:
363,76,36629,2,0,L|366:45,2,24,2|0|2,0:2|0:0|0:2,0:0:0:0:
307,135,36953,6,0,B|352:160|352:160|417:143,1,96,2|0,1:2|0:0,0:0:0:0:
474,209,37278,2,0,B|499:254|499:254|482:319,1,96,2|0,0:2|0:0,0:0:0:0:
408,361,37602,2,0,P|359:350|304:343,1,96,2|0,1:2|0:0,0:0:0:0:
240,301,37926,2,0,L|238:288,8,12,2|0|2|0|2|0|2|0|2,1:2|0:0|0:2|0:0|0:2|0:0|0:2|0:0|0:2,0:0:0:0:
161,356,38251,6,0,L|107:346,1,48,2|0,1:2|0:0,0:0:0:0:
29,257,38467,1,2,0:2:0:0:
29,257,38575,2,0,L|79:249,1,48,2|0,1:2|0:0,0:0:0:0:
121,142,38791,1,2,0:2:0:0:
121,142,38899,2,0,B|127:93|127:93|86:55,1,96,2|2,1:2|0:2,0:0:0:0:
20,84,39224,2,0,B|14:133|14:133|55:171,1,96,2|2,1:2|0:2,0:0:0:0:
174,212,39548,2,0,L|237:205,1,48,2|0,1:2|0:0,0:0:0:0:
236,194,39764,1,2,0:2:0:0:
201,134,39872,6,0,P|211:79|219:16,1,120,2|0,0:2|0:0,0:0:0:0:
291,53,40521,2,0,L|309:52,3,18,2|0|2|0,1:2|1:0|1:2|1:0,0:0:0:0:
68,94,40845,5,8,1:1:0:0:
68,94,41007,1,0,1:0:0:0:
30,179,41170,2,0,L|82:167,1,48,0|0,1:0|0:0,0:0:0:0:
153,95,41494,2,0,L|200:106,1,48,0|0,1:0|0:0,0:0:0:0:
299,166,41818,5,8,1:1:0:0:
299,166,41980,1,0,1:0:0:0:
333,313,42143,1,0,1:0:0:0:
370,294,42251,1,0,1:0:0:0:
406,325,42359,1,0,1:0:0:0:
451,321,42467,2,0,P|454:296|462:268,1,48,0|0,1:0|1:0,0:0:0:0:
444,78,42791,5,8,1:1:0:0:
444,78,42953,1,0,1:0:0:0:
501,136,43116,5,12,1:1:0:0:
348,134,43278,1,0,1:0:0:0:
203,85,43440,1,0,1:0:0:0:
487,248,43602,5,12,1:1:0:0:
334,246,43764,1,0,1:0:0:0:
189,197,43926,1,0,1:0:0:0:
462,362,44088,5,12,1:1:0:0:
309,360,44250,1,0,1:0:0:0:
164,311,44412,1,0,1:0:0:0:
71,188,44575,5,12,1:1:0:0:
89,353,44737,1,0,1:0:0:0:
22,303,44899,1,0,1:0:0:0:
171,75,45061,1,12,1:1:0:0:
256,192,45116,12,2,46197,0:2:0:0:
276,382,46359,5,2,0:2:0:0:
308,344,46440,1,2,0:2:0:0:
263,323,46521,1,2,0:2:0:0:
288,280,46602,1,2,0:2:0:0:
251,261,46683,1,2,0:2:0:0:
264,222,46764,1,2,0:2:0:0:
237,204,46845,1,2,0:2:0:0:
248,174,46926,1,2,0:2:0:0:
235,162,47007,2,0,L|231:148,1,13.5,0|0,1:0|0:0,0:0:0:0:
171,83,47332,2,0,L|156:86,1,13.5,0|0,1:0|0:0,0:0:0:0:
29,95,47656,6,0,P|90:160|79:258,1,161.999995056153,12|0,1:1|0:0,0:0:0:0:
6,316,47980,2,0,P|50:368|148:357,1,161.999995056153,8|0,1:1|0:0,0:0:0:0:
245,358,48304,2,0,P|243:335|237:287,1,53.9999983520508,8|0,1:1|0:0,0:0:0:0:
307,29,48547,2,0,P|304:57|301:82,1,53.9999983520508,8|0,1:1|0:0,0:0:0:0:
403,226,48791,6,0,B|359:204|359:204|316:225|316:225|270:196|270:196|205:199,1,202.500007724762,12|0,1:1|0:0,0:0:0:0:
36,296,49115,1,0,1:0:0:0:
81,270,49196,1,0,0:0:0:0:
119,299,49277,2,0,P|112:263|104:227,1,53.9999983520508,8|0,1:1|0:0,0:0:0:0:
63,97,49439,2,0,P|67:62|75:21,1,53.9999983520508,8|0,1:1|0:0,0:0:0:0:
11,159,49601,1,0,1:0:0:0:
22,162,49683,1,0,1:0:0:0:
33,166,49764,1,0,1:0:0:0:
44,170,49845,1,0,1:0:0:0:
56,176,49926,1,0,1:0:0:0:
67,182,50007,1,0,1:0:0:0:
77,190,50088,6,0,P|186:168|297:155,1,202.500007724762,0|0,1:1|0:0,0:0:0:0:
341,80,50412,2,0,P|296:71|255:60,1,53.9999983520508,8|0,1:1|0:0,0:0:0:0:
224,16,50574,1,8,1:1:0:0:
395,153,50737,1,8,1:1:0:0:
288,296,50898,1,0,1:0:0:0:
270,316,50980,1,0,1:0:0:0:
287,336,51061,1,0,1:0:0:0:
266,353,51142,1,0,1:0:0:0:
270,375,51223,2,0,P|224:370|192:368,1,53.9999983520508,8|8,1:0|1:0,0:0:0:0:
68,375,51385,6,0,P|106:284|136:182,1,202.500007724762,8|0,1:1|0:0,0:0:0:0:
68,76,51710,2,0,P|74:112|83:150,1,53.9999983520508,0|0,1:0|0:0,0:0:0:0:
185,269,51872,1,8,1:1:0:0:
316,208,52034,1,0,1:0:0:0:
385,359,52196,1,8,1:1:0:0:
385,359,52358,1,0,1:0:0:0:
302,296,52520,2,0,B|286:236|321:220|361:207|313:116,1,161.999995056153,0|8,1:0|1:0,0:0:0:0:
290,28,52845,6,0,P|202:71|72:77,1,202.500007724762,12|0,1:1|0:0,0:0:0:0:
0,161,53169,2,0,P|137:184|200:208,1,202.500007724762,8|0,1:1|0:0,0:0:0:0:
325,334,53493,2,0,L|322:281,1,53.9999983520508,8|0,1:1|0:0,0:0:0:0:
465,131,53737,2,0,L|481:197,1,53.9999983520508,8|0,1:1|0:0,0:0:0:0:
423,361,53980,6,0,B|452:280|452:280|396:244|396:244|397:183,1,202.500007724762,12|0,1:1|0:0,0:0:0:0:
416,53,54304,1,0,1:0:0:0:
399,68,54385,1,0,1:0:0:0:
381,79,54466,2,0,P|354:73|317:70,1,53.9999983520508,8|0,1:1|0:0,0:0:0:0:
248,24,54628,2,0,P|222:30|183:35,1,53.9999983520508,8|0,1:1|0:0,0:0:0:0:
15,25,54791,1,0,1:0:0:0:
48,65,54872,1,0,1:0:0:0:
66,115,54953,1,0,1:0:0:0:
77,167,55034,1,0,1:0:0:0:
79,215,55115,2,0,P|72:246|65:278,1,53.9999983520508,0|0,1:0|1:0,0:0:0:0:
8,370,55277,6,0,P|97:350|217:339,1,202.500007724762,12|0,1:1|0:0,0:0:0:0:
404,280,55601,1,8,1:1:0:0:
299,377,55764,1,8,1:1:0:0:
243,204,55926,1,8,1:1:0:0:
243,204,56088,2,0,P|256:150|262:80,1,107.999996704102,0|0,1:0|1:0,0:0:0:0:
375,5,56331,1,0,1:0:0:0:
375,5,56412,2,0,P|345:24|322:52,1,53.9999983520508,0|0,1:0|0:0,0:0:0:0:
176,103,56574,2,0,P|148:97|96:78,1,53.9999983520508,8|0,1:1|0:0,0:0:0:0:
18,11,56737,5,12,1:0:0:0:
105,110,56899,1,0,1:0:0:0:
65,232,57061,1,8,1:1:0:0:
138,314,57223,1,8,1:1:0:0:
154,311,57304,1,0,1:0:0:0:
170,309,57385,1,0,1:0:0:0:
265,232,57547,1,0,1:0:0:0:
406,348,57710,1,0,1:0:0:0:
284,354,57872,1,0,1:0:0:0:
371,155,58034,5,4,1:1:0:0:
230,153,63223,6,0,P|218:101|202:50,1,107.999996704102,12|0,1:1|1:0,0:0:0:0:
310,13,63466,1,0,1:0:0:0:
310,13,63547,2,0,P|290:41|275:87,1,53.9999983520508,8|0,1:1|0:0,0:0:0:0:
174,239,63710,2,0,P|147:224|127:197,1,53.9999983520508,0|0,1:0|0:0,0:0:0:0:
92,97,63872,1,8,1:1:0:0:
26,182,64034,1,0,1:0:0:0:
26,182,64115,2,0,P|49:251|58:307,1,107.999996704102,0|0,1:0|0:0,0:0:0:0:
119,369,64358,2,0,P|127:341|136:304,1,53.9999983520508,0|0,1:0|0:0,0:0:0:0:
230,158,64520,5,8,1:1:0:0:
288,350,64683,1,0,1:0:0:0:
282,335,64764,1,0,1:0:0:0:
276,323,64845,1,8,1:1:0:0:
390,219,65007,1,0,1:0:0:0:
487,309,65169,1,8,1:1:0:0:
510,135,65331,1,0,1:0:0:0:
490,130,65412,2,0,P|440:120|370:113,1,107.999996704102,0|0,1:0|0:0,0:0:0:0:
224,119,65655,2,0,P|249:104|295:88,1,53.9999983520508,0|0,1:0|1:0,0:0:0:0:
387,24,65818,5,8,1:1:0:0:
295,169,65980,1,0,1:0:0:0:
295,169,66061,2,0,P|302:200|305:225,1,53.9999983520508,0|8,1:0|1:1,0:0:0:0:
197,240,66223,1,0,0:0:0:0:
197,240,66304,2,0,P|190:208|187:184,1,53.9999983520508,0|0,1:0|0:0,0:0:0:0:
136,51,66466,2,0,P|107:44|73:40,2,53.9999983520508,8|0|0,1:1|0:0|1:0,0:0:0:0:
397,175,66710,2,0,P|403:143|417:86,2,53.9999983520508,8|0|0,1:1|0:0|1:0,0:0:0:0:
323,334,66953,2,0,P|287:336|246:341,1,53.9999983520508,8|0,1:1|0:0,0:0:0:0:
62,369,67115,5,8,1:1:0:0:
62,369,67277,1,8,1:1:0:0:
62,369,67358,2,0,P|69:338|77:308,1,53.9999983520508,0|0,1:0|1:0,0:0:0:0:
103,226,67520,1,8,1:1:0:0:
103,226,67601,2,0,P|96:195|88:165,1,53.9999983520508,8|0,1:0|0:0,0:0:0:0:
218,31,67764,2,0,L|207:104,2,53.9999983520508,8|0|0,1:1|0:0|0:0,0:0:0:0:
331,206,68007,2,0,L|323:135,2,53.9999983520508,8|0|0,1:1|1:0|1:0,0:0:0:0:
392,257,68250,1,0,1:0:0:0:
465,234,68331,1,0,1:0:0:0:
479,159,68412,6,0,P|466:92|456:7,1,144,2|2,0:2|0:2,0:0:0:0:
469,326,69061,2,0,P|431:339|394:357,1,72,2|0,0:2|0:0,0:0:0:0:
380,337,69304,2,0,P|346:316|308:300,1,72,2|0,0:2|0:0,0:0:0:0:
306,287,69547,2,0,P|296:221|277:130,1,144,2|2,0:2|0:2,0:0:0:0:
316,41,70034,1,2,0:2:0:0:
235,88,70196,1,2,0:2:0:0:
155,56,70358,1,2,0:2:0:0:
142,69,70520,2,0,L|100:69,2,36,2|2|2,0:2|0:2|0:2,0:0:0:0:
248,2,70845,6,0,P|230:83|218:166,1,144,2|2,0:2|0:2,0:0:0:0:
256,249,71331,1,2,0:2:0:0:
171,215,71493,1,2,0:2:0:0:
83,231,71655,1,2,0:2:0:0:
326,129,71899,1,2,0:2:0:0:
276,378,72142,2,0,P|265:306|251:233,1,144,2|2,0:2|0:2,0:0:0:0:
193,103,72628,1,2,0:2:0:0:
112,151,72791,1,2,0:2:0:0:
41,98,72953,1,2,0:2:0:0:
41,98,73277,2,0,P|58:165|60:225,1,108,2|0,0:2|0:0,0:0:0:0:
101,369,73601,6,0,P|119:301|137:281,1,72,8|0,1:1|0:0,0:0:0:0:
195,247,73845,1,0,0:0:0:0:
195,247,73926,2,0,P|206:307|217:336,1,72,0|0,1:0|1:0,0:0:0:0:
307,357,74169,1,0,1:0:0:0:
307,357,74250,2,0,P|331:353|352:352,2,36,8|0|0,1:1|0:0|1:0,0:0:0:0:
279,284,74493,2,0,P|286:245|292:202,1,72,0|0,1:0|0:0,0:0:0:0:
368,147,74737,6,0,P|299:138|269:96,1,108,0|0,1:0|0:0,0:0:0:0:
278,94,75061,1,0,1:0:0:0:
398,53,75223,1,0,1:0:0:0:
281,218,75385,1,0,1:0:0:0:
184,54,75547,1,8,1:1:0:0:
89,118,75710,2,0,L|85:98,3,18,0|0|0|0,1:0|0:0|1:0|0:0,0:0:0:0:
110,143,75872,1,0,1:0:0:0:
224,5,76034,6,0,P|209:76|202:143,1,135,0|0,1:0|0:0,0:0:0:0:
159,214,76358,2,0,P|179:223|205:236,1,45,0|0,1:0|1:0,0:0:0:0:
304,353,76520,1,0,1:0:0:0:
360,264,76683,1,0,1:0:0:0:
307,170,76845,1,8,1:1:0:0:
307,170,77007,1,0,1:0:0:0:
416,358,77169,2,0,P|404:286|422:211,1,135,0|0,1:0|0:0,0:0:0:0:
435,218,77493,1,8,1:1:0:0:
499,319,77655,5,0,1:0:0:0:
310,306,77818,1,0,1:0:0:0:
431,138,77980,1,0,1:0:0:0:
301,47,78142,1,8,1:1:0:0:
431,138,78304,1,0,1:0:0:0:
310,306,78466,1,0,1:0:0:0:
162,207,78628,1,8,1:1:0:0:
31,330,78791,5,2,0:2:0:0:
56,306,78872,1,2,0:2:0:0:
38,277,78953,1,2,0:2:0:0:
70,258,79034,1,2,0:2:0:0:
40,242,79115,1,2,0:2:0:0:
54,201,79196,1,2,0:2:0:0:
16,177,79277,1,2,0:2:0:0:
33,134,79358,1,2,0:2:0:0:
7,96,79439,5,0,1:0:0:0:
239,376,79683,1,0,1:0:0:0:
494,161,79926,1,0,1:0:0:0:
249,363,80412,6,0,B|261:318|261:318|233:283|233:283|250:235|250:235|235:176,1,202.500007724762,12|0,1:1|0:0,0:0:0:0:
253,72,80737,2,0,P|222:60|191:48,2,53.9999983520508,8|0|0,1:1|0:0|0:0,0:0:0:0:
325,128,80980,2,0,P|391:119|459:115,1,107.999996704102,8|0,1:1|0:0,0:0:0:0:
448,30,81223,6,0,P|389:120|430:231,1,202.500007724762,12|0,1:1|0:0,0:0:0:0:
491,371,81547,1,0,1:0:0:0:
348,320,81710,1,8,1:1:0:0:
470,272,81872,1,8,1:1:0:0:
331,306,82034,2,0,P|301:303|278:300,1,53.9999983520508,0|0,1:0|0:0,0:0:0:0:
83,255,82196,2,0,P|102:261|137:274,1,53.9999983520508,0|0,1:0|0:0,0:0:0:0:
196,369,82358,2,0,P|206:281|227:166,1,202.500007724762,0|0,1:0|0:0,0:0:0:0:
283,29,82683,5,12,1:0:0:0:
111,128,82845,1,8,1:1:0:0:
59,29,83007,1,8,1:1:0:0:
248,103,83169,1,8,1:1:0:0:
423,33,83331,1,0,1:0:0:0:
225,8,83493,1,0,1:0:0:0:
235,53,83574,1,0,1:0:0:0:
253,108,83655,1,0,1:0:0:0:
253,108,83818,6,0,P|233:219|222:334,1,202.500007724762,12|0,1:1|0:0,0:0:0:0:
133,381,84142,2,0,P|125:348|117:315,1,67.5000025749208,0|0,1:0|0:0,0:0:0:0:
45,223,84304,1,8,1:1:0:0:
263,375,84466,1,0,1:0:0:0:
455,284,84628,1,8,1:1:0:0:
455,284,84791,1,0,1:0:0:0:
413,359,84953,2,0,P|405:278|395:221,1,135.000005149842,0|0,1:0|0:0,0:0:0:0:
406,126,85277,6,0,B|367:137|317:162|317:162|314:230|308:276,1,202.500007724762,12|0,1:1|0:0,0:0:0:0:
243,362,85601,2,0,P|178:338|206:216,1,202.500007724762,8|0,1:1|0:0,0:0:0:0:
252,145,85926,2,0,P|285:151|329:161,2,53.9999983520508,8|0|0,1:1|0:0|0:0,0:0:0:0:
137,165,86169,2,0,P|87:117|102:71,1,107.999996704102,8|0,1:1|0:0,0:0:0:0:
208,28,86412,6,0,P|184:126|166:226,1,202.500007724762,12|0,1:1|0:0,0:0:0:0:
70,321,86737,1,0,1:0:0:0:
78,343,86818,1,0,0:0:0:0:
84,359,86899,2,0,P|116:367|158:379,1,53.9999983520508,8|0,1:1|0:0,0:0:0:0:
241,333,87061,2,0,P|271:328|316:321,1,53.9999983520508,8|0,1:1|0:0,0:0:0:0:
428,360,87223,1,0,1:0:0:0:
421,346,87304,1,0,1:0:0:0:
443,340,87385,1,0,1:0:0:0:
448,323,87466,1,0,1:0:0:0:
435,306,87547,2,0,P|431:277|423:238,1,53.9999983520508,0|0,1:0|1:0,0:0:0:0:
352,98,87710,6,0,P|426:39|522:108,1,202.500007724762,8|0,1:1|0:0,0:0:0:0:
512,211,88034,2,0,P|480:203|455:198,1,53.9999983520508,8|0,1:1|0:0,0:0:0:0:
356,182,88196,1,8,1:1:0:0:
356,182,88358,1,8,1:1:0:0:
434,119,88520,2,0,P|439:61|439:-2,1,107.999996704102,0|0,1:0|1:0,0:0:0:0:
286,37,88764,2,0,P|313:40|340:43,2,53.9999983520508,0|0|0,1:0|1:0|0:0,0:0:0:0:
171,6,89007,2,0,P|144:21|105:40,1,53.9999983520508,12|0,1:1|0:0,0:0:0:0:
12,167,89169,5,12,1:0:0:0:
192,107,89331,1,0,1:0:0:0:
122,239,89493,1,8,1:1:0:0:
206,351,89655,2,0,P|292:328|364:316,1,161.999995056153,0|0,1:0|0:0,0:0:0:0:
496,224,89980,1,0,1:0:0:0:
369,304,90142,1,0,1:0:0:0:
377,237,90223,1,0,1:0:0:0:
383,170,90304,2,0,L|389:109,1,53.9999983520508,0|0,1:0|1:0,0:0:0:0:
461,29,90466,6,0,P|352:22|284:110,1,202.500007724762,12|0,1:1|0:0,0:0:0:0:
202,201,90791,2,0,P|121:174|110:112,1,135.000005149842,8|0,1:1|0:0,0:0:0:0:
113,56,91034,1,0,1:0:0:0:
126,34,91115,2,0,P|158:24|200:16,1,53.9999983520508,8|0,1:1|0:0,0:0:0:0:
142,295,91358,2,0,P|105:285|55:276,1,53.9999983520508,8|0,1:1|0:0,0:0:0:0:
39,166,91601,6,0,P|152:153|241:147,1,202.500007724762,12|0,1:1|0:0,0:0:0:0:
374,191,91926,2,0,P|355:226|348:279,1,53.9999983520508,0|0,1:0|0:0,0:0:0:0:
309,362,92088,2,0,P|290:326|283:274,1,53.9999983520508,8|0,1:1|1:0,0:0:0:0:
179,262,92250,2,0,P|209:245|242:220,1,53.9999983520508,8|0,1:1|0:0,0:0:0:0:
365,93,92412,1,0,1:0:0:0:
338,107,92493,1,0,1:0:0:0:
304,84,92574,1,0,1:0:0:0:
278,99,92655,1,0,1:0:0:0:
286,111,92737,2,0,P|294:147|300:181,1,53.9999983520508,0|0,1:0|1:0,0:0:0:0:
389,302,92899,6,0,P|275:280|145:266,1,202.500007724762,12|0,1:1|0:0,0:0:0:0:
14,128,93223,2,0,P|35:150|63:177,1,53.9999983520508,8|0,1:1|0:0,0:0:0:0:
108,250,93385,1,8,1:1:0:0:
104,278,93466,1,0,1:0:0:0:
100,314,93547,1,8,1:1:0:0:
100,314,93710,2,0,P|91:232|84:179,1,107.999996704102,0|0,1:0|1:0,0:0:0:0:
97,38,93953,1,0,1:0:0:0:
78,70,94034,1,0,1:0:0:0:
78,70,94196,6,0,B|191:45|191:45|179:136,1,202.500007724762,12|0,1:1|0:0,0:0:0:0:
165,216,94520,1,0,1:0:0:0:
168,220,94683,2,0,L|240:240,2,53.9999983520508,8|0|0,1:1|0:0|1:0,0:0:0:0:
96,170,94926,1,0,0:0:0:0:
96,170,95007,1,8,1:1:0:0:
85,250,95169,1,0,1:0:0:0:
179,131,95331,1,0,1:0:0:0:
319,206,95493,1,0,1:0:0:0:
443,84,95655,6,0,P|417:201|408:269,1,135.000005149842,12|0,1:1|0:0,0:0:0:0:
422,358,95899,1,0,0:0:0:0:
402,355,95980,2,0,P|343:323|260:365,1,135.000005149842,8|0,1:1|0:0,0:0:0:0:
128,380,96223,1,0,0:0:0:0:
146,346,96304,2,0,P|151:312|156:290,2,53.9999983520508,8|0|0,1:1|0:0|0:0,0:0:0:0:
60,268,96547,2,0,P|54:242|50:216,1,53.9999983520508,8|0,1:1|0:0,0:0:0:0:
66,200,96791,6,0,P|167:211|271:228,1,202.500007724762,12|0,1:1|0:0,0:0:0:0:
392,153,97115,1,0,1:0:0:0:
336,201,97196,1,0,1:0:0:0:
336,201,97277,2,0,P|325:167|324:134,1,53.9999983520508,8|0,1:1|0:0,0:0:0:0:
343,57,97439,2,0,P|307:63|268:65,1,53.9999983520508,8|0,1:1|0:0,0:0:0:0:
178,40,97601,1,0,1:0:0:0:
159,60,97683,1,0,1:0:0:0:
132,53,97764,1,0,1:0:0:0:
113,72,97845,1,0,1:0:0:0:
86,69,97926,2,0,P|96:99|101:124,1,53.9999983520508,0|0,1:0|1:0,0:0:0:0:
129,275,98088,6,0,B|145:225|152:186|152:186|208:211|271:220,1,202.500007724762,12|0,1:1|0:0,0:0:0:0:
441,247,98412,2,0,P|406:250|364:255,1,53.9999983520508,8|0,1:1|0:0,0:0:0:0:
209,282,98574,1,8,1:1:0:0:
248,313,98655,1,0,0:0:0:0:
281,332,98737,1,8,1:1:0:0:
281,332,98899,2,0,P|287:288|293:258,1,53.9999983520508,0|0,1:0|0:0,0:0:0:0:
330,178,99061,2,0,L|322:141,3,26.9999991760254,0|0|0|0,1:0|0:0|1:0|0:0,0:0:0:0:
346,192,99223,1,0,1:0:0:0:
446,358,99385,6,0,P|446:278|473:152,1,202.500007724762,12|0,1:1|0:0,0:0:0:0:
497,63,99710,1,8,1:1:0:0:
452,79,99791,1,0,1:0:0:0:
415,48,99872,1,8,1:1:0:0:
383,83,99953,1,0,1:0:0:0:
378,129,100034,1,0,1:0:0:0:
351,90,100115,1,0,1:0:0:0:
351,42,100196,1,0,1:0:0:0:
306,27,100277,1,0,1:0:0:0:
259,31,100358,1,0,1:0:0:0:
225,64,100439,1,0,1:0:0:0:
269,94,100520,1,0,1:0:0:0:
259,147,100601,1,0,1:0:0:0:
205,159,100683,1,0,1:0:0:0:
199,212,100764,1,0,1:0:0:0:
242,243,100845,5,8,1:1:0:0:
11,28,101169,5,8,1:1:0:0:
465,21,101493,6,0,L|456:89,1,67.5000025749208,8|0,1:1|0:0,0:0:0:0:
489,235,101737,5,8,1:1:0:0:
489,235,101818,2,0,L|427:207,1,67.5000025749208,0|0,1:0|1:0,0:0:0:0:
248,101,101980,6,0,L|242:67,1,33.7500012874604,8|0,1:1|0:0,0:0:0:0:
