osu file format v14

[General]
AudioFilename: audio.mp3
AudioLeadIn: 0
PreviewTime: 48274
Countdown: 0
SampleSet: Soft
StackLeniency: 0.5
Mode: 0
LetterboxInBreaks: 0
WidescreenStoryboard: 1

[Editor]
DistanceSpacing: 0.7
BeatDivisor: 4
GridSize: 4
TimelineZoom: 2.4

[Metadata]
Title:Bitter Choco Decoration
TitleUnicode:ビターチョコデコレーション
Artist:25-ji, Nightcord de.
ArtistUnicode:25時、ナイトコードで。
Creator:Mononymous
Version:Normal
Source:プロジェクトセカイ カラフルステージ! feat. 初音ミク
Tags:syudou 手動 video game j-pop pop jpop japanese Hatsune Miku Project Sekai Colorful Colourful Stage! 拝郷 メイコ Yoisaki Kanade 宵崎奏 Kusunoki Tomori 楠木 ともり Asahina Mafuyu 朝比奈まふゆ Tanabe Rui 留依 Shinonome Ena 東雲絵名 Suzuki Minori 鈴木 みのり Akiyama Mizuki 暁山瑞希 Satou Hinata 佐藤 日向 初音ミク
BeatmapID:3146244
BeatmapSetID:1538879

[Difficulty]
HPDrainRate:4
CircleSize:3.4
OverallDifficulty:5
ApproachRate:6
SliderMultiplier:1.2
SliderTickRate:1

[Events]
//Background and Video events
Video,-100,"Chocolate.mp4"
0,0,"Mizuki bg.jpg",0,0
//Break Periods
//Storyboard Layer 0 (Background)
//Storyboard Layer 1 (Fail)
//Storyboard Layer 2 (Pass)
//Storyboard Layer 3 (Foreground)
//Storyboard Layer 4 (Overlay)
//Storyboard Sound Samples

[TimingPoints]
204,344.827586206897,4,2,1,50,1,0
4341,-111.111111111111,4,2,1,50,0,0
9859,-90.9090909090909,4,2,1,75,0,0
15376,-111.111111111111,4,2,1,60,0,0
37445,-100,4,2,1,60,0,0
45721,-100,4,2,1,55,0,0
48479,-90.9090909090909,4,2,1,80,0,1
59169,-95.2380952380952,4,2,1,80,0,0
59514,-90.9090909090909,4,2,1,80,0,1
71755,-111.111111111111,4,2,1,65,0,0
72962,-90.9090909090909,4,2,1,80,0,0
73307,-100,4,2,1,70,0,0
84341,-100,4,2,1,55,0,0
87100,-90.9090909090909,4,2,1,80,0,1
97790,-90.9090909090909,4,2,1,80,0,0
98135,-90.9090909090909,4,2,1,80,0,1
107790,-90.9090909090909,4,2,1,80,0,0
109169,-90.9090909090909,4,2,1,80,0,1
126755,-90.9090909090909,4,2,1,70,0,1
126928,-100,4,2,1,70,0,0
128307,-100,4,2,1,55,0,0

[Colours]
Combo1 : 166,60,79
Combo2 : 234,156,134
Combo3 : 242,217,92
Combo4 : 168,115,158

[HitObjects]
155,191,4341,6,0,P|96:191|73:141,1,107.999996704102,2|2,0:0|0:0,0:0:0:0:
53,102,4859,2,0,L|67:34,1,53.9999983520508,2|2,0:0|0:0,0:0:0:0:
164,10,5376,1,2,0:0:0:0:
243,83,5721,2,0,P|312:93|342:131,1,107.999996704102,2|2,0:0|0:0,0:0:0:0:
363,165,6238,1,2,0:0:0:0:
307,317,6755,1,2,0:0:0:0:
205,354,7100,6,0,P|152:335|140:279,1,107.999996704102,2|2,0:0|0:0,0:0:0:0:
159,239,7617,1,2,0:0:0:0:
28,142,8135,5,2,0:0:0:0:
108,69,8479,2,0,P|165:50|212:85,1,107.999996704102,0|2,0:0|0:0,0:0:0:0:
232,118,8997,1,2,0:0:0:0:
322,58,9341,1,2,0:0:0:0:
322,58,9514,2,0,L|384:72,1,53.9999983520508,2|2,3:2|3:2,0:0:0:0:
427,62,9859,6,0,P|401:124|425:189,1,132.00000402832,6|10,1:2|0:0,0:0:0:0:
459,226,10376,1,2,0:0:0:0:
459,226,10548,2,0,P|395:250|329:285,1,132.00000402832,2|10,0:0|0:0,0:0:0:0:
234,301,11238,2,0,P|197:247|215:188,1,132.00000402832,2|10,1:2|0:0,0:0:0:0:
256,154,11755,1,10,0:0:0:0:
168,104,12100,5,0,1:0:0:0:
168,104,12272,2,0,L|97:117,1,66.0000020141602,10|0,0:0|0:0,0:0:0:0:
60,147,12617,2,0,L|88:280,1,132.00000402832,2|10,1:2|0:0,0:0:0:0:
103,326,13135,1,10,0:0:0:0:
209,304,13479,1,0,1:0:0:0:
209,304,13652,2,0,P|225:266|248:240,1,66.0000020141602,10|0,0:0|0:0,0:0:0:0:
291,234,13997,1,0,1:0:0:0:
287,128,14341,1,10,0:0:0:0:
189,87,14686,2,0,L|128:124,2,66.0000020141602,0|2|2,0:0|1:2|3:2,0:0:0:0:
226,48,15204,5,2,3:2:0:0:
226,48,15376,2,0,L|288:37,1,53.9999983520508,4|2,3:2|0:0,0:0:0:0:
332,29,15721,1,10,0:0:0:0:
423,86,16066,2,0,P|416:113|402:138,2,53.9999983520508,2|2|10,0:0|1:2|0:0,0:0:0:0:
474,69,16583,2,0,P|484:135|495:195,1,107.999996704102,2|2,0:0|0:0,0:0:0:0:
499,229,17100,1,10,0:0:0:0:
414,296,17445,6,0,P|362:313|312:288,1,107.999996704102,2|10,0:0|0:0,0:0:0:0:
277,254,17962,2,0,P|224:237|174:262,1,107.999996704102,2|2,0:0|0:0,0:0:0:0:
136,291,18479,1,10,0:0:0:0:
54,219,18824,2,0,P|107:203|137:156,1,107.999996704102,2|10,0:0|0:0,0:0:0:0:
117,109,19341,2,0,P|162:83|213:94,1,107.999996704102,2|2,0:0|0:0,0:0:0:0:
253,132,19859,1,10,0:0:0:0:
342,71,20204,2,0,L|399:87,2,53.9999983520508,2|0|10,0:0|1:0|0:0,0:0:0:0:
253,132,20893,5,0,1:0:0:0:
253,132,21066,2,0,L|259:205,1,53.9999983520508,2|10,0:0|0:0,0:0:0:0:
241,239,21410,1,10,0:0:0:0:
241,239,21583,2,0,P|212:247|182:270,2,53.9999983520508,2|2|10,0:0|1:2|0:0,0:0:0:0:
284,271,22100,2,0,P|329:312|394:303,1,107.999996704102,2|2,0:0|0:0,0:0:0:0:
417,280,22617,1,10,0:0:0:0:
456,179,22962,2,0,L|517:196,2,53.9999983520508,2|2|10,0:0|1:2|0:0,0:0:0:0:
418,140,23479,1,2,0:0:0:0:
320,180,23824,5,2,0:0:0:0:
320,180,23997,2,0,P|281:177|251:162,1,53.9999983520508,10|10,0:0|0:0,0:0:0:0:
219,147,24341,2,0,P|215:173|205:198,2,53.9999983520508,2|2|10,0:0|1:2|0:0,0:0:0:0:
189,101,24859,1,2,0:0:0:0:
112,177,25204,1,2,0:0:0:0:
112,177,25376,2,0,L|54:191,1,53.9999983520508,10|10,0:0|0:0,0:0:0:0:
22,150,25721,2,0,P|3:122|0:86,2,53.9999983520508,2|2|2,0:0|1:2|3:2,0:0:0:0:
106,81,26410,5,4,3:2:0:0:
106,81,26583,2,0,L|168:67,2,53.9999983520508,2|10|10,0:0|0:0|0:0,0:0:0:0:
65,44,27100,2,0,L|3:30,2,53.9999983520508,2|2|10,0:0|1:2|0:0,0:0:0:0:
102,4,27617,1,2,0:0:0:0:
213,18,27962,1,2,0:0:0:0:
213,18,28135,2,0,P|241:41|270:46,1,53.9999983520508,10|10,0:0|0:0,0:0:0:0:
309,31,28479,1,2,0:0:0:0:
397,102,28824,5,10,0:0:0:0:
397,102,28997,2,0,P|369:158|323:149,1,107.999996704102,2|2,0:0|0:0,0:0:0:0:
285,183,29514,2,0,L|296:244,1,53.9999983520508,10|10,0:0|0:0,0:0:0:0:
325,280,29859,1,2,0:0:0:0:
240,352,30204,1,10,0:0:0:0:
240,352,30376,2,0,P|182:314|134:321,1,107.999996704102,2|2,0:0|0:0,0:0:0:0:
96,339,30893,2,0,L|40:352,1,53.9999983520508,10|10,0:0|0:0,0:0:0:0:
7,310,31238,2,0,L|21:254,2,53.9999983520508,2|2|10,0:0|1:2|3:2,0:0:0:0:
101,254,31928,5,0,1:0:0:0:
101,254,32100,2,0,P|127:257|152:269,1,53.9999983520508,2|10,0:0|0:0,0:0:0:0:
202,300,32445,1,10,0:0:0:0:
202,300,32617,1,2,0:0:0:0:
288,234,32962,1,10,0:0:0:0:
288,234,33135,2,0,P|281:168|252:120,1,107.999996704102,2|2,0:0|0:0,0:0:0:0:
225,91,33652,2,0,P|239:60|262:37,1,53.9999983520508,10|10,0:0|0:0,0:0:0:0:
300,20,33997,1,2,0:0:0:0:
405,60,34341,5,10,0:0:0:0:
405,59,34514,2,0,P|380:106|329:121,1,107.999996704102,2|2,0:0|0:0,0:0:0:0:
276,106,35031,2,0,L|212:87,1,53.9999983520508,10|10,0:0|0:0,0:0:0:0:
175,59,35376,2,0,L|111:78,2,53.9999983520508,2|2|10,0:0|1:2|0:0,0:0:0:0:
209,17,35893,1,2,0:0:0:0:
319,35,36238,1,10,0:0:0:0:
319,35,36410,2,0,L|386:21,2,53.9999983520508,10|2|10,0:0|1:2|0:0,0:0:0:0:
256,123,37100,6,0,P|228:142|205:142,1,53.9999983520508,2|2,3:2|3:2,0:0:0:0:
162,111,37445,2,0,P|106:108|79:158,1,120,0|10,1:0|0:0,0:0:0:0:
96,265,38135,1,2,1:2:0:0:
204,241,38479,1,10,0:0:0:0:
204,241,38652,2,0,P|271:254|323:281,1,120,2|2,1:2|1:2,0:0:0:0:
403,341,39341,1,2,1:2:0:0:
488,275,39686,1,2,0:0:0:0:
406,203,40031,6,0,P|398:130|413:72,1,120,2|2,0:0|0:0,0:0:0:0:
440,41,40548,1,10,0:0:0:0:
335,11,40893,2,0,L|272:25,1,60,2|2,1:2|0:0,0:0:0:0:
228,43,41238,1,10,0:0:0:0:
228,43,41410,1,2,1:2:0:0:
124,36,41755,1,2,1:2:0:0:
124,36,41928,2,0,P|141:60|146:89,1,60,10|2,0:0|1:2,0:0:0:0:
106,126,42272,2,0,P|173:154|186:202,1,120,2|8,1:2|0:0,0:0:0:0:
147,296,42962,6,0,P|184:353|232:364,1,120,0|10,1:0|0:0,0:0:0:0:
307,288,43652,1,0,1:0:0:0:
413,307,43997,1,10,0:0:0:0:
485,227,44342,1,2,0:0:0:0:
436,130,44687,1,10,0:0:0:0:
329,111,45031,1,2,0:0:0:0:
251,185,45376,2,0,L|183:173,1,60,10|0,3:2|3:0,0:0:0:0:
152,137,45721,5,2,1:2:0:0:
77,215,46066,1,10,0:0:0:0:
77,215,46238,2,0,P|83:283|119:338,1,120,2|10,1:2|0:0,0:0:0:0:
207,369,46928,2,0,P|227:297|237:238,1,120,2|10,1:2|0:0,0:0:0:0:
235,198,47445,2,0,L|297:216,2,60,10|2|10,0:0|1:2|0:0,0:0:0:0:
114,97,48307,5,2,0:0:0:0:
114,97,48479,2,0,P|94:170|105:229,1,132.00000402832,6|10,1:2|0:0,0:0:0:0:
144,266,48997,1,10,0:0:0:0:
144,266,49169,2,0,P|135:327|67:351,1,132.00000402832,2|10,1:2|0:0,0:0:0:0:
32,322,49686,1,2,1:2:0:0:
14,217,50031,2,0,L|41:74,1,132.00000402832,2|8,1:2|0:0,0:0:0:0:
83,58,50548,1,0,1:0:0:0:
83,58,50721,2,0,P|60:23|60:-7,2,66.0000020141602,2|10|2,1:2|0:0|0:0,0:0:0:0:
124,90,51238,6,0,P|122:123|135:155,1,66.0000020141602,2|2,1:2|0:0,0:0:0:0:
174,187,51583,2,0,P|176:220|163:252,1,66.0000020141602,10|10,0:0|0:0,0:0:0:0:
126,287,51928,1,2,1:2:0:0:
223,339,52272,1,10,0:0:0:0:
223,339,52445,2,0,L|291:325,1,66.0000020141602,2|2,1:2|0:0,0:0:0:0:
339,316,52790,2,0,P|326:353|330:386,2,66.0000020141602,2|10|10,1:2|0:0|0:0,0:0:0:0:
379,282,53307,1,2,1:2:0:0:
362,231,53479,2,0,L|297:210,1,66.0000020141602,10|10,0:0|1:2,0:0:0:0:
196,183,53997,6,0,P|161:125|182:69,1,132.00000402832,6|10,1:2|0:0,0:0:0:0:
230,44,54514,1,10,0:0:0:0:
230,44,54686,2,0,P|288:28|344:79,1,132.00000402832,2|10,1:2|0:0,0:0:0:0:
359,119,55204,1,2,1:2:0:0:
328,219,55548,2,0,L|193:188,1,132.00000402832,2|10,1:2|0:0,0:0:0:0:
158,222,56066,1,0,1:0:0:0:
158,222,56238,2,0,P|179:244|185:284,2,66.0000020141602,2|10|2,1:2|0:0|0:0,0:0:0:0:
115,190,56755,6,0,L|129:118,1,66.0000020141602,2|2,1:2|0:0,0:0:0:0:
163,86,57100,2,0,L|149:14,2,66.0000020141602,10|10|2,0:0|0:0|1:2,0:0:0:0:
258,143,57790,1,10,0:0:0:0:
258,143,57962,2,0,P|311:182|380:175,1,132.00000402832,6|2,1:2|1:2,0:0:0:0:
421,154,58479,2,0,L|444:90,1,66.0000020141602,10|10,3:2|3:2,0:0:0:0:
467,44,58824,1,2,3:2:0:0:
373,7,59169,6,0,L|311:20,1,62.9999980773926,2|2,1:2|3:2,0:0:0:0:
267,49,59514,2,0,L|196:31,2,66.0000020141602,4|2|10,0:0|0:0|1:2,0:0:0:0:
303,94,60031,1,10,0:0:0:0:
303,94,60204,2,0,P|321:159|290:214,1,132.00000402832,2|10,1:2|1:2,0:0:0:0:
244,246,60721,1,2,0:0:0:0:
161,189,61066,1,2,0:0:0:0:
161,189,61238,2,0,L|179:120,1,66.0000020141602,10|10,1:2|0:0,0:0:0:0:
191,74,61583,2,0,P|248:55|307:103,1,132.00000402832,2|10,1:2|1:2,0:0:0:0:
326,140,62100,1,2,0:0:0:0:
408,214,62445,5,2,0:0:0:0:
408,214,62617,2,0,P|390:260|377:287,1,66.0000020141602,10|10,1:2|0:0,0:0:0:0:
374,327,62962,2,0,P|327:286|259:291,1,132.00000402832,2|10,1:2|1:2,0:0:0:0:
220,324,63479,1,2,0:0:0:0:
138,265,63824,1,2,0:0:0:0:
138,265,63997,2,0,P|144:222|160:200,1,66.0000020141602,10|10,1:2|0:0,0:0:0:0:
200,175,64341,1,2,1:2:0:0:
131,94,64686,6,0,L|65:117,1,66.0000020141602,0|2,1:0|3:2,0:0:0:0:
20,136,65031,2,0,P|8:99|13:69,2,66.0000020141602,4|2|10,1:2|0:0|1:2,0:0:0:0:
43,189,65548,1,10,0:0:0:0:
43,189,65721,2,0,L|10:253,2,66.0000020141602,2|2|10,1:2|0:0|1:2,0:0:0:0:
95,190,66238,1,2,0:0:0:0:
195,235,66583,1,2,0:0:0:0:
195,235,66755,2,0,L|268:217,1,66.0000020141602,10|10,1:2|0:0,0:0:0:0:
307,197,67100,1,2,1:2:0:0:
404,249,67445,5,8,1:2:0:0:
404,249,67617,2,0,P|400:316|347:355,1,132.00000402832,2|2,1:2|1:2,0:0:0:0:
300,367,68135,2,0,L|231:351,1,66.0000020141602,10|10,0:0|0:0,0:0:0:0:
194,319,68479,2,0,L|125:335,2,66.0000020141602,2|2|10,1:2|1:2|0:0,0:0:0:0:
232,282,68997,1,2,1:2:0:0:
196,188,69341,1,2,1:2:0:0:
196,188,69514,2,0,P|200:146|218:129,1,66.0000020141602,10|10,0:0|0:0,0:0:0:0:
260,101,69859,2,0,L|331:123,2,66.0000020141602,2|2|10,1:2|1:2|0:0,0:0:0:0:
233,55,70376,1,2,1:2:0:0:
335,21,70721,5,2,1:2:0:0:
335,21,70893,2,0,P|373:32|403:46,1,66.0000020141602,10|10,0:0|0:0,0:0:0:0:
445,65,71238,2,0,P|460:44|468:-2,2,66.0000020141602,2|2|10,1:2|1:2|3:2,0:0:0:0:
421,113,71755,1,2,1:2:0:0:
482,208,72100,1,2,1:2:0:0:
482,208,72272,2,0,P|489:243|489:267,1,53.9999983520508,2|2,0:0|1:2,0:0:0:0:
465,309,72617,1,2,1:2:0:0:
366,346,72962,6,0,L|300:326,1,66.0000020141602,4|0,0:1|0:0,0:0:0:0:
250,313,73307,2,0,P|208:362|146:354,1,120,6|10,1:2|0:0,0:0:0:0:
113,336,73824,1,10,0:0:0:0:
113,336,73997,2,0,P|118:271|143:212,1,120,2|10,1:2|0:0,0:0:0:0:
153,168,74514,2,0,P|95:200|26:203,1,120,2|2,1:2|1:2,0:0:0:0:
12,106,75204,1,10,0:0:0:0:
12,106,75376,2,0,P|18:72|38:48,2,60,2|2|8,1:2|1:2|0:0,0:0:0:0:
57,147,75893,5,2,0:0:0:0:
57,147,76066,2,0,L|41:208,1,60,2|2,1:2|0:0,0:0:0:0:
12,250,76410,2,0,L|28:311,2,60,10|10|2,0:0|0:0|1:2,0:0:0:0:
121,229,77100,1,10,0:0:0:0:
121,229,77272,2,0,P|177:215|224:249,1,120,2|2,1:2|1:2,0:0:0:0:
321,308,77962,1,10,0:0:0:0:
321,308,78135,2,0,P|312:265|310:237,1,60,2|8,1:2|0:0,0:0:0:0:
332,200,78479,1,10,0:0:0:0:
259,127,78824,5,2,1:2:0:0:
259,127,78997,2,0,P|222:138|192:136,2,60,2|10|10,0:0|0:0|0:0,0:0:0:0:
292,84,79514,2,0,P|323:81|356:89,1,60,2|2,1:2|1:2,0:0:0:0:
401,118,79859,1,10,0:0:0:0:
401,118,80031,1,2,1:2:0:0:
463,212,80376,5,2,1:2:0:0:
463,212,80548,2,0,L|391:230,1,60,10|10,0:0|0:0,0:0:0:0:
353,244,80893,2,0,P|319:305|262:307,1,120,2|10,1:2|0:0,0:0:0:0:
184,249,81583,6,0,L|173:182,1,60,2|2,1:2|0:0,0:0:0:0:
136,150,81928,2,0,L|142:81,1,60,10|10,0:0|0:0,0:0:0:0:
169,44,82272,1,0,0:0:0:0:
274,83,82617,1,10,0:0:0:0:
274,83,82790,2,0,P|281:145|245:201,1,120,6|2,1:2|1:2,0:0:0:0:
206,221,83307,1,10,1:2:0:0:
267,310,83652,2,0,L|339:291,1,60,2|10,1:2|0:0,0:0:0:0:
368,261,83997,2,0,L|440:280,1,60,2|0,1:2|3:0,0:0:0:0:
476,294,84341,5,2,1:2:0:0:
504,189,84686,1,2,1:2:0:0:
415,127,85031,1,2,1:2:0:0:
325,187,85376,1,2,1:2:0:0:
357,290,85721,2,0,L|318:335,2,60,2|2|2,1:2|1:2|1:2,0:0:0:0:
396,253,86238,1,2,1:2:0:0:
396,253,86410,1,10,1:2:0:0:
320,115,86928,5,2,0:0:0:0:
320,115,87100,2,0,P|371:76|440:81,1,132.00000402832,6|10,0:0|0:0,0:0:0:0:
485,109,87617,1,10,0:0:0:0:
485,109,87790,2,0,P|458:172|434:231,1,132.00000402832,2|10,1:2|0:0,0:0:0:0:
392,263,88307,1,2,1:2:0:0:
298,312,88652,2,0,P|228:294|220:242,1,132.00000402832,2|8,1:2|0:0,0:0:0:0:
243,197,89169,5,0,1:0:0:0:
243,197,89341,2,0,L|318:219,2,66.0000020141602,2|10|2,1:2|0:0|0:0,0:0:0:0:
203,161,89859,2,0,L|128:183,2,66.0000020141602,2|2|10,1:2|0:0|0:0,0:0:0:0:
236,121,90376,1,10,0:0:0:0:
236,121,90548,1,2,1:2:0:0:
180,4,90893,1,10,0:0:0:0:
180,4,91066,2,0,P|126:46|56:52,1,132.00000402832,2|2,1:2|1:2,0:0:0:0:
21,84,91583,2,0,L|37:148,1,66.0000020141602,10|10,0:0|0:0,0:0:0:0:
49,192,91928,1,2,1:2:0:0:
118,281,92272,6,0,P|141:260|178:253,1,66.0000020141602,10|2,0:0|3:2,0:0:0:0:
218,282,92617,2,0,L|346:252,1,132.00000402832,6|10,1:2|0:0,0:0:0:0:
395,227,93135,1,10,0:0:0:0:
395,227,93307,2,0,P|327:212|316:156,1,132.00000402832,2|10,1:2|0:0,0:0:0:0:
344,121,93824,1,2,1:2:0:0:
442,68,94169,2,0,P|376:37|317:19,1,132.00000402832,2|8,1:2|0:0,0:0:0:0:
273,39,94686,1,2,1:2:0:0:
273,39,94859,2,0,P|247:30|205:23,2,66.0000020141602,2|10|2,1:2|0:0|0:0,0:0:0:0:
292,88,95376,6,0,P|300:119|315:151,1,66.0000020141602,2|0,1:2|0:0,0:0:0:0:
348,190,95721,2,0,P|340:221|322:251,1,66.0000020141602,10|10,0:0|0:0,0:0:0:0:
283,285,96066,1,2,1:2:0:0:
230,199,96410,1,10,0:0:0:0:
230,199,96583,2,0,P|175:166|104:186,1,132.00000402832,6|2,0:0|1:2,0:0:0:0:
73,216,97100,2,0,L|85:282,1,66.0000020141602,10|10,3:2|3:2,0:0:0:0:
99,331,97445,1,2,3:2:0:0:
195,289,97790,6,0,L|270:300,1,66.0000020141602,10|2,3:2|3:2,0:0:0:0:
310,316,98135,2,0,P|336:260|330:189,1,132.00000402832,6|2,1:2|1:2,0:0:0:0:
302,152,98652,1,10,0:0:0:0:
302,152,98824,2,0,P|349:93|400:97,1,132.00000402832,10|10,0:0|0:0,0:0:0:0:
445,122,99341,1,2,1:2:0:0:
499,212,99686,2,0,P|451:264|402:304,1,132.00000402832,2|8,1:2|0:0,0:0:0:0:
354,301,100204,5,0,1:0:0:0:
354,301,100376,2,0,L|364:372,2,66.0000020141602,2|10|2,1:2|0:0|1:2,0:0:0:0:
330,253,100893,2,0,P|359:233|382:207,2,66.0000020141602,10|2|10,1:2|0:0|0:0,0:0:0:0:
282,246,101410,1,10,0:0:0:0:
282,246,101583,1,2,1:2:0:0:
185,284,101928,1,10,0:0:0:0:
185,284,102100,2,0,P|178:217|124:214,1,132.00000402832,2|0,1:2|1:0,0:0:0:0:
78,240,102617,2,0,L|13:215,2,66.0000020141602,10|10|2,0:0|0:0|1:2,0:0:0:0:
104,137,103307,6,0,P|108:93|98:61,1,66.0000020141602,8|2,0:0|1:2,0:0:0:0:
83,22,103652,2,0,P|131:62|200:54,1,132.00000402832,6|10,1:2|0:0,0:0:0:0:
248,37,104169,1,2,0:0:0:0:
248,37,104341,2,0,P|230:107|217:165,1,132.00000402832,2|10,1:2|0:0,0:0:0:0:
211,207,104859,1,2,0:0:0:0:
294,272,105204,2,0,P|363:266|389:213,1,132.00000402832,2|0,0:0|0:0,0:0:0:0:
379,167,105721,1,0,1:0:0:0:
379,167,105893,2,0,P|410:150|435:122,2,66.0000020141602,2|10|2,0:0|0:0|0:0,0:0:0:0:
330,145,106410,6,0,L|264:164,1,66.0000020141602,6|2,1:2|1:2,0:0:0:0:
217,183,106755,2,0,L|151:164,1,66.0000020141602,6|2,1:2|1:2,0:0:0:0:
106,141,107100,1,6,1:2:0:0:
29,213,107445,1,6,1:2:0:0:
29,213,107617,1,0,1:0:0:0:
369,357,108824,6,0,L|385:282,1,66.0000020141602,0|0,3:0|3:0,0:0:0:0:
417,252,109169,2,0,P|441:270|478:278,2,66.0000020141602,4|2|10,1:2|0:0|1:2,0:0:0:0:
388,213,109686,1,2,0:0:0:0:
388,213,109859,2,0,P|324:200|268:233,1,132.00000402832,2|10,1:2|1:2,0:0:0:0:
229,268,110376,1,2,0:0:0:0:
161,187,110721,2,0,L|177:112,2,66.0000020141602,2|10|2,0:0|1:2|0:0,0:0:0:0:
116,216,111238,1,2,1:2:0:0:
98,323,111583,5,8,1:2:0:0:
98,323,111755,2,0,P|132:326|164:344,1,66.0000020141602,2|0,0:0|1:0,0:0:0:0:
216,336,112100,1,2,0:0:0:0:
216,336,112272,2,0,L|280:358,2,66.0000020141602,10|10|2,1:2|0:0|1:2,0:0:0:0:
205,283,112790,2,0,L|216:216,1,66.0000020141602,2|10,0:0|0:0,0:0:0:0:
234,168,113135,1,2,0:0:0:0:
174,88,113479,1,2,0:0:0:0:
174,88,113652,2,0,P|148:75|105:76,1,66.0000020141602,10|10,0:0|0:0,0:0:0:0:
52,84,113997,1,2,1:2:0:0:
94,186,114341,5,0,1:0:0:0:
94,186,114514,2,0,P|119:248|177:263,1,132.00000402832,2|2,3:2|0:0,0:0:0:0:
233,246,115031,2,0,L|249:314,2,66.0000020141602,10|10|2,1:2|0:0|1:2,0:0:0:0:
310,173,115721,1,10,0:0:0:0:
310,173,115893,2,0,P|268:125|199:129,1,132.00000402832,2|2,0:0|0:0,0:0:0:0:
153,110,116410,2,0,L|161:38,1,66.0000020141602,10|10,0:0|0:0,0:0:0:0:
197,7,116755,1,2,1:2:0:0:
299,48,117100,5,8,0:0:0:0:
299,48,117272,2,0,P|334:117|330:170,1,132.00000402832,2|2,1:2|1:2,0:0:0:0:
301,214,117790,2,0,L|234:192,2,66.0000020141602,10|10|2,0:0|0:0|1:2,0:0:0:0:
329,258,118307,2,0,P|357:243|393:244,1,66.0000020141602,2|10,1:2|0:0,0:0:0:0:
434,272,118652,1,2,1:2:0:0:
493,185,118997,1,2,1:2:0:0:
493,185,119169,2,0,P|481:145|484:117,1,66.0000020141602,10|10,0:0|0:0,0:0:0:0:
462,72,119514,2,0,L|481:7,2,66.0000020141602,2|2|10,1:2|1:2|0:0,0:0:0:0:
411,87,120031,1,2,1:2:0:0:
319,45,120376,5,2,1:2:0:0:
319,45,120548,2,0,P|305:85|305:113,1,66.0000020141602,10|10,0:0|0:0,0:0:0:0:
269,148,120893,2,0,L|204:172,2,66.0000020141602,2|2|2,1:2|3:2|3:2,0:0:0:0:
308,183,121410,1,2,1:2:0:0:
385,262,121755,1,2,1:2:0:0:
385,261,121928,2,0,P|380:293|367:331,1,66.0000020141602,2|2,0:0|1:2,0:0:0:0:
325,353,122272,1,2,1:2:0:0:
237,304,122617,5,0,1:0:0:0:
237,304,122790,2,0,P|190:357|128:353,1,132.00000402832,4|2,0:0|1:2,0:0:0:0:
86,330,123307,2,0,L|76:265,1,66.0000020141602,10|10,0:0|0:0,0:0:0:0:
40,225,123652,2,0,L|50:160,1,66.0000020141602,2|2,1:2|1:2,0:0:0:0:
75,115,123997,1,10,0:0:0:0:
75,115,124169,1,4,1:2:0:0:
177,158,124514,5,2,1:2:0:0:
176,158,124686,2,0,P|202:140|237:138,1,66.0000020141602,10|10,0:0|0:0,0:0:0:0:
282,162,125031,2,0,P|313:160|338:137,1,66.0000020141602,2|2,1:2|1:2,0:0:0:0:
370,95,125376,1,10,0:0:0:0:
370,95,125548,1,6,1:2:0:0:
454,167,125893,1,2,3:2:0:0:
454,167,126066,2,0,L|435:234,1,66.0000020141602,2|2,3:2|3:2,0:0:0:0:
393,261,126410,2,0,L|412:328,1,66.0000020141602,2|2,1:2|1:2,0:0:0:0:
451,358,126755,1,6,1:2:0:0:
28,117,128307,6,0,P|18:59|57:16,1,120,2|2,1:2|1:2,0:0:0:0:
111,12,128824,2,0,L|174:36,1,60,2|2,0:0|1:2,0:0:0:0:
215,56,129169,1,2,1:2:0:0:
