osu file format v14

[General]
AudioFilename: audio.mp3
AudioLeadIn: 0
PreviewTime: 115305
Countdown: 0
SampleSet: Normal
StackLeniency: 0.7
Mode: 1
LetterboxInBreaks: 0
WidescreenStoryboard: 1

[Editor]
Bookmarks: 53219,84867,105966,127065
DistanceSpacing: 1.5
BeatDivisor: 4
GridSize: 4
TimelineZoom: 0.7999996

[Metadata]
Title:Mood (feat. iann dior)
TitleUnicode:Mood (feat. iann dior)
Artist:24kGoldn
ArtistUnicode:24kGoldn
Creator:Neymar Jr
Version:Muzukashii
Source:
Tags:rap english hip hop hiphop hip-hop pop El Dorado toofu
BeatmapID:3531825
BeatmapSetID:1728269

[Difficulty]
HPDrainRate:7
CircleSize:5
OverallDifficulty:5
ApproachRate:5
SliderMultiplier:2.8
SliderTickRate:1

[Events]
//Background and Video events
0,0,"bgowo.jpg",0,0
//Break Periods
2,116494,117732
//Storyboard Layer 0 (Background)
//Storyboard Layer 1 (Fail)
//Storyboard Layer 2 (Pass)
//Storyboard Layer 3 (Foreground)
//Storyboard Layer 4 (Overlay)
//Storyboard Sound Samples

[TimingPoints]
251,659.340659340659,4,1,0,40,1,0
10800,-100,4,1,0,60,0,0
21349,-100,4,1,0,80,0,1
31899,-100,4,1,0,60,0,0
42448,-100,4,1,0,70,0,0
52998,-100,4,1,0,60,0,0
63547,-100,4,1,0,80,0,1
84646,-100,4,1,0,60,0,0
95196,-100,4,1,0,70,0,0
105745,-100,4,1,0,60,0,0
118932,-100,4,1,0,80,0,1
137229,-100,4,1,0,80,0,0

[HitObjects]
218,162,251,5,8,1:0:0:0:
218,162,580,1,0,1:0:0:0:
218,162,910,1,0,1:0:0:0:
218,162,1240,1,8,1:0:0:0:
218,162,1899,1,0,1:0:0:0:
218,162,2888,1,0,1:0:0:0:
218,162,3218,1,8,1:0:0:0:
218,162,3547,1,8,1:0:0:0:
218,162,3877,1,0,1:0:0:0:
206,170,4536,1,8,1:0:0:0:
206,170,5525,1,8,1:0:0:0:
206,170,5855,1,0,1:0:0:0:
206,170,6185,1,0,1:0:0:0:
206,170,6514,1,8,1:0:0:0:
206,170,7174,1,0,1:0:0:0:
205,169,8163,1,0,1:0:0:0:
205,169,8492,1,8,1:0:0:0:
205,169,8822,1,8,1:0:0:0:
205,169,9152,1,0,1:0:0:0:
215,160,9811,1,8,1:0:0:0:
233,81,9976,1,0,1:0:0:0:
215,160,10141,1,0,1:0:0:0:
215,160,10470,1,0,1:0:0:0:
215,160,10635,1,0,1:0:0:0:
215,160,10800,1,8,1:0:0:0:
215,160,11459,1,8,1:0:0:0:
210,48,11624,1,8,1:0:0:0:
215,160,11789,1,0,1:0:0:0:
215,160,12119,1,0,1:0:0:0:
215,160,12283,1,8,1:0:0:0:
215,160,12448,1,0,1:0:0:0:
215,160,12778,1,8,1:0:0:0:
215,160,13437,5,8,1:0:0:0:
215,160,13767,1,0,1:0:0:0:
215,160,14097,1,8,1:0:0:0:
209,152,14261,1,8,1:0:0:0:
215,160,14426,1,0,1:0:0:0:
233,81,14591,1,0,1:0:0:0:
209,152,14756,1,8,1:0:0:0:
214,157,15250,1,0,1:0:0:0:
209,152,15415,1,8,1:0:0:0:
233,81,15580,1,0,1:0:0:0:
214,157,15745,1,0,1:0:0:0:
215,160,16075,1,8,1:0:0:0:
215,160,16734,1,0,1:0:0:0:
215,160,16899,1,8,1:0:0:0:
215,160,17064,1,8,1:0:0:0:
215,160,17393,1,8,1:0:0:0:
215,160,17558,1,8,1:0:0:0:
215,160,17723,1,0,1:0:0:0:
216,139,17888,1,0,1:0:0:0:
215,160,18053,1,8,1:0:0:0:
215,160,18712,5,8,1:0:0:0:
235,73,18877,1,8,1:0:0:0:
215,160,19042,1,0,1:0:0:0:
215,160,19371,1,8,1:0:0:0:
213,132,19536,1,8,1:0:0:0:
215,160,19701,1,0,1:0:0:0:
224,78,19866,1,8,1:0:0:0:
209,152,20031,1,0,1:0:0:0:
214,157,20360,1,0,1:0:0:0:
229,74,20525,1,0,1:0:0:0:
209,152,20690,1,8,1:0:0:0:
236,71,21349,1,12,1:0:0:0:
229,55,21679,1,0,1:0:0:0:
229,55,22009,1,8,1:0:0:0:
229,55,22174,1,8,1:0:0:0:
229,55,22338,1,0,1:0:0:0:
235,37,22503,1,0,1:0:0:0:
229,55,22668,1,8,1:0:0:0:
229,55,22833,1,0,1:0:0:0:
229,55,22998,1,8,1:0:0:0:
229,55,23327,1,8,1:0:0:0:
213,47,23492,1,0,1:0:0:0:
229,55,23987,1,8,1:0:0:0:
229,55,24316,1,0,1:0:0:0:
276,116,24481,1,0,1:0:0:0:
229,55,24646,1,8,1:0:0:0:
229,55,24811,1,0,1:0:0:0:
229,55,24976,1,8,1:0:0:0:
229,55,25141,1,0,1:0:0:0:
229,55,25305,1,0,1:0:0:0:
300,69,25388,1,0,0:0:0:0:
300,78,25470,1,0,0:0:0:0:
229,55,25635,1,8,1:0:0:0:
229,55,25965,1,8,1:0:0:0:
229,55,26130,1,8,1:0:0:0:
229,55,26294,1,0,1:0:0:0:
229,55,26624,1,8,1:0:0:0:
261,100,26954,1,8,1:0:0:0:
223,59,27283,1,0,1:0:0:0:
223,59,27448,1,8,1:0:0:0:
223,59,27613,1,0,1:0:0:0:
276,49,27696,1,0,0:0:0:0:
223,59,27778,1,0,1:0:0:0:
223,59,27943,1,8,1:0:0:0:
223,59,28272,1,0,1:0:0:0:
223,59,28437,1,0,1:0:0:0:
223,59,28602,1,8,1:0:0:0:
212,67,28767,1,8,1:0:0:0:
242,55,29261,1,0,1:0:0:0:
242,55,29426,1,8,1:0:0:0:
224,63,29591,1,8,1:0:0:0:
224,63,29756,1,0,1:0:0:0:
224,63,29921,1,8,1:0:0:0:
224,63,30250,1,8,1:0:0:0:
224,63,30415,1,0,1:0:0:0:
224,63,30580,1,8,1:0:0:0:
271,61,30663,1,8,0:0:0:0:
223,40,30745,1,8,1:0:0:0:
224,63,30910,1,0,1:0:0:0:
224,63,31240,1,0,1:0:0:0:
224,63,31404,1,0,1:0:0:0:
224,63,31569,1,8,1:0:0:0:
239,75,31734,1,0,1:0:0:0:
224,63,31899,1,8,1:0:0:0:
238,99,32558,1,8,1:0:0:0:
238,99,32723,1,0,1:0:0:0:
238,99,32888,1,8,1:0:0:0:
238,99,33218,1,0,1:0:0:0:
293,113,33382,1,0,1:0:0:0:
238,99,33547,1,8,1:0:0:0:
238,99,33877,1,8,1:0:0:0:
238,99,34536,1,8,1:0:0:0:
238,99,34701,1,0,1:0:0:0:
238,99,34866,1,0,1:0:0:0:
238,99,35196,1,8,1:0:0:0:
282,162,35360,1,0,1:0:0:0:
238,99,35525,1,0,1:0:0:0:
229,105,35690,1,8,1:0:0:0:
238,99,35855,1,0,1:0:0:0:
249,74,36185,1,8,1:0:0:0:
249,74,36349,1,0,1:0:0:0:
238,99,36514,1,8,1:0:0:0:
238,99,36844,1,0,1:0:0:0:
244,69,37009,1,0,1:0:0:0:
224,63,37174,1,8,1:0:0:0:
238,99,37833,1,8,1:0:0:0:
238,99,37998,1,8,1:0:0:0:
238,99,38163,1,0,1:0:0:0:
238,99,38492,1,0,1:0:0:0:
248,37,38657,1,0,1:0:0:0:
238,99,38822,1,8,1:0:0:0:
238,99,39152,1,0,1:0:0:0:
238,99,39811,1,8,1:0:0:0:
238,99,39976,1,8,1:0:0:0:
238,99,40141,1,0,1:0:0:0:
238,99,40470,1,8,1:0:0:0:
238,99,40800,1,0,1:0:0:0:
228,52,40965,1,0,1:0:0:0:
238,99,41130,1,0,1:0:0:0:
238,99,41789,1,8,1:0:0:0:
228,52,42119,1,0,1:0:0:0:
250,87,42448,1,8,1:0:0:0:
271,84,42613,1,0,1:0:0:0:
250,87,42778,1,0,1:0:0:0:
250,87,43108,1,0,1:0:0:0:
250,87,43272,1,8,1:0:0:0:
250,87,43437,1,8,1:0:0:0:
250,87,43602,1,0,1:0:0:0:
249,81,43932,1,0,1:0:0:0:
249,81,44097,1,8,1:0:0:0:
249,81,44426,1,8,1:0:0:0:
311,88,44756,1,0,1:0:0:0:
264,82,45086,1,8,1:0:0:0:
298,91,45415,1,0,1:0:0:0:
302,79,45580,1,0,1:0:0:0:
278,91,45745,1,8,1:0:0:0:
267,87,45910,1,0,1:0:0:0:
260,49,46240,1,8,1:0:0:0:
277,91,46569,1,0,1:0:0:0:
278,91,46734,1,8,1:0:0:0:
278,91,47064,1,8,1:0:0:0:
277,91,47393,1,0,1:0:0:0:
279,110,47558,1,8,1:0:0:0:
278,91,47723,1,8,1:0:0:0:
258,117,48382,1,8,1:0:0:0:
269,106,48547,1,0,1:0:0:0:
258,117,48712,1,0,1:0:0:0:
258,117,48877,1,8,1:0:0:0:
275,46,49207,1,8,1:0:0:0:
258,117,49371,1,0,1:0:0:0:
276,127,49701,1,8,1:0:0:0:
276,127,50031,1,0,1:0:0:0:
276,127,50196,1,8,1:0:0:0:
276,127,50360,1,8,1:0:0:0:
238,20,50690,1,8,1:0:0:0:
248,52,50855,1,0,0:0:0:0:
291,170,51020,1,0,1:0:0:0:
275,85,51185,1,8,1:0:0:0:
291,170,51514,1,0,1:0:0:0:
291,170,51844,5,8,1:0:0:0:
291,170,52009,1,0,1:0:0:0:
291,179,52338,1,8,1:0:0:0:
292,204,52503,1,8,1:0:0:0:
292,204,52668,1,0,1:0:0:0:
255,91,52833,1,0,1:0:0:0:
251,181,52998,5,8,1:0:0:0:
268,79,53327,1,8,1:0:0:0:
295,71,53657,1,0,1:0:0:0:
251,181,53987,1,8,1:0:0:0:
253,172,54646,1,8,1:0:0:0:
253,172,54976,1,0,1:0:0:0:
253,172,55305,1,8,1:0:0:0:
253,172,55965,1,0,1:0:0:0:
253,172,56294,1,8,1:0:0:0:
259,169,56624,1,0,1:0:0:0:
259,169,57283,1,0,1:0:0:0:
295,71,57943,1,0,1:0:0:0:
259,169,58272,1,8,1:0:0:0:
250,179,58602,1,0,1:0:0:0:
295,71,58932,1,8,1:0:0:0:
265,179,59261,1,0,1:0:0:0:
265,179,59921,1,8,1:0:0:0:
265,179,60250,1,8,1:0:0:0:
265,179,60580,1,0,1:0:0:0:
265,179,61240,1,0,1:0:0:0:
265,179,61569,1,8,1:0:0:0:
265,179,61899,1,8,1:0:0:0:
274,187,62558,1,0,1:0:0:0:
229,74,63547,5,12,1:0:0:0:
229,55,63877,1,0,1:0:0:0:
200,341,64207,1,8,1:0:0:0:
229,55,64371,1,0,1:0:0:0:
229,55,64536,1,0,1:0:0:0:
216,320,64701,1,8,1:0:0:0:
229,55,64866,1,8,1:0:0:0:
229,55,65031,1,0,1:0:0:0:
229,55,65196,1,8,1:0:0:0:
229,55,65525,1,8,1:0:0:0:
211,194,65690,1,0,1:0:0:0:
229,55,66185,1,0,1:0:0:0:
229,55,66514,1,8,1:0:0:0:
271,98,66679,1,0,1:0:0:0:
229,55,66844,1,0,1:0:0:0:
229,55,67009,1,8,1:0:0:0:
229,55,67174,1,0,1:0:0:0:
229,55,67338,1,8,1:0:0:0:
229,55,67503,1,0,1:0:0:0:
291,69,67586,1,0,0:0:0:0:
229,9,67668,1,0,1:0:0:0:
229,55,67833,1,8,1:0:0:0:
229,55,68163,1,0,1:0:0:0:
229,55,68327,1,8,1:0:0:0:
229,55,68492,1,0,1:0:0:0:
229,55,68822,1,0,1:0:0:0:
236,108,69152,1,8,1:0:0:0:
223,59,69481,1,8,1:0:0:0:
223,59,69646,1,0,1:0:0:0:
223,59,69811,1,8,1:0:0:0:
246,43,69893,1,8,0:0:0:0:
223,59,69976,1,8,1:0:0:0:
223,59,70141,1,0,1:0:0:0:
223,59,70470,1,0,1:0:0:0:
223,59,70635,1,8,1:0:0:0:
245,102,70800,1,0,1:0:0:0:
212,67,70965,1,0,1:0:0:0:
242,55,71459,1,8,1:0:0:0:
242,55,71624,1,8,1:0:0:0:
224,63,71789,1,0,1:0:0:0:
224,63,71954,1,0,1:0:0:0:
224,63,72119,1,8,1:0:0:0:
224,63,72448,1,8,1:0:0:0:
224,63,72613,1,0,1:0:0:0:
225,112,72778,1,8,1:0:0:0:
269,65,72860,1,8,0:0:0:0:
225,112,72943,1,8,1:0:0:0:
224,63,73108,1,0,1:0:0:0:
224,63,73437,1,8,1:0:0:0:
224,63,73602,1,8,1:0:0:0:
224,63,73767,1,0,1:0:0:0:
239,75,73932,1,0,1:0:0:0:
229,74,74097,1,12,1:0:0:0:
229,55,74426,1,0,1:0:0:0:
229,55,74756,1,8,1:0:0:0:
229,55,74921,1,0,1:0:0:0:
236,47,75086,1,8,1:0:0:0:
233,60,75250,1,8,1:0:0:0:
229,55,75415,1,0,1:0:0:0:
229,55,75580,1,0,1:0:0:0:
229,55,75745,1,8,1:0:0:0:
229,55,76075,1,8,1:0:0:0:
235,93,76240,1,0,1:0:0:0:
229,55,76734,1,0,1:0:0:0:
229,55,77064,5,8,1:0:0:0:
240,82,77229,1,0,1:0:0:0:
229,55,77393,1,8,1:0:0:0:
229,55,77558,1,8,1:0:0:0:
229,55,77723,1,0,1:0:0:0:
229,55,77888,1,8,1:0:0:0:
227,43,78053,1,0,1:0:0:0:
233,40,78135,1,0,0:0:0:0:
227,43,78218,1,0,1:0:0:0:
229,55,78382,1,8,1:0:0:0:
229,55,78712,1,8,1:0:0:0:
229,55,78877,1,0,1:0:0:0:
229,55,79042,1,0,1:0:0:0:
229,55,79371,1,8,1:0:0:0:
248,143,79701,1,0,1:0:0:0:
223,59,80031,1,0,1:0:0:0:
223,59,80196,1,0,1:0:0:0:
241,112,80360,1,8,1:0:0:0:
267,42,80443,1,8,0:0:0:0:
223,59,80525,1,8,1:0:0:0:
223,59,80690,1,0,1:0:0:0:
223,59,81020,1,0,1:0:0:0:
223,59,81185,1,0,1:0:0:0:
223,59,81349,1,8,1:0:0:0:
212,67,81514,1,8,1:0:0:0:
242,55,82009,1,8,1:0:0:0:
242,55,82174,1,8,1:0:0:0:
224,63,82338,1,0,1:0:0:0:
224,63,82503,1,0,1:0:0:0:
224,63,82668,1,8,1:0:0:0:
224,63,82998,1,8,1:0:0:0:
224,63,83163,1,0,1:0:0:0:
237,81,83327,1,8,1:0:0:0:
240,93,83410,1,8,0:0:0:0:
237,81,83492,1,8,1:0:0:0:
215,59,83657,1,0,1:0:0:0:
276,57,83987,1,0,1:0:0:0:
215,59,84152,1,0,1:0:0:0:
215,59,84316,1,8,1:0:0:0:
215,59,84481,1,0,1:0:0:0:
215,59,84646,1,8,1:0:0:0:
214,162,85305,1,8,1:0:0:0:
217,141,85635,1,0,1:0:0:0:
217,141,85800,1,0,1:0:0:0:
217,141,85965,1,8,1:0:0:0:
174,143,86130,1,0,1:0:0:0:
217,141,86294,1,8,1:0:0:0:
217,141,86954,1,0,1:0:0:0:
234,137,87119,1,0,1:0:0:0:
217,141,87283,1,8,1:0:0:0:
217,141,87613,1,8,1:0:0:0:
217,141,87778,1,8,1:0:0:0:
217,141,87943,1,0,1:0:0:0:
217,141,88272,1,0,1:0:0:0:
217,141,88602,1,8,1:0:0:0:
208,136,88932,1,8,1:0:0:0:
208,136,89591,1,8,1:0:0:0:
208,136,89756,1,0,1:0:0:0:
208,136,89921,1,8,1:0:0:0:
234,137,90086,1,0,1:0:0:0:
221,151,90250,1,0,1:0:0:0:
221,151,90580,1,8,1:0:0:0:
234,163,90745,1,0,1:0:0:0:
221,151,90910,1,8,1:0:0:0:
205,149,91240,1,0,1:0:0:0:
221,151,91404,1,0,1:0:0:0:
205,149,91569,1,8,1:0:0:0:
205,149,92229,1,0,1:0:0:0:
205,149,92393,1,8,1:0:0:0:
205,149,92558,1,8,1:0:0:0:
208,141,92888,1,0,1:0:0:0:
227,156,93053,1,0,1:0:0:0:
208,141,93218,1,8,1:0:0:0:
208,141,93547,1,0,1:0:0:0:
226,148,93712,1,0,1:0:0:0:
208,141,93877,1,8,1:0:0:0:
208,141,94042,1,0,1:0:0:0:
208,141,94207,1,8,1:0:0:0:
214,98,95196,1,8,1:0:0:0:
214,98,95525,1,0,1:0:0:0:
214,98,95855,1,8,1:0:0:0:
214,98,96185,1,0,1:0:0:0:
219,96,96349,5,8,1:0:0:0:
214,98,96514,1,8,1:0:0:0:
214,98,96844,1,8,1:0:0:0:
219,96,97009,1,8,1:0:0:0:
219,96,97174,1,0,1:0:0:0:
219,96,97503,1,0,1:0:0:0:
219,96,97833,1,8,1:0:0:0:
226,148,97998,1,0,1:0:0:0:
219,96,98163,1,8,1:0:0:0:
219,96,98492,1,0,1:0:0:0:
219,96,98822,1,0,1:0:0:0:
219,96,98987,1,8,1:0:0:0:
219,96,99152,1,8,1:0:0:0:
219,96,99481,1,0,1:0:0:0:
226,148,99646,1,0,1:0:0:0:
219,96,99811,1,8,1:0:0:0:
226,148,99976,1,0,1:0:0:0:
214,98,100470,1,8,1:0:0:0:
214,98,100800,1,8,1:0:0:0:
226,148,100965,1,0,1:0:0:0:
214,98,101130,1,0,1:0:0:0:
214,98,101459,1,0,1:0:0:0:
219,96,101624,5,8,1:0:0:0:
214,98,101789,1,0,1:0:0:0:
214,98,102119,1,8,1:0:0:0:
219,96,102283,1,0,1:0:0:0:
219,96,102448,1,8,1:0:0:0:
219,96,102778,1,0,1:0:0:0:
219,96,103108,1,8,1:0:0:0:
219,96,103437,1,8,1:0:0:0:
219,96,103602,1,8,1:0:0:0:
219,96,103767,1,0,1:0:0:0:
219,96,104097,1,0,1:0:0:0:
219,96,104261,1,8,1:0:0:0:
219,96,104426,1,0,1:0:0:0:
219,96,104756,5,8,1:0:0:0:
219,96,105086,1,0,1:0:0:0:
219,96,105250,1,8,1:0:0:0:
219,96,105415,1,8,1:0:0:0:
226,148,105580,1,0,1:0:0:0:
251,181,105745,5,8,1:0:0:0:
261,167,106075,1,0,1:0:0:0:
272,196,106404,1,0,1:0:0:0:
251,181,106734,1,8,1:0:0:0:
253,172,107393,1,8,1:0:0:0:
253,172,107723,1,0,1:0:0:0:
253,172,108053,1,8,1:0:0:0:
253,172,108712,1,0,1:0:0:0:
253,172,109042,1,8,1:0:0:0:
259,169,109371,1,0,1:0:0:0:
259,169,110031,1,0,1:0:0:0:
266,163,110690,1,0,1:0:0:0:
259,169,111020,1,8,1:0:0:0:
253,170,111349,1,0,1:0:0:0:
266,163,111679,1,0,1:0:0:0:
265,179,112009,1,8,1:0:0:0:
265,179,112668,1,8,1:0:0:0:
265,179,112998,1,8,1:0:0:0:
265,179,113327,1,0,1:0:0:0:
265,179,113987,1,0,1:0:0:0:
265,179,114316,1,8,1:0:0:0:
265,179,114646,1,8,1:0:0:0:
274,187,115305,1,0,1:0:0:0:
289,189,116294,1,8,1:0:0:0:
229,55,118932,5,12,1:0:0:0:
229,55,119261,1,8,1:0:0:0:
247,78,119426,1,0,1:0:0:0:
229,55,119591,1,0,1:0:0:0:
229,55,119756,1,8,1:0:0:0:
229,55,119921,1,8,1:0:0:0:
229,55,120086,1,0,1:0:0:0:
250,52,120250,1,8,0:0:0:0:
245,43,120333,1,8,0:0:0:0:
243,66,120415,1,8,1:0:0:0:
229,55,120580,1,8,1:0:0:0:
229,55,120910,1,0,1:0:0:0:
229,55,121075,1,8,1:0:0:0:
229,55,121240,1,0,1:0:0:0:
229,55,121569,1,8,1:0:0:0:
239,99,121899,1,0,1:0:0:0:
223,59,122229,1,8,1:0:0:0:
223,59,122393,1,0,1:0:0:0:
242,93,122558,1,0,1:0:0:0:
271,64,122641,1,0,0:0:0:0:
223,59,122723,1,0,1:0:0:0:
223,59,122888,1,8,1:0:0:0:
223,59,123218,1,8,1:0:0:0:
223,59,123382,1,0,1:0:0:0:
257,76,123547,1,8,1:0:0:0:
212,67,123712,1,8,1:0:0:0:
242,55,124207,1,8,1:0:0:0:
242,55,124371,1,0,1:0:0:0:
224,63,124536,1,0,1:0:0:0:
224,63,124701,1,8,1:0:0:0:
224,63,124866,1,8,1:0:0:0:
224,63,125196,1,0,1:0:0:0:
224,63,125360,1,0,1:0:0:0:
224,63,125525,1,8,1:0:0:0:
254,39,125608,1,8,0:0:0:0:
222,73,125690,1,8,1:0:0:0:
224,63,125855,1,0,1:0:0:0:
224,63,126185,1,8,1:0:0:0:
224,63,126349,1,8,1:0:0:0:
224,63,126514,1,0,1:0:0:0:
239,75,126679,1,0,1:0:0:0:
229,74,126844,5,12,1:0:0:0:
229,55,127174,1,0,1:0:0:0:
229,55,127503,1,8,1:0:0:0:
229,55,127668,1,0,1:0:0:0:
229,55,127833,1,8,1:0:0:0:
241,52,127998,1,8,1:0:0:0:
229,55,128163,1,0,1:0:0:0:
229,55,128327,1,0,1:0:0:0:
229,55,128492,1,8,1:0:0:0:
229,55,128822,1,8,1:0:0:0:
241,45,128987,1,0,1:0:0:0:
229,55,129481,1,8,1:0:0:0:
229,55,129811,1,8,1:0:0:0:
234,57,129976,1,8,1:0:0:0:
229,55,130141,1,0,1:0:0:0:
229,55,130305,1,0,1:0:0:0:
229,55,130470,1,8,1:0:0:0:
229,55,130635,1,0,1:0:0:0:
234,57,130800,1,8,1:0:0:0:
245,54,130882,1,8,0:0:0:0:
234,57,130965,1,8,1:0:0:0:
229,55,131130,1,8,1:0:0:0:
229,55,131459,1,8,1:0:0:0:
229,55,131624,1,0,1:0:0:0:
229,55,131789,1,0,1:0:0:0:
229,55,132119,1,8,1:0:0:0:
249,73,132448,1,0,1:0:0:0:
223,59,132778,1,8,1:0:0:0:
223,59,132943,1,0,1:0:0:0:
223,59,133108,1,0,1:0:0:0:
273,39,133190,1,0,0:0:0:0:
223,59,133272,1,0,1:0:0:0:
223,59,133437,1,8,1:0:0:0:
223,59,133767,1,8,1:0:0:0:
223,59,133932,1,0,1:0:0:0:
223,59,134097,1,8,1:0:0:0:
212,67,134261,1,8,1:0:0:0:
242,55,134756,1,8,1:0:0:0:
242,55,134921,1,8,1:0:0:0:
224,63,135086,1,0,1:0:0:0:
224,63,135250,1,8,1:0:0:0:
224,63,135415,1,0,1:0:0:0:
224,63,135745,1,8,1:0:0:0:
224,63,135910,1,0,1:0:0:0:
224,63,136075,5,8,1:0:0:0:
261,50,136157,1,8,0:0:0:0:
261,86,136240,1,8,1:0:0:0:
215,59,136404,1,0,1:0:0:0:
261,117,136734,1,0,1:0:0:0:
261,117,136899,1,8,1:0:0:0:
261,117,137064,1,8,1:0:0:0:
263,123,137229,1,0,1:0:0:0:
