osu file format v14

[General]
AudioFilename: audio.mp3
AudioLeadIn: 0
PreviewTime: 115305
Countdown: 0
SampleSet: Normal
StackLeniency: 0.7
Mode: 1
LetterboxInBreaks: 0
WidescreenStoryboard: 1

[Editor]
Bookmarks: 21349,105745,118932
DistanceSpacing: 1.5
BeatDivisor: 4
GridSize: 32
TimelineZoom: 0.5

[Metadata]
Title:Mood (feat. iann dior)
TitleUnicode:Mood (feat. iann dior)
Artist:24kGoldn
ArtistUnicode:24kGoldn
Creator:Neymar Jr
Version:Kantan
Source:
Tags:rap english hip hop hiphop hip-hop pop El Dorado toofu
BeatmapID:3531897
BeatmapSetID:1728269

[Difficulty]
HPDrainRate:9
CircleSize:5
OverallDifficulty:3
ApproachRate:5
SliderMultiplier:2.8
SliderTickRate:1

[Events]
//Background and Video events
0,0,"bgowo.jpg",0,0
//Break Periods
2,116494,117732
//Storyboard Layer 0 (Background)
//Storyboard Layer 1 (Fail)
//Storyboard Layer 2 (Pass)
//Storyboard Layer 3 (Foreground)
//Storyboard Layer 4 (Overlay)
//Storyboard Sound Samples

[TimingPoints]
251,659.340659340659,4,1,0,100,1,0
10800,-100,4,1,0,60,0,0
21349,-100,4,1,0,80,0,1
31899,-100,4,1,0,60,0,0
42448,-100,4,1,0,70,0,0
52998,-100,4,1,0,60,0,0
63547,-100,4,1,0,80,0,1
84646,-100,4,1,0,60,0,0
95196,-100,4,1,0,70,0,0
105745,-100,4,1,0,60,0,0
118932,-100,4,1,0,80,0,1
137229,-100,4,1,0,80,0,0

[HitObjects]
218,162,251,5,8,1:0:0:0:
218,162,1240,1,8,1:0:0:0:
218,162,1899,1,0,1:0:0:0:
218,162,2888,1,0,1:0:0:0:
218,162,3877,1,0,1:0:0:0:
206,170,4536,1,8,1:0:0:0:
206,170,5525,1,8,1:0:0:0:
206,170,6514,1,8,1:0:0:0:
206,170,7174,1,0,1:0:0:0:
205,169,8163,1,0,1:0:0:0:
205,169,9152,1,0,1:0:0:0:
215,160,9811,1,8,1:0:0:0:
215,160,10800,1,8,1:0:0:0:
215,160,11459,1,8,1:0:0:0:
226,23,11789,1,0,1:0:0:0:
243,32,12448,1,0,1:0:0:0:
215,160,12778,1,8,1:0:0:0:
215,160,13437,5,8,1:0:0:0:
215,160,14097,1,0,1:0:0:0:
241,52,14426,1,0,1:0:0:0:
209,152,14756,1,8,1:0:0:0:
237,20,15415,5,0,1:0:0:0:
215,160,16075,1,8,1:0:0:0:
215,160,16734,1,0,1:0:0:0:
215,160,17064,1,8,1:0:0:0:
215,160,17723,1,8,1:0:0:0:
215,160,18053,1,0,1:0:0:0:
215,160,18712,5,8,1:0:0:0:
215,160,19371,1,8,1:0:0:0:
211,13,19701,1,0,1:0:0:0:
209,152,20031,1,8,1:0:0:0:
236,71,21349,5,12,1:0:0:0:
229,55,22009,1,8,1:0:0:0:
229,55,22338,1,0,1:0:0:0:
229,55,22668,1,8,1:0:0:0:
229,55,23327,1,0,1:0:0:0:
229,55,23987,1,8,1:0:0:0:
229,55,24316,1,8,1:0:0:0:
229,55,24646,1,0,1:0:0:0:
212,4,24976,1,0,1:0:0:0:
229,55,25305,1,8,1:0:0:0:
234,42,26294,1,0,1:0:0:0:
229,55,26624,1,8,1:0:0:0:
223,59,27283,1,8,1:0:0:0:
223,59,27613,1,0,1:0:0:0:
246,51,27943,1,0,0:0:0:0:
213,39,28272,1,8,1:0:0:0:
223,59,28602,1,8,1:0:0:0:
242,55,29261,1,8,1:0:0:0:
242,55,29591,1,0,1:0:0:0:
224,63,29921,1,0,1:0:0:0:
224,63,30580,1,8,1:0:0:0:
224,63,31899,1,8,1:0:0:0:
238,99,32558,1,8,1:0:0:0:
238,99,33877,1,8,1:0:0:0:
238,99,34536,1,8,1:0:0:0:
241,104,34866,1,0,1:0:0:0:
238,99,35196,1,0,1:0:0:0:
238,99,35855,1,8,1:0:0:0:
238,99,36514,1,0,1:0:0:0:
254,62,36844,1,0,1:0:0:0:
224,63,37174,1,8,1:0:0:0:
260,62,37833,1,0,1:0:0:0:
238,99,38492,1,8,1:0:0:0:
238,99,38822,1,0,1:0:0:0:
238,99,39152,1,0,1:0:0:0:
238,99,39811,1,8,1:0:0:0:
238,99,40470,1,8,1:0:0:0:
238,99,40800,1,0,1:0:0:0:
232,19,41130,1,0,1:0:0:0:
250,87,42448,1,8,1:0:0:0:
250,87,43108,1,0,1:0:0:0:
250,87,43437,1,0,1:0:0:0:
249,81,44097,1,0,1:0:0:0:
249,81,44426,1,8,1:0:0:0:
264,82,45086,1,8,1:0:0:0:
278,91,45745,1,8,1:0:0:0:
196,8,46075,1,0,1:0:0:0:
277,91,46734,1,0,1:0:0:0:
278,91,47723,1,8,1:0:0:0:
258,117,48382,1,0,1:0:0:0:
226,149,48712,1,0,0:0:0:0:
206,10,49371,1,0,1:0:0:0:
276,127,49701,1,8,1:0:0:0:
206,10,50360,5,0,1:0:0:0:
291,170,51020,1,8,1:0:0:0:
233,118,51349,1,0,0:0:0:0:
291,170,52009,5,0,1:0:0:0:
251,181,52998,5,0,1:0:0:0:
251,181,53987,1,8,1:0:0:0:
253,172,55305,1,8,1:0:0:0:
251,63,55965,1,0,1:0:0:0:
253,172,56624,1,0,1:0:0:0:
234,62,57283,1,8,1:0:0:0:
259,169,58272,1,8,1:0:0:0:
265,179,59261,1,0,1:0:0:0:
265,179,60580,1,8,1:0:0:0:
265,179,61899,1,0,1:0:0:0:
309,62,62558,1,0,0:0:0:0:
229,74,63547,5,12,1:0:0:0:
229,55,64207,1,0,1:0:0:0:
229,55,64536,1,8,1:0:0:0:
229,55,64866,1,8,1:0:0:0:
229,55,65525,1,8,1:0:0:0:
229,55,66185,1,8,1:0:0:0:
249,58,66514,1,0,1:0:0:0:
229,55,66844,1,0,1:0:0:0:
229,55,67174,1,8,1:0:0:0:
229,55,67503,1,0,1:0:0:0:
234,58,68492,1,8,1:0:0:0:
229,55,68822,1,0,1:0:0:0:
223,59,69481,1,0,1:0:0:0:
223,59,69811,1,8,1:0:0:0:
261,57,70141,1,0,0:0:0:0:
223,59,70470,1,8,1:0:0:0:
233,43,70800,1,0,1:0:0:0:
242,55,71459,1,8,1:0:0:0:
224,63,71789,1,0,1:0:0:0:
224,63,72119,1,8,1:0:0:0:
224,63,72778,1,8,1:0:0:0:
229,74,74097,5,12,1:0:0:0:
229,55,74756,1,8,1:0:0:0:
229,55,75086,1,0,1:0:0:0:
229,55,75415,1,8,1:0:0:0:
229,55,76075,1,0,1:0:0:0:
229,55,76734,1,8,1:0:0:0:
240,44,77064,1,0,1:0:0:0:
229,55,77393,1,0,1:0:0:0:
229,55,77723,1,8,1:0:0:0:
229,55,78053,1,8,1:0:0:0:
229,55,79042,1,0,1:0:0:0:
229,55,79371,1,8,1:0:0:0:
223,59,80031,1,0,1:0:0:0:
223,59,80360,1,8,1:0:0:0:
282,64,80690,1,0,0:0:0:0:
223,59,81020,1,8,1:0:0:0:
223,59,81349,1,0,1:0:0:0:
242,55,82009,1,0,1:0:0:0:
224,63,82338,1,8,1:0:0:0:
224,63,82668,1,8,1:0:0:0:
224,63,83327,1,8,1:0:0:0:
215,59,84646,1,8,1:0:0:0:
214,162,85305,1,0,1:0:0:0:
217,141,85965,1,8,1:0:0:0:
234,62,86294,1,0,1:0:0:0:
252,57,86954,5,0,1:0:0:0:
217,141,87283,1,8,1:0:0:0:
231,63,87613,1,0,1:0:0:0:
217,141,87943,1,8,1:0:0:0:
217,141,88602,1,0,1:0:0:0:
208,136,89921,1,8,1:0:0:0:
221,151,90580,1,8,1:0:0:0:
205,149,91240,1,0,1:0:0:0:
205,149,91569,1,8,1:0:0:0:
239,74,92229,1,8,1:0:0:0:
205,149,92558,1,0,1:0:0:0:
208,141,92888,1,0,1:0:0:0:
208,141,93218,1,8,1:0:0:0:
208,141,93877,1,0,1:0:0:0:
214,98,95196,1,8,1:0:0:0:
214,98,95525,1,0,1:0:0:0:
246,88,95855,1,0,1:0:0:0:
214,98,96514,1,8,1:0:0:0:
219,96,97174,1,0,1:0:0:0:
219,96,97503,1,8,1:0:0:0:
218,15,97833,1,8,1:0:0:0:
219,96,98492,1,0,1:0:0:0:
219,96,99152,1,8,1:0:0:0:
214,98,100470,1,8,1:0:0:0:
214,98,100800,1,0,1:0:0:0:
219,96,101130,5,8,1:0:0:0:
214,98,101789,1,0,1:0:0:0:
219,96,102119,1,0,1:0:0:0:
219,96,102448,1,8,1:0:0:0:
219,96,103108,1,8,1:0:0:0:
219,96,103767,1,8,1:0:0:0:
219,96,104097,1,0,1:0:0:0:
195,7,104426,1,8,1:0:0:0:
251,181,105745,5,8,1:0:0:0:
251,181,106734,1,0,1:0:0:0:
253,172,108053,1,8,1:0:0:0:
251,63,108712,1,8,1:0:0:0:
253,172,109371,1,0,1:0:0:0:
234,62,110031,1,8,1:0:0:0:
259,169,111020,1,8,1:0:0:0:
265,179,112009,1,8,1:0:0:0:
265,179,113327,1,0,1:0:0:0:
265,179,114646,1,8,1:0:0:0:
274,187,115305,1,0,1:0:0:0:
289,189,116294,1,8,1:0:0:0:
229,55,118932,5,12,1:0:0:0:
272,207,119591,1,8,0:0:0:0:
229,55,119921,1,0,1:0:0:0:
229,55,120250,1,8,1:0:0:0:
245,72,121240,1,8,1:0:0:0:
229,55,121569,1,0,1:0:0:0:
223,59,122229,1,8,1:0:0:0:
223,59,122558,1,0,1:0:0:0:
245,72,122888,1,0,1:0:0:0:
223,59,123218,1,8,1:0:0:0:
233,43,123547,1,8,1:0:0:0:
242,55,124207,1,0,1:0:0:0:
266,64,124536,1,0,1:0:0:0:
224,63,124866,1,8,1:0:0:0:
224,63,125525,1,8,1:0:0:0:
229,74,126844,5,12,1:0:0:0:
229,55,127503,1,0,1:0:0:0:
229,55,127833,1,8,1:0:0:0:
229,55,128163,1,8,1:0:0:0:
229,55,128822,1,8,1:0:0:0:
229,55,129481,1,0,1:0:0:0:
245,67,129811,1,0,1:0:0:0:
229,55,130141,1,8,1:0:0:0:
229,55,130470,1,0,1:0:0:0:
229,55,130800,1,8,1:0:0:0:
246,63,131789,1,0,1:0:0:0:
229,55,132119,1,8,1:0:0:0:
223,59,132778,1,8,1:0:0:0:
223,59,133108,1,8,1:0:0:0:
241,61,133437,1,0,0:0:0:0:
223,59,133767,1,0,1:0:0:0:
223,59,134097,1,8,1:0:0:0:
242,55,134756,1,0,1:0:0:0:
224,63,135086,1,8,1:0:0:0:
224,63,135415,1,8,1:0:0:0:
224,63,136075,1,8,1:0:0:0:
235,66,137064,1,8,1:0:0:0:
