osu file format v14

[General]
AudioFilename: audio.mp3
AudioLeadIn: 0
PreviewTime: 49132
Countdown: 0
SampleSet: Normal
StackLeniency: 0.5
Mode: 1
LetterboxInBreaks: 0
EpilepsyWarning: 1
WidescreenStoryboard: 1

[Editor]
Bookmarks: 10101,14999,19897,24795,29693,39489,49132,59081,78673,88469,98265,108061,127652
DistanceSpacing: 0.7
BeatDivisor: 4
GridSize: 32
TimelineZoom: 1.3

[Metadata]
Title:Coco (feat. DaBaby)
TitleUnicode:Coco (feat. DaBaby)
Artist:24kGoldn
ArtistUnicode:24kGoldn
Creator:Tachibana_
Version:Kantan
Source:
Tags:el dorado hiphop hip-hop hip hop english pop trap emo rap golden chanel 24k 24kgolden
BeatmapID:3797933
BeatmapSetID:1848856

[Difficulty]
HPDrainRate:8
CircleSize:0
OverallDifficulty:2
ApproachRate:9
SliderMultiplier:2.8
SliderTickRate:1

[Events]
//Background and Video events
0,0,"bg.jpg",0,200
//Break Periods
//Storyboard Layer 0 (Background)
//Storyboard Layer 1 (Fail)
//Storyboard Layer 2 (Pass)
//Storyboard Layer 3 (Foreground)
//Storyboard Layer 4 (Overlay)
//Storyboard Sound Samples

[TimingPoints]
306,612.244897959184,4,1,0,100,1,0
9795,-100,4,1,0,42,0,0
10101,-100,4,1,0,82,0,1
29693,-100,4,1,0,64,0,0
39489,-100,4,1,0,78,0,0
49285,-100,4,1,0,48,0,0
59081,-100,4,1,0,82,0,1
78673,-100,4,1,0,58,0,0
88469,-100,4,1,0,68,0,0
98265,-100,4,1,0,48,0,0
108061,-100,4,1,0,86,0,1
127652,-100,4,1,0,42,0,0

[HitObjects]
256,192,7652,12,0,9795,1:0:0:0:
256,192,10101,5,12,1:0:0:0:
256,192,10714,1,0,1:0:0:0:
256,192,11326,1,8,1:0:0:0:
256,192,11632,1,0,1:0:0:0:
256,192,12550,1,8,1:0:0:0:
256,192,12857,1,0,1:0:0:0:
256,192,13163,1,8,1:0:0:0:
256,192,13775,1,8,1:0:0:0:
256,192,14081,1,0,1:0:0:0:
256,192,14540,1,0,1:0:0:0:
256,192,14999,1,12,1:0:0:0:
256,192,15612,1,0,1:0:0:0:
256,192,16224,1,8,1:0:0:0:
256,192,16530,1,0,1:0:0:0:
256,192,17448,1,8,1:0:0:0:
256,192,17754,1,8,1:0:0:0:
256,192,18061,1,0,1:0:0:0:
256,192,18673,1,8,1:0:0:0:
256,192,18979,1,0,1:0:0:0:
256,192,19438,1,0,1:0:0:0:
256,192,19897,1,12,1:0:0:0:
256,192,20510,1,0,1:0:0:0:
256,192,21122,1,8,1:0:0:0:
256,192,21428,1,0,1:0:0:0:
256,192,22346,1,0,1:0:0:0:
256,192,22652,1,0,1:0:0:0:
256,192,22959,1,8,1:0:0:0:
256,192,23571,1,8,1:0:0:0:
256,192,23877,1,0,1:0:0:0:
256,192,24336,1,0,1:0:0:0:
256,192,24795,1,12,1:0:0:0:
256,192,25408,1,0,1:0:0:0:
256,192,26020,1,8,1:0:0:0:
256,192,26326,1,8,1:0:0:0:
256,192,26632,1,0,1:0:0:0:
256,192,27244,1,8,1:0:0:0:
256,192,28163,1,0,1:0:0:0:
256,192,28469,1,8,1:0:0:0:
256,192,28775,1,0,1:0:0:0:
256,192,29234,1,0,1:0:0:0:
256,192,29693,1,0,1:0:0:0:
256,192,30306,1,8,1:0:0:0:
256,192,30918,1,8,1:0:0:0:
256,192,31224,1,0,1:0:0:0:
256,192,31530,1,0,1:0:0:0:
256,192,32142,1,0,1:0:0:0:
256,192,32754,1,8,1:0:0:0:
256,192,33367,1,0,1:0:0:0:
256,192,33673,1,0,1:0:0:0:
256,192,33979,1,8,1:0:0:0:
256,192,34591,1,8,1:0:0:0:
256,192,35203,1,8,1:0:0:0:
256,192,35816,1,0,1:0:0:0:
256,192,36122,1,0,1:0:0:0:
256,192,36428,1,8,1:0:0:0:
256,192,37040,1,0,1:0:0:0:
256,192,37652,1,0,1:0:0:0:
256,192,38265,1,8,1:0:0:0:
256,192,39489,1,12,1:0:0:0:
256,192,39795,1,0,1:0:0:0:
256,192,40101,1,0,1:0:0:0:
256,192,40714,1,8,1:0:0:0:
256,192,41020,1,0,1:0:0:0:
256,192,41326,1,8,1:0:0:0:
256,192,41938,1,8,1:0:0:0:
256,192,42550,1,0,1:0:0:0:
256,192,43163,1,8,1:0:0:0:
256,192,44387,1,8,1:0:0:0:
256,192,44693,1,0,1:0:0:0:
256,192,44999,1,0,1:0:0:0:
256,192,45612,1,8,1:0:0:0:
256,192,45918,1,0,1:0:0:0:
256,192,46224,1,8,1:0:0:0:
256,192,46836,1,8,1:0:0:0:
256,192,47448,1,0,1:0:0:0:
256,192,48061,1,8,1:0:0:0:
256,192,48367,1,0,1:0:0:0:
256,192,48826,1,0,1:0:0:0:
256,192,49285,1,0,1:0:0:0:
256,192,50510,1,8,1:0:0:0:
256,192,51734,1,0,1:0:0:0:
256,192,52346,1,0,1:0:0:0:
256,192,52959,1,8,1:0:0:0:
256,192,53571,1,0,1:0:0:0:
256,192,54183,1,8,1:0:0:0:
256,192,55408,1,8,1:0:0:0:
256,192,56632,1,8,1:0:0:0:
256,192,57857,1,0,1:0:0:0:
256,192,59081,1,12,1:0:0:0:
256,192,59693,1,0,1:0:0:0:
256,192,60306,1,8,1:0:0:0:
256,192,60612,1,0,1:0:0:0:
256,192,61530,1,8,1:0:0:0:
256,192,61836,1,0,1:0:0:0:
256,192,62142,1,8,1:0:0:0:
256,192,62754,1,8,1:0:0:0:
256,192,63061,1,0,1:0:0:0:
256,192,63520,1,0,1:0:0:0:
256,192,63979,1,12,1:0:0:0:
256,192,64591,1,0,1:0:0:0:
256,192,65203,1,8,1:0:0:0:
256,192,65510,1,0,1:0:0:0:
256,192,66428,1,8,1:0:0:0:
256,192,66734,1,8,1:0:0:0:
256,192,67040,1,0,1:0:0:0:
256,192,67652,1,8,1:0:0:0:
256,192,67959,1,0,1:0:0:0:
256,192,68418,1,0,1:0:0:0:
256,192,68877,1,12,1:0:0:0:
256,192,69489,1,0,1:0:0:0:
256,192,70101,1,8,1:0:0:0:
256,192,70408,1,0,1:0:0:0:
256,192,71326,1,0,1:0:0:0:
256,192,71632,1,0,1:0:0:0:
256,192,71938,1,8,1:0:0:0:
256,192,72550,1,8,1:0:0:0:
256,192,72857,1,0,1:0:0:0:
256,192,73316,1,0,1:0:0:0:
256,192,73775,1,12,1:0:0:0:
256,192,74387,1,0,1:0:0:0:
256,192,74999,1,8,1:0:0:0:
256,192,75306,1,8,1:0:0:0:
256,192,75612,1,0,1:0:0:0:
256,192,76224,1,8,1:0:0:0:
256,192,76683,1,8,1:0:0:0:
256,192,77142,1,0,1:0:0:0:
256,192,77448,1,8,1:0:0:0:
256,192,77754,1,0,1:0:0:0:
256,192,78214,1,0,1:0:0:0:
256,192,78673,1,0,1:0:0:0:
256,192,79897,1,0,1:0:0:0:
256,192,80510,1,8,1:0:0:0:
256,192,81122,1,0,1:0:0:0:
256,192,81734,1,8,1:0:0:0:
256,192,82040,1,8,1:0:0:0:
256,192,82346,1,0,1:0:0:0:
256,192,82959,1,8,1:0:0:0:
256,192,83571,1,8,1:0:0:0:
256,192,84183,1,0,1:0:0:0:
256,192,84795,1,8,1:0:0:0:
256,192,85101,1,0,1:0:0:0:
256,192,85408,1,8,1:0:0:0:
256,192,86020,1,8,1:0:0:0:
256,192,86632,1,8,1:0:0:0:
256,192,87244,1,0,1:0:0:0:
256,192,88469,1,0,1:0:0:0:
256,192,88775,1,8,1:0:0:0:
256,192,89081,1,0,1:0:0:0:
256,192,89693,1,0,1:0:0:0:
256,192,89999,1,8,1:0:0:0:
256,192,90918,1,0,1:0:0:0:
256,192,91530,1,8,1:0:0:0:
256,192,92448,1,8,1:0:0:0:
256,192,92754,1,8,1:0:0:0:
256,192,93367,1,0,1:0:0:0:
256,192,93979,1,8,1:0:0:0:
256,192,94591,1,0,1:0:0:0:
256,192,94897,1,8,1:0:0:0:
256,192,95510,1,0,1:0:0:0:
256,192,95816,1,8,1:0:0:0:
256,192,96428,1,8,1:0:0:0:
256,192,97040,1,8,1:0:0:0:
256,192,97346,1,0,1:0:0:0:
256,192,97806,1,0,1:0:0:0:
256,192,98265,1,0,1:0:0:0:
256,192,99489,1,8,1:0:0:0:
256,192,100714,1,0,1:0:0:0:
256,192,101326,1,0,1:0:0:0:
256,192,101938,1,8,1:0:0:0:
256,192,102550,1,0,1:0:0:0:
256,192,103163,1,8,1:0:0:0:
256,192,104387,1,8,1:0:0:0:
256,192,105612,1,8,1:0:0:0:
256,192,106836,1,0,1:0:0:0:
256,192,107448,1,4,1:0:0:0:
256,192,108061,1,12,1:0:0:0:
256,192,108673,1,0,1:0:0:0:
256,192,109285,1,8,1:0:0:0:
256,192,109591,1,0,1:0:0:0:
256,192,110510,1,8,1:0:0:0:
256,192,110816,1,0,1:0:0:0:
256,192,111122,1,8,1:0:0:0:
256,192,111734,1,8,1:0:0:0:
256,192,112040,1,0,1:0:0:0:
256,192,112499,1,0,1:0:0:0:
256,192,112959,1,12,1:0:0:0:
256,192,113571,1,0,1:0:0:0:
256,192,114183,1,8,1:0:0:0:
256,192,114489,1,0,1:0:0:0:
256,192,115408,1,8,1:0:0:0:
256,192,115714,1,0,1:0:0:0:
256,192,116020,1,8,1:0:0:0:
256,192,116632,1,8,1:0:0:0:
256,192,116938,1,0,1:0:0:0:
256,192,117397,1,0,1:0:0:0:
256,192,117857,1,12,1:0:0:0:
256,192,118469,1,0,1:0:0:0:
256,192,119081,1,8,1:0:0:0:
256,192,119387,1,0,1:0:0:0:
256,192,120306,1,0,1:0:0:0:
256,192,120612,1,0,1:0:0:0:
256,192,120918,1,8,1:0:0:0:
256,192,121530,1,8,1:0:0:0:
256,192,121836,1,0,1:0:0:0:
256,192,122295,1,0,1:0:0:0:
256,192,122754,1,12,1:0:0:0:
256,192,123367,1,0,1:0:0:0:
256,192,123979,1,8,1:0:0:0:
256,192,124285,1,8,1:0:0:0:
256,192,124591,1,0,1:0:0:0:
256,192,125203,1,12,1:0:0:0:
256,192,125663,1,8,1:0:0:0:
256,192,126122,1,0,1:0:0:0:
256,192,126428,1,8,1:0:0:0:
256,192,126734,1,0,1:0:0:0:
256,192,127193,1,0,1:0:0:0:
256,192,127652,1,0,1:0:0:0:
