osu file format v14

[General]
AudioFilename: audio.mp3
AudioLeadIn: 0
PreviewTime: 49132
Countdown: 0
SampleSet: Soft
StackLeniency: 0.7
Mode: 0
LetterboxInBreaks: 0
WidescreenStoryboard: 1

[Editor]
Bookmarks: 8418,8647,8800,9030,10101,29693,49285,78673,98265,108061
DistanceSpacing: 1
BeatDivisor: 4
GridSize: 32
TimelineZoom: 1.9

[Metadata]
Title:Coco (feat. DaBaby)
TitleUnicode:Coco (feat. DaBaby)
Artist:24kGoldn
ArtistUnicode:24kGoldn
Creator:Mimari
Version:Normal
Source:
Tags:el dorado hip hop english pop trap emo rap jamesjan3 jasontime jasontime12345 wafer goopert kami no kotoba chanel
BeatmapID:2788997
BeatmapSetID:1336856

[Difficulty]
HPDrainRate:3.5
CircleSize:3.4
OverallDifficulty:4
ApproachRate:6
SliderMultiplier:1.99999990463257
SliderTickRate:1

[Events]
//Background and Video events
0,0,"baby.jpg",0,0
//Break Periods
2,49485,58031
2,98465,107011
//Storyboard Layer 0 (Background)
//Storyboard Layer 1 (Fail)
//Storyboard Layer 2 (Pass)
//Storyboard Layer 3 (Foreground)
//Storyboard Layer 4 (Overlay)
//Storyboard Sound Samples

[TimingPoints]
306,612.244897959184,4,2,0,66,1,0
29693,-100,4,2,0,46,0,0
39489,-100,4,2,0,56,0,0
49285,-100,4,2,0,40,0,0
56632,-100,4,2,0,46,0,0
57857,-100,4,2,0,56,0,0
58469,-100,4,2,0,60,0,0
59081,-100,4,2,0,66,0,0
78673,-100,4,2,0,46,0,0
88469,-100,4,2,0,66,0,0
98265,-100,4,2,0,40,0,0
105612,-100,4,2,0,46,0,0
106837,-100,4,2,0,56,0,0
108061,-100,4,2,0,77,0,0

[Colours]
Combo1 : 187,185,227
Combo2 : 181,230,240
Combo3 : 200,196,196

[HitObjects]
30,122,10101,5,6,1:0:0:0:
30,122,10254,2,0,P|15:168|29:219,1,99.9999952316285,2|0,0:0|0:0,0:0:0:0:
56,258,10714,1,8,0:0:0:0:
189,337,11173,1,2,0:0:0:0:
189,337,11326,2,0,B|221:318|260:346|260:346|300:372|360:337,1,149.999992847443,2|2,1:0|0:0,0:0:0:0:
374,325,11938,2,0,P|388:270|371:226,1,99.9999952316285,10|2,0:1|0:0,0:0:0:0:
303,159,12550,6,0,L|222:150,2,49.9999976158143,2|2|2,1:0|0:0|0:0,0:0:0:0:
347,129,13010,1,2,0:0:0:0:
347,129,13163,2,0,L|396:136,1,49.9999976158143,10|2,0:1|0:0,0:0:0:0:
446,140,13469,1,2,0:0:0:0:
459,40,13775,2,0,L|344:23,1,99.9999952316285,2|0,0:1|1:2,0:0:0:0:
262,5,14387,2,0,P|248:32|251:70,1,49.9999976158143,8|0,0:0|1:0,0:0:0:0:
262,98,14693,1,2,0:0:0:0:
299,196,14999,5,6,1:0:0:0:
299,196,15152,2,0,L|282:316,1,99.9999952316285,2|0,0:0|0:0,0:0:0:0:
275,344,15612,1,8,0:0:0:0:
132,380,16071,1,2,0:0:0:0:
132,380,16224,2,0,B|113:348|141:309|141:309|167:269|132:209,1,149.999992847443,2|2,1:0|0:0,0:0:0:0:
121,194,16836,2,0,P|101:155|91:97,1,99.9999952316285,10|2,0:1|0:0,0:0:0:0:
179,53,17448,6,0,L|189:1,2,49.9999976158143,2|2|2,1:0|0:0|0:0,0:0:0:0:
216,94,17908,1,2,0:0:0:0:
216,94,18061,2,0,L|230:160,1,49.9999976158143,10|2,0:1|0:0,0:0:0:0:
238,191,18367,1,2,0:1:0:0:
264,287,18673,2,0,P|304:309|366:297,1,99.9999952316285,2|0,0:1|1:1,0:0:0:0:
450,268,19285,2,0,L|462:210,1,49.9999976158143,8|0,0:0|1:0,0:0:0:0:
472,170,19591,1,2,0:0:0:0:
490,71,19897,5,6,1:0:0:0:
490,71,20050,2,0,P|437:54|375:87,1,99.9999952316285,2|0,0:0|0:0,0:0:0:0:
353,92,20510,1,8,0:0:0:0:
219,35,20969,1,2,0:0:0:0:
219,35,21122,2,0,B|187:16|148:44|148:44|108:70|48:35,1,149.999992847443,2|2,1:0|0:0,0:0:0:0:
29,34,21734,2,0,L|49:149,1,99.9999952316285,10|2,0:1|0:0,0:0:0:0:
122,196,22346,6,0,L|113:266,1,49.9999976158143,2|2,1:0|0:0,0:0:0:0:
76,276,22652,2,0,P|80:336|99:381,1,99.9999952316285,2|10,0:0|0:1,0:0:0:0:
194,373,23265,2,0,L|281:363,1,49.9999976158143,2|10,0:0|0:0,0:0:0:0:
292,358,23571,2,0,L|359:348,1,49.9999976158143,2|8,0:1|0:2,0:0:0:0:
390,343,23877,1,2,1:0:0:0:
475,290,24183,2,0,P|489:263|486:225,1,49.9999976158143,10|0,0:1|1:0,0:0:0:0:
475,197,24489,1,2,0:1:0:0:
383,155,24795,5,6,1:0:0:0:
383,155,24948,2,0,L|275:168,1,99.9999952316285,2|0,0:0|0:0,0:0:0:0:
234,174,25408,1,8,0:0:0:0:
89,200,25867,1,2,0:0:0:0:
89,200,26020,2,0,P|53:138|102:54,1,149.999992847443,2|2,1:0|0:0,0:0:0:0:
115,35,26632,2,0,L|225:64,1,99.9999952316285,10|2,0:1|0:0,0:0:0:0:
311,68,27244,6,0,L|421:39,1,99.9999952316285,2|2,1:0|0:0,0:0:0:0:
456,55,27703,2,0,P|477:103|435:168,1,99.9999952316285,2|2,0:1|0:0,0:0:0:0:
433,188,28163,1,2,0:1:0:0:
491,269,28469,2,0,L|500:331,1,49.9999976158143,2|0,0:1|0:0,0:0:0:0:
498,369,28775,2,0,P|447:383|393:354,1,99.9999952316285,0|8,1:1|0:0,0:0:0:0:
368,333,29234,2,0,P|317:319|263:348,1,99.9999952316285,0|2,1:0|0:0,0:0:0:0:
233,365,29693,6,0,L|88:363,1,99.9999952316285,2|2,3:0|0:2,0:0:0:0:
45,315,30306,1,10,0:2:0:0:
110,239,30612,2,0,P|116:210|100:167,1,49.9999976158143,2|0,0:2|0:0,0:0:0:0:
97,142,30918,2,0,P|86:95|130:23,1,99.9999952316285,2|2,0:2|0:2,0:0:0:0:
197,14,31530,1,10,0:2:0:0:
259,91,31836,1,2,0:2:0:0:
331,21,32142,6,0,P|375:7|424:25,1,99.9999952316285,2|2,3:0|0:2,0:0:0:0:
496,93,32754,1,10,0:2:0:0:
420,158,33061,2,0,L|350:143,1,49.9999976158143,2|0,0:2|0:0,0:0:0:0:
322,137,33367,2,0,P|304:182|318:229,1,99.9999952316285,2|2,0:2|0:2,0:0:0:0:
349,268,33826,1,2,0:2:0:0:
349,268,33979,1,10,0:2:0:0:
403,352,34285,1,2,0:2:0:0:
303,356,34591,6,0,L|190:343,1,99.9999952316285,2|2,1:0|0:2,0:0:0:0:
127,279,35203,1,10,0:2:0:0:
198,209,35510,2,0,L|207:114,1,49.9999976158143,2|0,0:2|0:0,0:0:0:0:
203,109,35816,2,0,P|210:71|176:24,1,99.9999952316285,2|2,0:2|1:0,0:0:0:0:
75,21,36428,2,0,P|51:21|18:40,1,49.9999976158143,10|0,0:2|0:0,0:0:0:0:
12,79,36734,1,2,0:2:0:0:
15,178,37040,6,0,L|142:194,1,99.9999952316285,2|2,1:0|0:2,0:0:0:0:
155,227,37499,1,0,0:0:0:0:
155,227,37652,2,0,L|282:243,1,99.9999952316285,10|2,0:2|0:2,0:0:0:0:
354,237,38265,2,2,B|405:215|400:128|271:81|196:222|295:350|311:366,1,349.9999833107,2|0,0:0|0:0,0:1:0:0:
347,371,39489,5,6,1:0:0:0:
449,358,39795,1,2,0:3:0:0:
449,358,39948,2,0,L|465:239,1,99.9999952316285,2|2,0:0|0:0,0:0:0:0:
475,210,40408,1,8,0:0:0:0:
484,110,40714,2,0,P|441:86|373:121,1,99.9999952316285,2|0,1:0|1:0,0:0:0:0:
352,123,41173,1,2,0:0:0:0:
352,123,41326,2,0,P|309:146|261:135,1,99.9999952316285,10|2,1:0|3:0,0:0:0:0:
173,79,41938,6,0,L|186:8,2,49.9999976158143,6|2|2,1:0|0:0|0:3,0:0:0:0:
147,121,42397,1,2,0:0:0:0:
147,121,42550,2,0,P|144:172|176:246,1,99.9999952316285,10|10,0:0|0:0,0:0:0:0:
211,302,43163,2,0,B|172:326|134:308|134:308|94:284|43:313,1,149.999992847443,2|2,1:0|0:0,0:0:0:0:
18,313,43775,2,0,P|3:266|30:200,1,99.9999952316285,10|2,1:0|3:0,0:0:0:0:
62,129,44387,6,0,L|5:115,2,49.9999976158143,6|2|2,1:0|0:0|0:3,0:0:0:0:
109,144,44846,1,2,0:0:0:0:
109,144,44999,2,0,P|178:141|225:111,1,99.9999952316285,10|10,0:0|0:0,0:0:0:0:
267,49,45612,2,0,P|346:30|376:96,1,149.999992847443,2|2,1:0|0:0,0:0:0:0:
394,126,46224,2,0,L|371:227,1,99.9999952316285,10|2,1:0|3:0,0:0:0:0:
314,305,46836,6,0,L|324:374,2,49.9999976158143,6|2|2,1:0|0:0|0:3,0:0:0:0:
281,266,47295,1,2,0:0:0:0:
281,266,47448,2,0,P|228:249|163:258,1,99.9999952316285,10|10,0:0|0:0,0:0:0:0:
113,322,48061,2,0,P|57:325|64:205,2,199.999990463257,2|10|2,1:0|1:0|0:0,0:0:0:0:
451,54,59081,5,6,1:0:0:0:
451,54,59234,2,0,L|337:52,1,99.9999952316285,2|0,0:0|0:0,0:0:0:0:
300,52,59694,1,8,0:0:0:0:
153,21,60153,1,2,0:0:0:0:
153,21,60306,2,0,P|138:94|161:176,1,149.999992847443,2|2,1:0|0:0,0:0:0:0:
185,206,60918,2,0,L|268:196,1,49.9999976158143,10|0,0:1|0:0,0:0:0:0:
284,192,61224,1,2,0:0:0:0:
383,187,61530,6,0,L|397:122,2,49.9999976158143,2|2|2,1:0|0:0|0:0,0:0:0:0:
407,236,61990,1,2,0:0:0:0:
407,236,62143,2,0,L|416:288,1,49.9999976158143,10|2,0:1|0:0,0:0:0:0:
429,333,62449,1,2,0:0:0:0:
334,366,62755,2,0,P|282:359|228:349,1,99.9999952316285,2|0,0:1|1:2,0:0:0:0:
137,371,63367,2,0,P|123:344|126:306,1,49.9999976158143,8|0,0:0|1:0,0:0:0:0:
137,278,63673,1,2,0:0:0:0:
71,210,63979,5,6,1:0:0:0:
71,210,64132,2,0,L|51:88,1,99.9999952316285,2|0,0:0|0:0,0:0:0:0:
68,62,64592,1,8,0:0:0:0:
219,40,65051,1,2,0:0:0:0:
219,40,65204,2,0,B|251:21|290:49|290:49|330:75|390:40,1,149.999992847443,2|2,1:0|0:0,0:0:0:0:
407,36,65816,2,0,P|432:81|394:145,1,99.9999952316285,10|2,0:1|0:0,0:0:0:0:
347,195,66428,6,0,L|288:187,2,49.9999976158143,2|2|2,1:0|0:0|0:0,0:0:0:0:
387,224,66888,1,2,0:0:0:0:
387,224,67041,2,0,L|439:228,1,49.9999976158143,10|2,0:1|0:0,0:0:0:0:
486,234,67347,1,2,0:1:0:0:
440,322,67653,2,0,L|335:342,1,99.9999952316285,2|0,0:1|1:1,0:0:0:0:
243,322,68265,2,0,L|231:264,1,49.9999976158143,8|0,0:0|1:0,0:0:0:0:
221,224,68571,1,2,0:0:0:0:
278,141,68877,5,6,1:0:0:0:
278,141,69030,2,0,L|298:25,1,99.9999952316285,2|0,0:0|0:0,0:0:0:0:
264,2,69490,1,8,0:0:0:0:
119,30,69949,1,2,0:0:0:0:
119,30,70102,2,0,P|90:92|113:188,1,149.999992847443,2|2,1:0|0:0,0:0:0:0:
131,211,70714,2,0,P|137:246|129:288,1,49.9999976158143,10|0,0:1|0:0,0:0:0:0:
123,308,71020,1,2,0:0:0:0:
28,339,71326,6,0,L|21:289,1,49.9999976158143,2|2,1:0|0:0,0:0:0:0:
7,241,71632,1,2,0:0:0:0:
32,144,71938,1,10,0:1:0:0:
0,46,72245,2,0,P|23:34|52:34,1,49.9999976158143,2|10,0:0|0:0,0:0:0:0:
96,40,72551,2,0,L|145:47,1,49.9999976158143,2|8,0:1|0:2,0:0:0:0:
194,58,72857,1,2,1:0:0:0:
257,134,73163,1,10,0:1:0:0:
185,203,73469,1,2,0:1:0:0:
239,286,73775,5,6,1:0:0:0:
239,286,73928,2,0,L|347:299,1,99.9999952316285,2|0,0:0|0:0,0:0:0:0:
388,300,74388,1,8,0:0:0:0:
477,180,74847,1,2,0:0:0:0:
477,180,74999,2,0,B|498:149|472:109|472:109|443:70|463:38,1,149.999992847443,2|2,1:0|0:0,0:0:0:0:
417,17,75612,2,0,L|307:46,1,99.9999952316285,10|2,0:1|0:0,0:0:0:0:
224,12,76224,6,0,P|205:56|217:124,1,99.9999952316285,2|2,1:0|0:0,0:0:0:0:
227,153,76683,2,0,P|246:197|234:265,1,99.9999952316285,2|2,0:1|0:0,0:0:0:0:
228,296,77143,1,2,0:1:0:0:
141,345,77448,2,0,L|71:336,1,49.9999976158143,2|0,0:1|0:0,0:0:0:0:
41,331,77754,2,0,L|27:196,1,99.9999952316285,0|8,1:1|0:0,0:0:0:0:
57,189,78214,2,0,L|77:52,1,99.9999952316285,0|2,1:0|0:0,0:0:0:0:
83,41,78673,6,0,L|168:29,1,49.9999976158143,2|2,3:0|0:0,0:0:0:0:
180,49,78979,2,0,L|265:37,1,49.9999976158143,2|2,0:0|0:0,0:0:0:0:
277,57,79285,1,10,0:0:0:0:
349,125,79591,2,2,P|359:170|338:218,1,99.9999952316285,2|0,0:1|0:0,0:1:0:0:
304,255,80050,1,8,0:0:0:0:
304,255,80203,1,2,3:0:0:0:
358,339,80510,1,10,0:0:0:0:
452,306,80816,2,0,L|465:245,1,49.9999976158143,2|2,0:0|0:0,0:0:0:0:
474,208,81122,6,0,P|483:135|465:91,1,99.9999952316285,2|2,0:0|0:3,0:0:0:0:
459,63,81581,1,2,0:0:0:0:
459,63,81734,1,8,0:2:0:0:
368,20,82040,2,0,L|280:12,1,49.9999976158143,2|2,0:0|0:0,0:0:0:0:
272,34,82346,2,0,L|184:26,1,49.9999976158143,2|10,3:0|0:0,0:0:0:0:
175,46,82652,1,2,0:0:0:0:
218,136,82959,1,10,0:0:0:0:
151,210,83265,2,0,P|143:240|155:285,1,49.9999976158143,2|2,3:0|0:0,0:0:0:0:
186,285,83571,6,0,L|320:285,1,99.9999952316285,2|2,1:2|0:2,0:0:0:0:
339,290,84030,1,2,3:0:0:0:
339,290,84183,1,8,0:0:0:0:
276,368,84489,2,0,L|190:370,1,49.9999976158143,2|2,0:0|0:0,0:0:0:0:
176,372,84795,6,0,L|90:374,1,49.9999976158143,2|8,3:0|0:0,0:0:0:0:
76,375,85101,1,2,1:0:0:0:
24,288,85408,2,0,P|14:237|34:174,1,99.9999952316285,8|2,0:0|0:0,0:0:0:0:
53,151,85867,1,2,0:0:0:0:
53,151,86020,1,2,1:0:0:0:
139,200,86326,2,0,L|220:193,1,49.9999976158143,2|2,0:0|0:0,0:0:0:0:
238,192,86632,2,0,P|248:141|228:78,1,99.9999952316285,8|2,0:0|0:0,0:0:0:0:
214,50,87091,1,2,0:0:0:0:
214,50,87244,1,2,3:0:0:0:
48,336,88469,6,0,L|142:323,1,49.9999976158143,0|2,1:0|0:0,0:0:0:0:
146,321,88775,1,2,0:0:0:0:
239,355,89081,2,0,L|354:370,1,99.9999952316285,10|2,0:0|0:0,0:0:0:0:
387,377,89540,1,2,0:0:0:0:
387,377,89693,1,2,3:0:0:0:
461,310,89999,2,2,P|474:283|469:240,1,49.9999976158143,2|0,1:0|0:0,1:0:0:0:
460,215,90306,2,2,L|435:99,1,99.9999952316285,10|0,0:1|0:0,0:1:0:0:
359,56,90918,5,0,1:0:0:0:
359,56,91071,2,0,P|280:50|221:118,1,149.999992847443,2|8,0:1|0:0,0:0:0:0:
185,183,91836,2,0,L|193:240,1,49.9999976158143,2|0,0:0|0:0,0:0:0:0:
189,282,92142,1,2,0:0:0:0:
110,343,92448,1,2,1:0:0:0:
25,287,92754,2,2,P|17:211|32:116,1,149.999992847443,10|0,0:1|0:0,1:0:0:0:
42,90,93367,5,0,1:0:0:0:
42,90,93520,2,0,P|117:78|177:131,1,149.999992847443,2|8,0:1|0:0,0:0:0:0:
255,176,94285,2,0,L|247:233,1,49.9999976158143,2|0,0:0|0:0,0:0:0:0:
249,275,94591,1,2,0:0:0:0:
332,330,94897,1,0,1:0:0:0:
431,325,95203,2,0,B|452:294|426:254|426:254|397:215|417:183,1,149.999992847443,8|2,0:0|0:0,0:0:0:0:
432,137,95816,6,0,P|445:115|442:69,1,49.9999976158143,2|2,1:0|0:0,0:0:0:0:
409,58,96122,2,0,L|288:42,1,99.9999952316285,2|8,0:0|0:0,0:0:0:0:
212,24,96734,1,2,0:0:0:0:
137,90,97040,2,0,L|147:156,1,49.9999976158143,2|0,0:0|0:0,0:0:0:0:
164,183,97346,1,0,1:0:0:0:
251,231,97652,2,0,P|244:290|211:364,1,99.9999952316285,8|2,0:0|0:0,0:0:0:0:
136,362,98265,1,2,0:0:0:0:
451,330,108061,5,6,1:0:0:0:
451,330,108214,2,0,P|403:346|343:315,1,99.9999952316285,2|0,0:0|0:0,0:0:0:0:
315,303,108674,1,8,0:0:0:0:
404,182,109133,1,2,0:0:0:0:
404,182,109285,2,0,B|423:150|395:111|395:111|369:71|404:11,1,149.999992847443,2|2,1:0|0:0,0:0:0:0:
351,7,109898,2,0,L|290:20,1,49.9999976158143,10|0,0:1|0:0,0:0:0:0:
252,26,110204,1,2,0:0:0:0:
177,92,110510,6,0,L|110:81,2,49.9999976158143,6|2|2,1:0|0:0|0:0,0:0:0:0:
214,125,110970,1,2,0:0:0:0:
214,125,111123,2,0,P|221:146|218:193,1,49.9999976158143,10|2,0:1|0:0,0:0:0:0:
204,220,111429,1,2,0:0:0:0:
140,297,111735,2,0,P|88:304|34:314,1,99.9999952316285,2|0,0:1|1:2,0:0:0:0:
17,215,112346,2,0,L|35:130,1,49.9999976158143,8|0,0:0|1:0,0:0:0:0:
39,117,112653,1,2,0:0:0:0:
77,27,112959,5,6,1:0:0:0:
77,27,113112,2,0,P|119:11|185:33,1,99.9999952316285,2|0,0:0|0:0,0:0:0:0:
212,52,113572,1,8,0:0:0:0:
213,180,114031,1,2,0:0:0:0:
213,180,114184,2,0,B|232:212|204:251|204:251|178:291|213:351,1,149.999992847443,2|2,1:0|0:0,0:0:0:0:
225,364,114796,2,0,L|338:343,1,99.9999952316285,10|2,0:1|0:0,0:0:0:0:
420,321,115408,6,0,L|407:377,2,49.9999976158143,6|2|2,1:0|0:0|0:0,0:0:0:0:
448,281,115868,1,2,0:0:0:0:
448,281,116021,2,0,L|437:202,1,49.9999976158143,10|2,0:1|0:0,0:0:0:0:
433,182,116327,1,2,0:1:0:0:
412,84,116633,2,0,P|365:66|314:83,1,99.9999952316285,2|0,0:1|1:1,0:0:0:0:
232,130,117245,2,0,P|202:136|172:126,1,49.9999976158143,8|0,0:0|1:0,0:0:0:0:
146,97,117551,1,2,0:0:0:0:
47,116,117857,5,6,1:0:0:0:
47,116,118010,2,0,L|47:231,1,99.9999952316285,2|0,0:0|0:0,0:0:0:0:
48,266,118470,1,8,0:0:0:0:
169,353,118929,1,2,0:0:0:0:
169,353,119082,2,0,P|239:364|287:295,1,149.999992847443,2|2,1:0|0:0,0:0:0:0:
262,264,119694,2,0,L|260:187,1,49.9999976158143,10|0,0:1|0:0,0:0:0:0:
256,164,120000,1,2,0:0:0:0:
251,64,120306,6,0,P|281:56|325:83,1,49.9999976158143,6|2,1:0|0:0,0:0:0:0:
344,81,120612,1,2,0:0:0:0:
438,47,120918,1,10,0:1:0:0:
483,136,121225,2,0,L|472:184,1,49.9999976158143,2|10,0:0|0:0,0:0:0:0:
444,226,121531,2,0,L|457:283,1,49.9999976158143,2|8,0:1|0:2,0:0:0:0:
472,321,121837,1,2,1:0:0:0:
386,371,122143,1,10,0:1:0:0:
318,296,122449,1,2,0:1:0:0:
233,349,122755,5,6,1:0:0:0:
233,349,122908,2,0,L|125:336,1,99.9999952316285,2|0,0:0|0:0,0:0:0:0:
83,333,123368,1,8,0:0:0:0:
10,208,123827,1,2,0:0:0:0:
10,208,123979,2,0,B|-11:177|15:137|15:137|44:98|24:66,1,149.999992847443,2|2,1:0|0:0,0:0:0:0:
34,18,124592,2,0,P|85:11|130:43,1,99.9999952316285,10|2,0:1|0:0,0:0:0:0:
223,47,125204,6,0,P|242:91|230:159,1,99.9999952316285,6|2,1:0|0:0,0:0:0:0:
220,188,125663,2,0,P|201:232|213:300,1,99.9999952316285,2|2,0:1|0:0,0:0:0:0:
219,331,126123,1,2,0:1:0:0:
309,372,126428,2,0,L|363:362,1,49.9999976158143,2|0,0:1|0:0,0:0:0:0:
407,353,126734,2,0,P|426:309|414:241,1,99.9999952316285,0|8,1:1|0:0,0:0:0:0:
404,212,127193,2,0,P|385:168|397:100,1,99.9999952316285,0|2,1:0|0:0,0:0:0:0:
407,70,127652,1,2,3:0:0:0:
