osu file format v14

[General]
AudioFilename: 24 Hishoku no Sora %7ETV SIZE%7E.mp3
AudioLeadIn: 0
PreviewTime: -1
Countdown: 1
SampleSet: Soft
StackLeniency: 0.7
Mode: 3
LetterboxInBreaks: 1
SpecialStyle: 1
WidescreenStoryboard: 1

[Editor]
DistanceSpacing: 0.8
BeatDivisor: 4
GridSize: 4
TimelineZoom: 2.1

[Metadata]
Title:Shana Collection
TitleUnicode:Shana Collection
Artist:
ArtistUnicode:
Creator:ecafree2
Version:Kawada Mami - Hishoku no Sora (TV Size)
Source:Shakugan no Shana
Tags:
BeatmapID:1126917
BeatmapSetID:531752

[Difficulty]
HPDrainRate:9
CircleSize:4
OverallDifficulty:9
ApproachRate:5
SliderMultiplier:1.4
SliderTickRate:1

[Events]
//Background and Video events
0,0,"shana.jpg",0,0
//Break Periods
//Storyboard Layer 0 (Background)
//Storyboard Layer 1 (Fail)
//Storyboard Layer 2 (Pass)
//Storyboard Layer 3 (Foreground)
//Storyboard Sound Samples

[TimingPoints]
384,355.029585798817,4,2,0,5,1,0

[HitObjects]
64,192,384,5,0,0:0:0:0:
448,192,384,1,0,0:0:0:0:
320,192,384,1,0,0:0:0:0:
192,192,561,1,0,0:0:0:0:
320,192,739,1,0,0:0:0:0:
448,192,739,1,0,0:0:0:0:
64,192,916,1,0,0:0:0:0:
320,192,1005,1,0,0:0:0:0:
192,192,1094,1,0,0:0:0:0:
448,192,1094,1,0,0:0:0:0:
64,192,1094,1,0,0:0:0:0:
64,192,1271,1,0,0:0:0:0:
448,192,1449,1,0,0:0:0:0:
320,192,1449,1,0,0:0:0:0:
320,192,1626,1,0,0:0:0:0:
64,192,1626,1,0,0:0:0:0:
448,192,1804,1,0,0:0:0:0:
320,192,1981,1,0,0:0:0:0:
64,192,1981,1,0,0:0:0:0:
192,192,2070,1,0,0:0:0:0:
448,192,2159,1,0,0:0:0:0:
320,192,2159,1,0,0:0:0:0:
192,192,2336,1,0,0:0:0:0:
320,192,2425,1,0,0:0:0:0:
192,192,2514,1,0,0:0:0:0:
448,192,2514,1,0,0:0:0:0:
64,192,2514,1,0,0:0:0:0:
64,192,2691,1,0,0:0:0:0:
192,192,2869,1,0,0:0:0:0:
448,192,2869,1,0,0:0:0:0:
192,192,3046,1,0,0:0:0:0:
320,192,3135,1,0,0:0:0:0:
448,192,3224,1,0,0:0:0:0:
64,192,3224,1,0,0:0:0:0:
192,192,3224,1,0,0:0:0:0:
192,192,3401,1,0,0:0:0:0:
448,192,3579,1,0,0:0:0:0:
320,192,3579,1,0,0:0:0:0:
320,192,3756,1,0,0:0:0:0:
192,192,3845,1,0,0:0:0:0:
64,192,3934,1,0,0:0:0:0:
448,192,3934,1,0,0:0:0:0:
320,192,3934,1,0,0:0:0:0:
192,192,4023,1,0,0:0:0:0:
320,192,4111,1,0,0:0:0:0:
192,192,4289,1,0,0:0:0:0:
448,192,4289,1,0,0:0:0:0:
320,192,4466,1,0,0:0:0:0:
64,192,4466,1,0,0:0:0:0:
448,192,4644,1,0,0:0:0:0:
320,192,4821,1,0,0:0:0:0:
64,192,4821,1,0,0:0:0:0:
192,192,4910,1,0,0:0:0:0:
320,192,4999,1,0,0:0:0:0:
64,192,4999,1,0,0:0:0:0:
64,192,6064,1,0,0:0:0:0:
192,192,6064,1,0,0:0:0:0:
448,192,6064,1,0,0:0:0:0:
448,192,6419,1,0,0:0:0:0:
192,192,6419,1,0,0:0:0:0:
320,192,6419,1,0,0:0:0:0:
64,192,6774,1,0,0:0:0:0:
192,192,6774,1,0,0:0:0:0:
448,192,6774,1,0,0:0:0:0:
64,192,6952,1,0,0:0:0:0:
192,192,6952,1,0,0:0:0:0:
448,192,7129,1,0,0:0:0:0:
320,192,7129,1,0,0:0:0:0:
64,192,7129,1,0,0:0:0:0:
64,192,7307,1,0,0:0:0:0:
192,192,7307,1,0,0:0:0:0:
448,192,7484,1,0,0:0:0:0:
320,192,7662,1,0,0:0:0:0:
192,192,7839,1,0,0:0:0:0:
448,192,7839,1,0,0:0:0:0:
64,192,7839,1,0,0:0:0:0:
192,192,8017,1,0,0:0:0:0:
320,192,8105,1,0,0:0:0:0:
448,192,8194,1,0,0:0:0:0:
64,192,8194,1,0,0:0:0:0:
192,192,8194,1,0,0:0:0:0:
64,192,8372,1,0,0:0:0:0:
320,192,8372,1,0,0:0:0:0:
192,192,8549,1,0,0:0:0:0:
448,192,8549,1,0,0:0:0:0:
320,192,8549,1,0,0:0:0:0:
320,192,8727,1,0,0:0:0:0:
448,192,8904,1,0,0:0:0:0:
64,192,8904,1,0,0:0:0:0:
192,192,8904,1,0,0:0:0:0:
320,192,9259,128,0,9348:0:0:0:0:
64,192,9259,1,0,0:0:0:0:
448,192,9259,1,0,0:0:0:0:
320,192,9437,128,0,9526:0:0:0:0:
192,192,9526,1,0,0:0:0:0:
64,192,9614,1,0,0:0:0:0:
448,192,9614,1,0,0:0:0:0:
320,192,9703,1,0,0:0:0:0:
192,192,9792,128,0,9881:0:0:0:0:
64,192,9792,1,0,0:0:0:0:
320,192,9969,1,0,0:0:0:0:
448,192,9969,1,0,0:0:0:0:
64,192,9969,1,0,0:0:0:0:
448,192,10147,128,0,10502:0:0:0:0:
192,192,10147,1,0,0:0:0:0:
64,192,10324,1,0,0:0:0:0:
192,192,10413,1,0,0:0:0:0:
64,192,10502,1,0,0:0:0:0:
320,192,10502,128,0,10591:0:0:0:0:
192,192,10679,128,0,11034:0:0:0:0:
448,192,10679,1,0,0:0:0:0:
64,192,10679,1,0,0:0:0:0:
320,192,11034,1,0,0:0:0:0:
64,192,11034,1,0,0:0:0:0:
448,192,11123,1,0,0:0:0:0:
64,192,11212,1,0,0:0:0:0:
320,192,11212,1,0,0:0:0:0:
192,192,11301,1,0,0:0:0:0:
448,192,11389,1,0,0:0:0:0:
320,192,11389,1,0,0:0:0:0:
64,192,11389,1,0,0:0:0:0:
320,192,11567,1,0,0:0:0:0:
64,192,11567,1,0,0:0:0:0:
64,192,11744,1,0,0:0:0:0:
192,192,11744,1,0,0:0:0:0:
448,192,11744,1,0,0:0:0:0:
448,192,12099,1,0,0:0:0:0:
64,192,12099,1,0,0:0:0:0:
192,192,12099,1,0,0:0:0:0:
320,192,12277,1,0,0:0:0:0:
448,192,12366,1,0,0:0:0:0:
64,192,12455,1,0,0:0:0:0:
192,192,12455,1,0,0:0:0:0:
320,192,12543,1,0,0:0:0:0:
192,192,12632,1,0,0:0:0:0:
64,192,12632,1,0,0:0:0:0:
448,192,12810,1,0,0:0:0:0:
320,192,12810,1,0,0:0:0:0:
192,192,12810,1,0,0:0:0:0:
320,192,12987,1,0,0:0:0:0:
64,192,12987,1,0,0:0:0:0:
448,192,13165,1,0,0:0:0:0:
320,192,13253,1,0,0:0:0:0:
64,192,13342,1,0,0:0:0:0:
192,192,13342,1,0,0:0:0:0:
192,192,13520,1,0,0:0:0:0:
448,192,13520,1,0,0:0:0:0:
320,192,13520,1,0,0:0:0:0:
320,192,13697,1,0,0:0:0:0:
192,192,13786,1,0,0:0:0:0:
64,192,13875,1,0,0:0:0:0:
448,192,13875,1,0,0:0:0:0:
320,192,13963,1,0,0:0:0:0:
64,192,14052,1,0,0:0:0:0:
192,192,14052,1,0,0:0:0:0:
320,192,14230,1,0,0:0:0:0:
448,192,14230,1,0,0:0:0:0:
64,192,14230,1,0,0:0:0:0:
192,192,14407,1,0,0:0:0:0:
448,192,14585,1,0,0:0:0:0:
320,192,14585,1,0,0:0:0:0:
64,192,14585,1,0,0:0:0:0:
192,192,14762,1,0,0:0:0:0:
64,192,14940,128,0,15028:0:0:0:0:
448,192,14940,1,0,0:0:0:0:
320,192,14940,1,0,0:0:0:0:
64,192,15117,128,0,15206:0:0:0:0:
448,192,15295,1,0,0:0:0:0:
320,192,15295,1,0,0:0:0:0:
192,192,15472,128,0,15561:0:0:0:0:
448,192,15472,1,0,0:0:0:0:
320,192,15650,128,0,15739:0:0:0:0:
64,192,15650,1,0,0:0:0:0:
448,192,15827,128,0,16005:0:0:0:0:
192,192,15827,1,0,0:0:0:0:
320,192,16005,1,0,0:0:0:0:
64,192,16005,1,0,0:0:0:0:
192,192,16094,1,0,0:0:0:0:
320,192,16182,128,0,16360:0:0:0:0:
448,192,16271,1,0,0:0:0:0:
192,192,16360,1,0,0:0:0:0:
64,192,16360,1,0,0:0:0:0:
320,192,16449,1,0,0:0:0:0:
192,192,16537,128,0,16715:0:0:0:0:
448,192,16626,1,0,0:0:0:0:
320,192,16715,1,0,0:0:0:0:
64,192,16715,1,0,0:0:0:0:
192,192,16804,1,0,0:0:0:0:
64,192,16892,1,0,0:0:0:0:
320,192,16892,1,0,0:0:0:0:
192,192,16981,1,0,0:0:0:0:
448,192,17070,128,0,17425:0:0:0:0:
64,192,17070,1,0,0:0:0:0:
320,192,17159,1,0,0:0:0:0:
192,192,17247,1,0,0:0:0:0:
320,192,17336,1,0,0:0:0:0:
192,192,17425,1,0,0:0:0:0:
64,192,17425,128,0,17484:0:0:0:0:
320,192,17602,1,0,0:0:0:0:
192,192,17780,1,0,0:0:0:0:
448,192,17780,1,0,0:0:0:0:
320,192,17780,1,0,0:0:0:0:
448,192,17957,1,0,0:0:0:0:
320,192,18135,1,0,0:0:0:0:
64,192,18135,1,0,0:0:0:0:
192,192,18135,1,0,0:0:0:0:
64,192,18312,1,0,0:0:0:0:
320,192,18312,1,0,0:0:0:0:
192,192,18490,1,0,0:0:0:0:
448,192,18490,1,0,0:0:0:0:
320,192,18490,128,0,18549:0:0:0:0:
320,192,18668,1,0,0:0:0:0:
64,192,18668,128,0,18727:0:0:0:0:
448,192,18845,1,0,0:0:0:0:
192,192,19023,1,0,0:0:0:0:
64,192,19023,1,0,0:0:0:0:
448,192,19200,1,0,0:0:0:0:
320,192,19200,1,0,0:0:0:0:
192,192,19200,1,0,0:0:0:0:
320,192,19378,1,0,0:0:0:0:
448,192,19466,1,0,0:0:0:0:
192,192,19555,1,0,0:0:0:0:
64,192,19555,1,0,0:0:0:0:
320,192,19644,1,0,0:0:0:0:
64,192,19733,1,0,0:0:0:0:
192,192,19733,1,0,0:0:0:0:
320,192,19910,1,0,0:0:0:0:
64,192,19910,1,0,0:0:0:0:
448,192,19910,128,0,19969:0:0:0:0:
192,192,20088,128,0,20147:0:0:0:0:
64,192,20265,1,0,0:0:0:0:
448,192,20265,1,0,0:0:0:0:
320,192,20265,1,0,0:0:0:0:
192,192,20443,1,0,0:0:0:0:
448,192,20620,1,0,0:0:0:0:
320,192,20620,1,0,0:0:0:0:
64,192,20620,1,0,0:0:0:0:
192,192,20798,1,0,0:0:0:0:
64,192,20975,1,0,0:0:0:0:
320,192,20975,1,0,0:0:0:0:
448,192,20975,1,0,0:0:0:0:
320,192,21153,1,0,0:0:0:0:
64,192,21153,1,0,0:0:0:0:
448,192,21330,1,0,0:0:0:0:
320,192,21330,1,0,0:0:0:0:
192,192,21330,128,0,21389:0:0:0:0:
320,192,21508,128,0,21567:0:0:0:0:
192,192,21685,1,0,0:0:0:0:
64,192,21685,1,0,0:0:0:0:
448,192,21685,1,0,0:0:0:0:
320,192,21863,1,0,0:0:0:0:
192,192,21952,1,0,0:0:0:0:
64,192,22040,1,0,0:0:0:0:
448,192,22040,1,0,0:0:0:0:
320,192,22040,1,0,0:0:0:0:
320,192,22218,1,0,0:0:0:0:
192,192,22307,1,0,0:0:0:0:
64,192,22395,1,0,0:0:0:0:
448,192,22395,128,0,22455:0:0:0:0:
320,192,22395,1,0,0:0:0:0:
320,192,22573,128,0,22632:0:0:0:0:
448,192,22750,1,0,0:0:0:0:
320,192,22750,1,0,0:0:0:0:
192,192,22750,128,0,22810:0:0:0:0:
64,192,22928,128,0,22987:0:0:0:0:
192,192,23105,1,0,0:0:0:0:
448,192,23105,1,0,0:0:0:0:
320,192,23105,128,0,23165:0:0:0:0:
64,192,23283,1,0,0:0:0:0:
192,192,23460,1,0,0:0:0:0:
448,192,23460,1,0,0:0:0:0:
320,192,23460,1,0,0:0:0:0:
320,192,23638,1,0,0:0:0:0:
192,192,23815,1,0,0:0:0:0:
64,192,23815,1,0,0:0:0:0:
448,192,23815,1,0,0:0:0:0:
64,192,23993,1,0,0:0:0:0:
192,192,23993,1,0,0:0:0:0:
448,192,24170,1,0,0:0:0:0:
192,192,24170,1,0,0:0:0:0:
320,192,24170,128,0,24230:0:0:0:0:
192,192,24348,1,0,0:0:0:0:
64,192,24348,128,0,24407:0:0:0:0:
448,192,24526,1,0,0:0:0:0:
320,192,24703,1,0,0:0:0:0:
64,192,24703,1,0,0:0:0:0:
192,192,24881,1,0,0:0:0:0:
448,192,24881,1,0,0:0:0:0:
320,192,24881,1,0,0:0:0:0:
192,192,25058,1,0,0:0:0:0:
448,192,25147,1,0,0:0:0:0:
192,192,25236,1,0,0:0:0:0:
64,192,25236,1,0,0:0:0:0:
192,192,25413,1,0,0:0:0:0:
64,192,25413,1,0,0:0:0:0:
192,192,25591,1,0,0:0:0:0:
320,192,25591,1,0,0:0:0:0:
448,192,25591,128,0,25650:0:0:0:0:
320,192,25768,128,0,25827:0:0:0:0:
192,192,25946,1,0,0:0:0:0:
448,192,25946,1,0,0:0:0:0:
64,192,25946,1,0,0:0:0:0:
64,192,26123,1,0,0:0:0:0:
448,192,26301,1,0,0:0:0:0:
192,192,26301,1,0,0:0:0:0:
64,192,26301,1,0,0:0:0:0:
320,192,26478,1,0,0:0:0:0:
192,192,26656,1,0,0:0:0:0:
64,192,26656,1,0,0:0:0:0:
448,192,26656,1,0,0:0:0:0:
320,192,26833,1,0,0:0:0:0:
448,192,27011,1,0,0:0:0:0:
320,192,27011,1,0,0:0:0:0:
64,192,27011,128,0,27070:0:0:0:0:
192,192,27188,128,0,27247:0:0:0:0:
64,192,27366,1,0,0:0:0:0:
448,192,27366,1,0,0:0:0:0:
320,192,27366,1,0,0:0:0:0:
448,192,27543,1,0,0:0:0:0:
320,192,27543,1,0,0:0:0:0:
448,192,27721,1,0,0:0:0:0:
320,192,27721,1,0,0:0:0:0:
64,192,27721,1,0,0:0:0:0:
192,192,27898,1,0,0:0:0:0:
448,192,27898,1,0,0:0:0:0:
320,192,27987,1,0,0:0:0:0:
64,192,28076,1,0,0:0:0:0:
448,192,28076,1,0,0:0:0:0:
192,192,28165,1,0,0:0:0:0:
320,192,28253,1,0,0:0:0:0:
64,192,28253,1,0,0:0:0:0:
448,192,28342,1,0,0:0:0:0:
192,192,28431,1,0,0:0:0:0:
64,192,28431,1,0,0:0:0:0:
320,192,28520,1,0,0:0:0:0:
64,192,28608,1,0,0:0:0:0:
448,192,28608,1,0,0:0:0:0:
192,192,28697,1,0,0:0:0:0:
448,192,28786,1,0,0:0:0:0:
64,192,28786,1,0,0:0:0:0:
192,192,28963,1,0,0:0:0:0:
448,192,29141,1,0,0:0:0:0:
192,192,29318,1,0,0:0:0:0:
320,192,29407,1,0,0:0:0:0:
64,192,29496,1,0,0:0:0:0:
64,192,29673,1,0,0:0:0:0:
448,192,29851,1,0,0:0:0:0:
192,192,29851,1,0,0:0:0:0:
320,192,30028,1,0,0:0:0:0:
192,192,30206,1,0,0:0:0:0:
320,192,30384,1,0,0:0:0:0:
192,192,30472,1,0,0:0:0:0:
64,192,30561,1,0,0:0:0:0:
448,192,30561,1,0,0:0:0:0:
192,192,30739,1,0,0:0:0:0:
320,192,30827,1,0,0:0:0:0:
64,192,30916,1,0,0:0:0:0:
64,192,31094,1,0,0:0:0:0:
320,192,31271,1,0,0:0:0:0:
448,192,31271,1,0,0:0:0:0:
192,192,31449,1,0,0:0:0:0:
64,192,31449,1,0,0:0:0:0:
64,192,31626,1,0,0:0:0:0:
192,192,31626,1,0,0:0:0:0:
448,192,31804,1,0,0:0:0:0:
320,192,31892,1,0,0:0:0:0:
192,192,31981,1,0,0:0:0:0:
64,192,31981,1,0,0:0:0:0:
192,192,32159,1,0,0:0:0:0:
320,192,32247,1,0,0:0:0:0:
448,192,32336,1,0,0:0:0:0:
448,192,32514,1,0,0:0:0:0:
192,192,32691,1,0,0:0:0:0:
64,192,32691,1,0,0:0:0:0:
320,192,32869,1,0,0:0:0:0:
448,192,33046,1,0,0:0:0:0:
64,192,33224,1,0,0:0:0:0:
192,192,33312,1,0,0:0:0:0:
320,192,33401,1,0,0:0:0:0:
448,192,33401,1,0,0:0:0:0:
192,192,33579,1,0,0:0:0:0:
320,192,33756,1,0,0:0:0:0:
320,192,33934,1,0,0:0:0:0:
192,192,34111,1,0,0:0:0:0:
448,192,34111,1,0,0:0:0:0:
320,192,34289,1,0,0:0:0:0:
64,192,34289,1,0,0:0:0:0:
64,192,34466,1,0,0:0:0:0:
320,192,34466,1,0,0:0:0:0:
192,192,34644,1,0,0:0:0:0:
448,192,34821,1,0,0:0:0:0:
320,192,34821,1,0,0:0:0:0:
192,192,34999,1,0,0:0:0:0:
320,192,35088,1,0,0:0:0:0:
64,192,35176,1,0,0:0:0:0:
64,192,35354,1,0,0:0:0:0:
320,192,35531,1,0,0:0:0:0:
448,192,35531,1,0,0:0:0:0:
192,192,35709,1,0,0:0:0:0:
320,192,35886,1,0,0:0:0:0:
64,192,35886,1,0,0:0:0:0:
192,192,36064,1,0,0:0:0:0:
320,192,36153,1,0,0:0:0:0:
448,192,36241,1,0,0:0:0:0:
64,192,36241,1,0,0:0:0:0:
192,192,36419,1,0,0:0:0:0:
320,192,36508,1,0,0:0:0:0:
64,192,36597,1,0,0:0:0:0:
64,192,36774,1,0,0:0:0:0:
192,192,36952,1,0,0:0:0:0:
448,192,36952,1,0,0:0:0:0:
320,192,37129,1,0,0:0:0:0:
64,192,37129,1,0,0:0:0:0:
64,192,37307,1,0,0:0:0:0:
320,192,37307,1,0,0:0:0:0:
448,192,37307,1,0,0:0:0:0:
192,192,37484,1,0,0:0:0:0:
448,192,37662,1,0,0:0:0:0:
320,192,37662,1,0,0:0:0:0:
64,192,37662,1,0,0:0:0:0:
320,192,37839,1,0,0:0:0:0:
192,192,37928,1,0,0:0:0:0:
448,192,38017,1,0,0:0:0:0:
64,192,38017,1,0,0:0:0:0:
320,192,38017,1,0,0:0:0:0:
448,192,38194,1,0,0:0:0:0:
64,192,38194,1,0,0:0:0:0:
192,192,38372,1,0,0:0:0:0:
320,192,38372,1,0,0:0:0:0:
64,192,38372,1,0,0:0:0:0:
448,192,38549,1,0,0:0:0:0:
320,192,38727,1,0,0:0:0:0:
64,192,38727,1,0,0:0:0:0:
192,192,38904,1,0,0:0:0:0:
448,192,38904,1,0,0:0:0:0:
192,192,39082,1,0,0:0:0:0:
448,192,39082,1,0,0:0:0:0:
64,192,39082,1,0,0:0:0:0:
320,192,39259,1,0,0:0:0:0:
192,192,39437,1,0,0:0:0:0:
64,192,39437,1,0,0:0:0:0:
448,192,39437,1,0,0:0:0:0:
64,192,39614,1,0,0:0:0:0:
448,192,39614,1,0,0:0:0:0:
320,192,39792,1,0,0:0:0:0:
448,192,39792,1,0,0:0:0:0:
64,192,39792,1,0,0:0:0:0:
192,192,39881,1,0,0:0:0:0:
320,192,39969,1,0,0:0:0:0:
448,192,39969,1,0,0:0:0:0:
320,192,40147,1,0,0:0:0:0:
448,192,40147,1,0,0:0:0:0:
64,192,40147,128,0,42277:0:0:0:0:
192,192,40324,1,0,0:0:0:0:
448,192,40502,1,0,0:0:0:0:
320,192,40679,1,0,0:0:0:0:
448,192,40768,1,0,0:0:0:0:
192,192,40857,1,0,0:0:0:0:
320,192,40946,1,0,0:0:0:0:
448,192,41034,1,0,0:0:0:0:
192,192,41212,1,0,0:0:0:0:
320,192,41389,1,0,0:0:0:0:
192,192,41478,1,0,0:0:0:0:
448,192,41567,1,0,0:0:0:0:
320,192,41744,1,0,0:0:0:0:
448,192,41833,1,0,0:0:0:0:
192,192,41922,1,0,0:0:0:0:
320,192,42099,1,0,0:0:0:0:
192,192,42188,1,0,0:0:0:0:
448,192,42277,128,0,42632:0:0:0:0:
192,192,42455,1,0,0:0:0:0:
320,192,42632,1,0,0:0:0:0:
192,192,42810,1,0,0:0:0:0:
64,192,42810,1,0,0:0:0:0:
448,192,42810,128,0,44407:0:0:0:0:
192,192,42987,1,0,0:0:0:0:
64,192,42987,1,0,0:0:0:0:
192,192,43165,1,0,0:0:0:0:
320,192,43342,1,0,0:0:0:0:
64,192,43520,1,0,0:0:0:0:
192,192,43520,1,0,0:0:0:0:
320,192,43608,1,0,0:0:0:0:
64,192,43697,1,0,0:0:0:0:
320,192,43786,1,0,0:0:0:0:
64,192,43875,1,0,0:0:0:0:
320,192,44052,1,0,0:0:0:0:
192,192,44230,1,0,0:0:0:0:
64,192,44407,128,0,44940:0:0:0:0:
192,192,44585,1,0,0:0:0:0:
320,192,44673,1,0,0:0:0:0:
448,192,44762,1,0,0:0:0:0:
192,192,44762,1,0,0:0:0:0:
448,192,44940,128,0,45472:0:0:0:0:
64,192,45117,1,0,0:0:0:0:
320,192,45206,1,0,0:0:0:0:
64,192,45295,1,0,0:0:0:0:
320,192,45472,1,0,0:0:0:0:
192,192,45650,1,0,0:0:0:0:
64,192,45650,1,0,0:0:0:0:
448,192,45650,1,0,0:0:0:0:
64,192,45827,1,0,0:0:0:0:
192,192,45827,1,0,0:0:0:0:
448,192,45827,1,0,0:0:0:0:
320,192,46005,1,0,0:0:0:0:
448,192,46182,1,0,0:0:0:0:
64,192,46182,1,0,0:0:0:0:
320,192,46360,1,0,0:0:0:0:
192,192,46449,1,0,0:0:0:0:
64,192,46537,1,0,0:0:0:0:
448,192,46626,1,0,0:0:0:0:
192,192,46715,1,0,0:0:0:0:
64,192,46892,1,0,0:0:0:0:
448,192,46892,1,0,0:0:0:0:
192,192,47070,1,0,0:0:0:0:
64,192,47247,1,0,0:0:0:0:
192,192,47425,1,0,0:0:0:0:
320,192,47514,1,0,0:0:0:0:
448,192,47602,1,0,0:0:0:0:
64,192,47602,1,0,0:0:0:0:
192,192,47780,1,0,0:0:0:0:
448,192,47957,1,0,0:0:0:0:
192,192,48135,1,0,0:0:0:0:
320,192,48312,1,0,0:0:0:0:
64,192,48312,1,0,0:0:0:0:
448,192,48490,1,0,0:0:0:0:
64,192,48668,1,0,0:0:0:0:
320,192,48668,1,0,0:0:0:0:
192,192,48668,1,0,0:0:0:0:
320,192,48845,1,0,0:0:0:0:
192,192,49023,1,0,0:0:0:0:
448,192,49023,1,0,0:0:0:0:
64,192,49023,1,0,0:0:0:0:
320,192,49200,1,0,0:0:0:0:
192,192,49378,1,0,0:0:0:0:
64,192,49378,1,0,0:0:0:0:
448,192,49378,1,0,0:0:0:0:
64,192,49555,1,0,0:0:0:0:
192,192,49555,1,0,0:0:0:0:
320,192,49733,1,0,0:0:0:0:
448,192,49733,1,0,0:0:0:0:
64,192,49733,1,0,0:0:0:0:
192,192,49910,1,0,0:0:0:0:
64,192,50088,1,0,0:0:0:0:
448,192,50088,1,0,0:0:0:0:
320,192,50088,1,0,0:0:0:0:
320,192,50265,1,0,0:0:0:0:
192,192,50354,1,0,0:0:0:0:
448,192,50443,1,0,0:0:0:0:
320,192,50443,1,0,0:0:0:0:
64,192,50443,1,0,0:0:0:0:
192,192,50620,1,0,0:0:0:0:
64,192,50798,1,0,0:0:0:0:
320,192,50798,1,0,0:0:0:0:
448,192,50798,1,0,0:0:0:0:
320,192,50975,1,0,0:0:0:0:
64,192,50975,1,0,0:0:0:0:
448,192,50975,1,0,0:0:0:0:
192,192,51153,1,0,0:0:0:0:
448,192,51153,1,0,0:0:0:0:
320,192,51241,1,0,0:0:0:0:
448,192,51330,1,0,0:0:0:0:
64,192,51330,1,0,0:0:0:0:
192,192,51419,1,0,0:0:0:0:
64,192,51508,1,0,0:0:0:0:
448,192,51508,1,0,0:0:0:0:
320,192,51508,1,0,0:0:0:0:
448,192,51863,1,0,0:0:0:0:
320,192,51863,1,0,0:0:0:0:
64,192,51863,1,0,0:0:0:0:
192,192,52040,1,0,0:0:0:0:
448,192,52218,1,0,0:0:0:0:
64,192,52218,1,0,0:0:0:0:
320,192,52218,1,0,0:0:0:0:
64,192,52395,1,0,0:0:0:0:
448,192,52395,1,0,0:0:0:0:
448,192,52573,1,0,0:0:0:0:
320,192,52573,1,0,0:0:0:0:
192,192,52573,1,0,0:0:0:0:
192,192,52750,1,0,0:0:0:0:
64,192,52750,1,0,0:0:0:0:
320,192,52928,1,0,0:0:0:0:
448,192,53017,1,0,0:0:0:0:
192,192,53105,1,0,0:0:0:0:
64,192,53105,1,0,0:0:0:0:
320,192,53283,1,0,0:0:0:0:
448,192,53283,1,0,0:0:0:0:
64,192,53283,1,0,0:0:0:0:
192,192,53460,1,0,0:0:0:0:
320,192,53549,1,0,0:0:0:0:
448,192,53638,1,0,0:0:0:0:
64,192,53638,1,0,0:0:0:0:
192,192,53727,1,0,0:0:0:0:
448,192,53815,1,0,0:0:0:0:
320,192,53815,1,0,0:0:0:0:
320,192,53993,1,0,0:0:0:0:
192,192,53993,1,0,0:0:0:0:
448,192,53993,1,0,0:0:0:0:
192,192,54170,1,0,0:0:0:0:
64,192,54348,1,0,0:0:0:0:
448,192,54348,1,0,0:0:0:0:
320,192,54348,1,0,0:0:0:0:
320,192,54703,1,0,0:0:0:0:
192,192,54703,1,0,0:0:0:0:
448,192,54703,1,0,0:0:0:0:
192,192,54881,1,0,0:0:0:0:
320,192,54969,1,0,0:0:0:0:
64,192,55058,1,0,0:0:0:0:
448,192,55058,1,0,0:0:0:0:
192,192,55147,1,0,0:0:0:0:
448,192,55236,1,0,0:0:0:0:
320,192,55236,1,0,0:0:0:0:
448,192,55413,1,0,0:0:0:0:
192,192,55413,1,0,0:0:0:0:
64,192,55413,1,0,0:0:0:0:
320,192,55591,1,0,0:0:0:0:
64,192,55591,1,0,0:0:0:0:
448,192,55768,1,0,0:0:0:0:
192,192,55857,1,0,0:0:0:0:
320,192,55946,1,0,0:0:0:0:
64,192,55946,1,0,0:0:0:0:
192,192,56123,1,0,0:0:0:0:
448,192,56123,1,0,0:0:0:0:
64,192,56123,1,0,0:0:0:0:
192,192,56301,1,0,0:0:0:0:
320,192,56389,1,0,0:0:0:0:
64,192,56478,1,0,0:0:0:0:
448,192,56478,1,0,0:0:0:0:
192,192,56567,1,0,0:0:0:0:
64,192,56656,1,0,0:0:0:0:
448,192,56656,1,0,0:0:0:0:
448,192,56833,1,0,0:0:0:0:
320,192,56833,1,0,0:0:0:0:
64,192,56833,1,0,0:0:0:0:
192,192,57011,1,0,0:0:0:0:
320,192,57188,1,0,0:0:0:0:
64,192,57188,1,0,0:0:0:0:
448,192,57188,1,0,0:0:0:0:
192,192,57366,1,0,0:0:0:0:
448,192,57543,1,0,0:0:0:0:
320,192,57543,1,0,0:0:0:0:
64,192,57543,1,0,0:0:0:0:
320,192,57721,1,0,0:0:0:0:
192,192,57810,1,0,0:0:0:0:
64,192,57898,1,0,0:0:0:0:
448,192,57898,1,0,0:0:0:0:
320,192,57987,1,0,0:0:0:0:
64,192,58076,1,0,0:0:0:0:
192,192,58076,1,0,0:0:0:0:
320,192,58253,1,0,0:0:0:0:
448,192,58253,1,0,0:0:0:0:
192,192,58253,1,0,0:0:0:0:
64,192,58431,1,0,0:0:0:0:
192,192,58608,1,0,0:0:0:0:
448,192,58608,1,0,0:0:0:0:
64,192,58608,1,0,0:0:0:0:
320,192,58786,1,0,0:0:0:0:
448,192,58963,1,0,0:0:0:0:
64,192,58963,1,0,0:0:0:0:
192,192,58963,1,0,0:0:0:0:
320,192,59141,1,0,0:0:0:0:
192,192,59230,1,0,0:0:0:0:
64,192,59318,1,0,0:0:0:0:
448,192,59318,1,0,0:0:0:0:
320,192,59407,1,0,0:0:0:0:
64,192,59496,1,0,0:0:0:0:
192,192,59496,1,0,0:0:0:0:
320,192,59673,1,0,0:0:0:0:
448,192,59673,1,0,0:0:0:0:
64,192,59673,1,0,0:0:0:0:
192,192,59851,1,0,0:0:0:0:
64,192,60028,1,0,0:0:0:0:
448,192,60028,1,0,0:0:0:0:
320,192,60028,1,0,0:0:0:0:
192,192,60384,1,0,0:0:0:0:
448,192,60384,1,0,0:0:0:0:
320,192,60384,1,0,0:0:0:0:
192,192,60561,1,0,0:0:0:0:
320,192,60739,1,0,0:0:0:0:
64,192,60739,1,0,0:0:0:0:
448,192,60739,1,0,0:0:0:0:
64,192,60916,1,0,0:0:0:0:
320,192,60916,1,0,0:0:0:0:
448,192,61094,1,0,0:0:0:0:
320,192,61094,1,0,0:0:0:0:
192,192,61094,1,0,0:0:0:0:
448,192,61271,1,0,0:0:0:0:
192,192,61271,1,0,0:0:0:0:
64,192,61271,1,0,0:0:0:0:
448,192,61626,1,0,0:0:0:0:
192,192,61626,1,0,0:0:0:0:
64,192,61626,1,0,0:0:0:0:
64,192,61804,1,0,0:0:0:0:
192,192,61804,1,0,0:0:0:0:
448,192,61804,1,0,0:0:0:0:
192,192,61981,1,0,0:0:0:0:
320,192,62070,1,0,0:0:0:0:
448,192,62159,1,0,0:0:0:0:
320,192,62247,1,0,0:0:0:0:
192,192,62336,1,0,0:0:0:0:
64,192,62425,1,0,0:0:0:0:
320,192,62514,1,0,0:0:0:0:
448,192,62514,1,0,0:0:0:0:
192,192,62602,1,0,0:0:0:0:
64,192,62602,1,0,0:0:0:0:
320,192,62691,1,0,0:0:0:0:
448,192,62691,1,0,0:0:0:0:
192,192,62780,1,0,0:0:0:0:
64,192,62780,1,0,0:0:0:0:
448,192,62869,1,0,0:0:0:0:
320,192,62869,1,0,0:0:0:0:
64,192,62869,1,0,0:0:0:0:
320,192,63224,1,0,0:0:0:0:
448,192,63224,1,0,0:0:0:0:
64,192,63224,1,0,0:0:0:0:
192,192,63401,1,0,0:0:0:0:
64,192,63579,1,0,0:0:0:0:
448,192,63579,1,0,0:0:0:0:
192,192,63579,1,0,0:0:0:0:
64,192,63756,1,0,0:0:0:0:
448,192,63756,1,0,0:0:0:0:
448,192,63934,1,0,0:0:0:0:
320,192,63934,1,0,0:0:0:0:
64,192,63934,1,0,0:0:0:0:
192,192,64111,1,0,0:0:0:0:
64,192,64111,1,0,0:0:0:0:
448,192,64289,1,0,0:0:0:0:
64,192,64466,1,0,0:0:0:0:
320,192,64466,1,0,0:0:0:0:
192,192,64644,1,0,0:0:0:0:
448,192,64644,1,0,0:0:0:0:
320,192,64644,1,0,0:0:0:0:
192,192,64821,1,0,0:0:0:0:
320,192,64999,1,0,0:0:0:0:
64,192,64999,1,0,0:0:0:0:
448,192,64999,1,0,0:0:0:0:
192,192,65088,1,0,0:0:0:0:
64,192,65176,1,0,0:0:0:0:
320,192,65176,1,0,0:0:0:0:
192,192,65354,1,0,0:0:0:0:
448,192,65354,1,0,0:0:0:0:
320,192,65354,1,0,0:0:0:0:
64,192,65531,1,0,0:0:0:0:
192,192,65709,1,0,0:0:0:0:
320,192,65709,1,0,0:0:0:0:
448,192,65709,1,0,0:0:0:0:
64,192,66064,1,0,0:0:0:0:
320,192,66064,1,0,0:0:0:0:
448,192,66064,128,0,66153:0:0:0:0:
448,192,66241,128,0,66330:0:0:0:0:
320,192,66419,1,0,0:0:0:0:
192,192,66419,1,0,0:0:0:0:
64,192,66419,1,0,0:0:0:0:
192,192,66597,1,0,0:0:0:0:
320,192,66597,128,0,66685:0:0:0:0:
448,192,66774,1,0,0:0:0:0:
64,192,66774,1,0,0:0:0:0:
192,192,66774,1,0,0:0:0:0:
64,192,66952,1,0,0:0:0:0:
192,192,66952,128,0,67307:0:0:0:0:
320,192,67307,1,0,0:0:0:0:
448,192,67307,128,0,67395:0:0:0:0:
64,192,67484,1,0,0:0:0:0:
192,192,67484,128,0,67839:0:0:0:0:
320,192,67662,1,0,0:0:0:0:
448,192,67662,1,0,0:0:0:0:
64,192,67839,1,0,0:0:0:0:
320,192,67839,1,0,0:0:0:0:
448,192,67839,1,0,0:0:0:0:
64,192,68017,1,0,0:0:0:0:
320,192,68017,1,0,0:0:0:0:
192,192,68194,1,0,0:0:0:0:
448,192,68194,1,0,0:0:0:0:
320,192,68194,1,0,0:0:0:0:
320,192,68372,1,0,0:0:0:0:
64,192,68372,1,0,0:0:0:0:
192,192,68549,1,0,0:0:0:0:
64,192,68549,1,0,0:0:0:0:
448,192,68549,1,0,0:0:0:0:
320,192,68727,1,0,0:0:0:0:
320,192,68904,1,0,0:0:0:0:
448,192,68904,1,0,0:0:0:0:
64,192,68904,1,0,0:0:0:0:
192,192,69082,1,0,0:0:0:0:
320,192,69170,1,0,0:0:0:0:
448,192,69259,1,0,0:0:0:0:
64,192,69259,1,0,0:0:0:0:
192,192,69348,1,0,0:0:0:0:
320,192,69437,1,0,0:0:0:0:
448,192,69437,1,0,0:0:0:0:
448,192,69614,1,0,0:0:0:0:
64,192,69614,1,0,0:0:0:0:
320,192,69614,1,0,0:0:0:0:
448,192,69792,1,0,0:0:0:0:
192,192,69792,1,0,0:0:0:0:
64,192,69792,1,0,0:0:0:0:
320,192,70147,1,0,0:0:0:0:
192,192,70147,1,0,0:0:0:0:
448,192,70324,1,0,0:0:0:0:
64,192,70324,1,0,0:0:0:0:
192,192,70324,1,0,0:0:0:0:
64,192,70502,1,0,0:0:0:0:
448,192,70591,1,0,0:0:0:0:
64,192,70679,1,0,0:0:0:0:
320,192,70679,1,0,0:0:0:0:
192,192,70768,1,0,0:0:0:0:
64,192,70857,1,0,0:0:0:0:
448,192,70857,1,0,0:0:0:0:
448,192,71034,1,0,0:0:0:0:
320,192,71034,1,0,0:0:0:0:
64,192,71034,1,0,0:0:0:0:
192,192,71212,1,0,0:0:0:0:
64,192,71389,1,0,0:0:0:0:
320,192,71389,128,0,71567:0:0:0:0:
192,192,71389,1,0,0:0:0:0:
448,192,71744,1,0,0:0:0:0:
64,192,71744,1,0,0:0:0:0:
320,192,71744,128,0,72099:0:0:0:0:
192,192,72099,1,0,0:0:0:0:
64,192,72099,128,0,72188:0:0:0:0:
448,192,72099,1,0,0:0:0:0:
64,192,72277,1,0,0:0:0:0:
192,192,72277,128,0,72366:0:0:0:0:
448,192,72455,1,0,0:0:0:0:
320,192,72455,128,0,72543:0:0:0:0:
192,192,72455,1,0,0:0:0:0:
192,192,72632,1,0,0:0:0:0:
64,192,72632,1,0,0:0:0:0:
448,192,72632,128,0,72987:0:0:0:0:
320,192,72987,128,0,73165:0:0:0:0:
64,192,72987,1,0,0:0:0:0:
192,192,73165,1,0,0:0:0:0:
448,192,73165,1,0,0:0:0:0:
64,192,73342,1,0,0:0:0:0:
192,192,73342,128,0,73520:0:0:0:0:
448,192,73520,1,0,0:0:0:0:
320,192,73697,1,0,0:0:0:0:
192,192,73697,1,0,0:0:0:0:
64,192,73697,128,0,73786:0:0:0:0:
64,192,73875,128,0,74230:0:0:0:0:
448,192,73875,1,0,0:0:0:0:
320,192,74052,1,0,0:0:0:0:
192,192,74052,1,0,0:0:0:0:
192,192,74230,1,0,0:0:0:0:
320,192,74230,1,0,0:0:0:0:
448,192,74230,1,0,0:0:0:0:
320,192,74585,1,0,0:0:0:0:
448,192,74585,1,0,0:0:0:0:
64,192,74585,1,0,0:0:0:0:
192,192,74762,1,0,0:0:0:0:
320,192,74940,1,0,0:0:0:0:
64,192,74940,1,0,0:0:0:0:
192,192,74940,1,0,0:0:0:0:
64,192,75117,1,0,0:0:0:0:
320,192,75117,1,0,0:0:0:0:
448,192,75295,1,0,0:0:0:0:
320,192,75295,1,0,0:0:0:0:
192,192,75295,1,0,0:0:0:0:
192,192,75472,1,0,0:0:0:0:
64,192,75472,1,0,0:0:0:0:
320,192,75650,1,0,0:0:0:0:
192,192,75827,1,0,0:0:0:0:
64,192,75827,1,0,0:0:0:0:
320,192,76005,1,0,0:0:0:0:
448,192,76005,1,0,0:0:0:0:
64,192,76005,1,0,0:0:0:0:
192,192,76182,1,0,0:0:0:0:
320,192,76271,1,0,0:0:0:0:
64,192,76360,1,0,0:0:0:0:
448,192,76360,1,0,0:0:0:0:
192,192,76449,1,0,0:0:0:0:
320,192,76537,1,0,0:0:0:0:
64,192,76537,1,0,0:0:0:0:
192,192,76715,1,0,0:0:0:0:
448,192,76715,1,0,0:0:0:0:
64,192,76715,1,0,0:0:0:0:
320,192,76892,1,0,0:0:0:0:
64,192,77070,1,0,0:0:0:0:
192,192,77070,1,0,0:0:0:0:
448,192,77070,1,0,0:0:0:0:
320,192,77247,1,0,0:0:0:0:
64,192,77425,1,0,0:0:0:0:
448,192,77425,128,0,77514:0:0:0:0:
192,192,77425,1,0,0:0:0:0:
448,192,77602,128,0,77691:0:0:0:0:
64,192,77780,1,0,0:0:0:0:
320,192,77780,128,0,77869:0:0:0:0:
192,192,77780,1,0,0:0:0:0:
64,192,77957,1,0,0:0:0:0:
192,192,77957,128,0,78046:0:0:0:0:
448,192,78135,1,0,0:0:0:0:
320,192,78135,1,0,0:0:0:0:
64,192,78312,128,0,78668:0:0:0:0:
192,192,78312,1,0,0:0:0:0:
448,192,78668,128,0,78756:0:0:0:0:
192,192,78668,1,0,0:0:0:0:
448,192,78845,128,0,79200:0:0:0:0:
320,192,78845,1,0,0:0:0:0:
192,192,78845,1,0,0:0:0:0:
192,192,79023,1,0,0:0:0:0:
64,192,79023,1,0,0:0:0:0:
192,192,79200,1,0,0:0:0:0:
64,192,79200,1,0,0:0:0:0:
320,192,79200,1,0,0:0:0:0:
192,192,79378,1,0,0:0:0:0:
320,192,79378,1,0,0:0:0:0:
448,192,79555,1,0,0:0:0:0:
320,192,79555,1,0,0:0:0:0:
64,192,79555,1,0,0:0:0:0:
192,192,79733,1,0,0:0:0:0:
448,192,79910,1,0,0:0:0:0:
320,192,79910,1,0,0:0:0:0:
64,192,79910,1,0,0:0:0:0:
192,192,80088,1,0,0:0:0:0:
448,192,80265,1,0,0:0:0:0:
320,192,80265,1,0,0:0:0:0:
192,192,80265,1,0,0:0:0:0:
448,192,80443,1,0,0:0:0:0:
192,192,80531,1,0,0:0:0:0:
64,192,80620,1,0,0:0:0:0:
448,192,80620,1,0,0:0:0:0:
320,192,80709,1,0,0:0:0:0:
192,192,80798,1,0,0:0:0:0:
64,192,80798,1,0,0:0:0:0:
320,192,80975,1,0,0:0:0:0:
448,192,80975,1,0,0:0:0:0:
192,192,80975,1,0,0:0:0:0:
448,192,81153,1,0,0:0:0:0:
192,192,81153,1,0,0:0:0:0:
64,192,81153,1,0,0:0:0:0:
192,192,81508,1,0,0:0:0:0:
64,192,81508,1,0,0:0:0:0:
320,192,81685,1,0,0:0:0:0:
448,192,81685,1,0,0:0:0:0:
64,192,81685,1,0,0:0:0:0:
320,192,81863,1,0,0:0:0:0:
192,192,81952,1,0,0:0:0:0:
448,192,82040,1,0,0:0:0:0:
64,192,82040,1,0,0:0:0:0:
320,192,82129,1,0,0:0:0:0:
64,192,82218,1,0,0:0:0:0:
192,192,82218,1,0,0:0:0:0:
192,192,82395,1,0,0:0:0:0:
320,192,82395,1,0,0:0:0:0:
64,192,82395,1,0,0:0:0:0:
192,192,82573,1,0,0:0:0:0:
320,192,82750,1,0,0:0:0:0:
448,192,82750,1,0,0:0:0:0:
64,192,82750,1,0,0:0:0:0:
192,192,83105,1,0,0:0:0:0:
320,192,83105,1,0,0:0:0:0:
448,192,83105,1,0,0:0:0:0:
64,192,83460,1,0,0:0:0:0:
192,192,83460,1,0,0:0:0:0:
448,192,83460,1,0,0:0:0:0:
192,192,83638,1,0,0:0:0:0:
64,192,83638,1,0,0:0:0:0:
448,192,83815,1,0,0:0:0:0:
320,192,83815,1,0,0:0:0:0:
192,192,83815,1,0,0:0:0:0:
64,192,83993,1,0,0:0:0:0:
448,192,83993,1,0,0:0:0:0:
192,192,83993,1,0,0:0:0:0:
320,192,83993,1,0,0:0:0:0:
192,192,84348,1,0,0:0:0:0:
64,192,84348,1,0,0:0:0:0:
320,192,84526,1,0,0:0:0:0:
448,192,84526,1,0,0:0:0:0:
64,192,84526,1,0,0:0:0:0:
192,192,84703,1,0,0:0:0:0:
64,192,84703,1,0,0:0:0:0:
320,192,84881,1,0,0:0:0:0:
448,192,85058,1,0,0:0:0:0:
64,192,85058,1,0,0:0:0:0:
192,192,85058,1,0,0:0:0:0:
320,192,85058,1,0,0:0:0:0:
320,192,85236,1,0,0:0:0:0:
64,192,85236,1,0,0:0:0:0:
192,192,85413,1,0,0:0:0:0:
320,192,85591,1,0,0:0:0:0:
64,192,85591,1,0,0:0:0:0:
448,192,85591,1,0,0:0:0:0:
448,192,85946,1,0,0:0:0:0:
320,192,85946,1,0,0:0:0:0:
192,192,85946,1,0,0:0:0:0:
64,192,86123,1,0,0:0:0:0:
64,192,86301,1,0,0:0:0:0:
320,192,86301,1,0,0:0:0:0:
192,192,86301,1,0,0:0:0:0:
192,192,86478,1,0,0:0:0:0:
320,192,86478,1,0,0:0:0:0:
448,192,86656,1,0,0:0:0:0:
192,192,86656,1,0,0:0:0:0:
64,192,86656,1,0,0:0:0:0:
320,192,86833,1,0,0:0:0:0:
192,192,87011,1,0,0:0:0:0:
64,192,87011,1,0,0:0:0:0:
320,192,87188,1,0,0:0:0:0:
448,192,87366,1,0,0:0:0:0:
64,192,87366,1,0,0:0:0:0:
320,192,87366,1,0,0:0:0:0:
192,192,87543,1,0,0:0:0:0:
448,192,87721,1,0,0:0:0:0:
320,192,87721,1,0,0:0:0:0:
64,192,87721,1,0,0:0:0:0:
64,192,87898,1,0,0:0:0:0:
320,192,87898,1,0,0:0:0:0:
448,192,87898,1,0,0:0:0:0:
448,192,88431,1,0,0:0:0:0:
320,192,88431,1,0,0:0:0:0:
192,192,88431,1,0,0:0:0:0:
64,192,88431,1,0,0:0:0:0:
