osu file format v14

[General]
AudioFilename: audio.mp3
AudioLeadIn: 0
PreviewTime: 42420
Countdown: 0
SampleSet: Soft
StackLeniency: 0.4
Mode: 0
LetterboxInBreaks: 0
WidescreenStoryboard: 0

[Editor]
DistanceSpacing: 1.2
BeatDivisor: 4
GridSize: 4
TimelineZoom: 1.2

[Metadata]
Title:INNOCENCE
TitleUnicode:INNOCENCE
Artist:20th Century
ArtistUnicode:20th Century
Creator:Modem
Version:Insane
Source:アイシールド21
Tags:V6 TV Size opening 2 Eyeshield 21 Sena Kobayakawa Yoichi Hiruma Taro Raimon Monta Natsuhiko Taki amefuto american football riichiro inagaki yusuke murata
BeatmapID:989955
BeatmapSetID:462240

[Difficulty]
HPDrainRate:5
CircleSize:4
OverallDifficulty:7
ApproachRate:8
SliderMultiplier:1.7
SliderTickRate:1

[Events]
//Background and Video events
0,0,"bg.jpg",0,0
Video,1087,"Innocence Video.avi"
//Break Periods
//Storyboard Layer 0 (Background)
//Storyboard Layer 1 (Fail)
//Storyboard Layer 2 (Pass)
//Storyboard Layer 3 (Foreground)
//Storyboard Sound Samples

[TimingPoints]
1450,447.761194029851,4,2,1,55,1,0
1450,-125,4,2,1,55,0,0
1673,-125,4,2,1,35,0,0
5032,-111.111111111111,4,2,1,55,0,0
8166,-111.111111111111,4,2,1,45,0,0
8390,-111.111111111111,4,2,1,55,0,0
8614,-100,4,2,1,60,0,0
8838,-100,4,2,1,35,0,0
9285,-100,4,2,1,60,0,0
10405,-125,4,2,1,35,0,0
23390,-125,4,2,1,65,0,0
24733,-111.111111111111,4,2,1,50,0,0
42644,-100,4,2,1,65,0,0
43091,-100,4,2,1,45,0,0
43763,-100,4,2,1,65,0,0
45330,-125,4,2,1,65,0,0
46226,-83.3333333333333,4,2,1,65,0,1
46450,-83.3333333333333,4,2,1,85,0,1
56748,-83.3333333333333,4,2,1,55,0,1
56972,-83.3333333333333,4,2,1,85,0,1
58987,-83.3333333333333,4,2,1,75,0,1
60106,-83.3333333333333,4,2,1,85,0,1
60330,-83.3333333333333,4,2,1,85,0,0
60554,-83.3333333333333,4,2,1,65,0,1
60778,-83.3333333333333,4,2,1,85,0,1
63241,-83.3333333333333,4,2,1,45,0,1
63688,-83.3333333333333,4,2,1,85,0,1
72867,-83.3333333333333,4,2,1,85,0,0
73091,-83.3333333333333,4,2,1,85,0,1
78464,-83.3333333333333,4,2,1,85,0,0
78688,-76.9230769230769,4,2,1,85,0,0
78800,-76.9230769230769,4,2,1,5,0,0
78912,-71.4285714285714,4,2,1,85,0,0
79360,-66.6666666666667,4,2,1,85,0,0
79808,-62.5,4,2,1,85,0,0
80144,-62.5,4,2,1,5,0,0
80255,-62.5,4,2,1,15,0,0
80367,-62.5,4,2,1,5,0,0

[Colours]
Combo1 : 213,234,255
Combo2 : 1,190,67
Combo3 : 182,33,33
Combo4 : 255,255,128
Combo5 : 151,203,255
Combo6 : 0,255,128
SliderBorder : 250,215,90

[HitObjects]
168,80,1450,6,0,L|164:172,1,68,4|0,0:3|0:0,0:0:0:0:
104,260,1897,1,4,0:0:0:0:
116,280,2345,2,0,L|204:288,1,68,2|2,0:0|0:0,0:0:0:0:
272,252,2793,1,4,0:0:0:0:
244,160,3017,1,0,0:0:0:0:
183,286,3241,6,0,B|201:264|201:264|211:310|253:334|297:318,1,136,2|4,0:3|0:0,0:0:0:0:
344,224,3912,1,2,0:3:0:0:
244,160,4136,2,0,P|200:152|156:172,1,68,2|2,0:0|0:0,0:0:0:0:
96,284,4584,2,0,L|88:200,1,68,4|0,0:0|0:0,0:0:0:0:
206,246,5032,5,2,0:0:0:0:
184,352,5255,1,0,0:0:0:0:
220,232,5479,1,8,0:0:0:0:
96,284,5703,1,0,0:0:0:0:
232,220,5927,2,0,L|324:224,1,76.4999976654053,2|0,0:0|0:0,0:0:0:0:
420,260,6375,2,0,P|413:220|440:156,1,76.4999976654053,8|0,0:0|0:0,0:0:0:0:
464,116,6711,1,0,0:0:0:0:
464,116,6823,6,0,L|387:112,1,76.4999976654053,2|0,0:0|0:0,0:0:0:0:
276,92,7270,1,2,0:0:0:0:
236,176,7494,1,0,0:0:0:0:
196,48,7718,1,2,0:0:0:0:
220,192,7942,1,2,0:0:0:0:
276,92,8166,1,4,0:0:0:0:
152,128,8390,1,2,0:0:0:0:
312,24,8614,6,0,P|344:56|344:128,1,85,2|4,0:0|0:0,0:0:0:0:
400,200,9061,2,0,P|426:159|486:148,1,85,4|2,0:0|0:1,0:0:0:0:
412,274,9509,1,2,0:0:0:0:
480,244,9845,1,8,0:0:0:0:
488,268,9957,2,0,L|484:372,1,85,8|0,0:0|0:0,0:0:0:0:
340,302,10405,6,0,P|352:226|427:200,1,136,2|4,0:1|0:0,0:0:0:0:
456,124,11076,1,0,0:0:0:0:
368,80,11300,2,0,L|371:12,1,68,2|2,0:0|0:0,0:0:0:0:
399,199,11748,1,4,0:0:0:0:
464,108,11972,1,0,0:0:0:0:
460,240,12196,6,0,P|412:272|332:229,1,136,2|4,0:0|0:0,0:0:0:0:
288,168,12867,1,0,0:0:0:0:
272,76,13091,2,0,L|344:88,1,68,2|2,0:0|0:0,0:0:0:0:
234,222,13539,2,0,P|216:193|214:158,1,68,4|0,0:0|0:0,0:0:0:0:
284,326,13987,6,0,B|292:294|280:282|280:282|252:302|220:303|185:290|175:264,1,136,2|4,0:3|0:0,0:0:0:0:
128,216,14658,1,0,0:0:0:0:
57,279,14882,2,0,P|58:321|89:367,1,68,2|2,0:0|0:0,0:0:0:0:
108,200,15330,2,0,L|100:128,1,68,4|0,0:0|0:0,0:0:0:0:
64,104,15666,1,0,0:0:0:0:
64,104,15778,6,0,B|112:136|164:104|164:104|172:148,2,136,2|4|2,0:3|0:0|0:0,0:0:0:0:
112,20,16897,1,0,0:0:0:0:
140,24,17009,1,0,0:0:0:0:
169,28,17121,2,0,P|219:49|238:85,1,68,4|0,0:0|0:0,0:0:0:0:
320,152,17569,6,0,B|309:49|309:49|328:64|360:64,2,136,2|4|2,0:1|0:0|0:0,0:0:0:0:
412,124,18688,1,2,0:0:0:0:
424,220,18912,1,4,0:0:0:0:
500,160,19136,1,0,0:0:0:0:
404,236,19360,6,0,L|413:335,1,68,2|0,0:0|0:0,0:0:0:0:
320,276,19808,1,4,0:0:0:0:
300,184,20032,1,0,0:0:0:0:
236,312,20255,2,0,L|229:244,2,68,2|2|4,0:0|0:0|0:0,0:0:0:0:
144,280,20927,1,0,0:0:0:0:
300,184,21151,6,0,B|288:204|288:204|246:154|202:175|177:188|170:208,1,136,2|4,0:0|0:0,0:0:0:0:
128,264,21823,1,0,0:0:0:0:
44,216,22047,2,0,L|36:132,1,68,2|2,0:0|0:0,0:0:0:0:
88,68,22494,1,4,0:0:0:0:
248,48,22718,1,0,0:0:0:0:
248,48,22830,1,0,0:0:0:0:
248,48,22942,6,0,L|168:52,1,68,2|2,0:0|0:0,0:0:0:0:
284,136,23390,2,0,L|352:140,1,68,8|0,0:0|0:0,0:0:0:0:
312,228,23838,1,2,0:0:0:0:
280,256,23950,1,8,0:0:0:0:
240,268,24061,1,8,0:0:0:0:
196,256,24173,1,8,0:0:0:0:
164,228,24285,5,2,0:0:0:0:
156,244,24397,1,8,0:0:0:0:
148,260,24509,1,2,0:0:0:0:
140,276,24621,1,2,0:0:0:0:
112,316,24733,6,0,L|100:148,1,152.999995330811,2|4,0:1|0:0,0:0:0:0:
48,68,25405,1,0,0:0:0:0:
4,164,25629,2,0,L|11:255,1,76.4999976654053,2|2,0:0|0:0,0:0:0:0:
56,84,26076,1,4,0:0:0:0:
101,163,26300,1,0,0:0:0:0:
159,260,26524,6,0,B|167:248|167:248|159:236|159:236|167:224|167:224|159:212|159:212|181:188|182:152|175:122|142:106,1,152.999995330811,2|4,0:0|0:0,0:0:0:0:
164,123,27420,2,0,P|201:115|253:131,1,76.4999976654053,2|8,0:0|0:3,0:0:0:0:
328,224,27867,2,0,P|291:232|239:216,1,76.4999976654053,4|2,0:0|0:0,0:0:0:0:
392,136,28315,6,0,B|372:164|372:164|401:185|404:212|413:244|380:276,1,152.999995330811,2|4,0:0|0:0,0:0:0:0:
292,316,28987,1,0,0:0:0:0:
292,316,29211,2,0,L|200:308,1,76.4999976654053,2|2,0:0|0:0,0:0:0:0:
120,360,29658,1,4,0:0:0:0:
120,360,29882,1,0,0:0:0:0:
39,231,30106,6,0,P|39:167|97:196,1,152.999995330811,2|2,0:3|0:0,0:0:0:0:
97,196,31002,1,2,0:0:0:0:
156,108,31226,1,8,0:3:0:0:
212,280,31450,1,4,0:0:0:0:
172,120,31673,1,2,0:0:0:0:
105,271,31897,6,0,L|97:196,1,76.4999976654053,2|0,0:1|0:0,0:0:0:0:
188,132,32345,2,0,L|179:56,1,76.4999976654053,4|0,0:0|0:0,0:0:0:0:
296,147,32793,2,0,L|287:223,1,76.4999976654053,2|8,0:0|0:3,0:0:0:0:
388,156,33241,1,4,0:0:0:0:
348,64,33464,1,0,0:0:0:0:
287,223,33688,6,0,B|282:264|282:264|362:266|362:266|357:307,1,152.999995330811,2|4,0:0|0:0,0:0:0:0:
358,297,34584,2,0,P|396:308|452:294,1,76.4999976654053,2|8,0:0|0:3,0:0:0:0:
404,200,35032,2,0,P|428:170|432:128,1,76.4999976654053,4|0,0:0|0:0,0:0:0:0:
284,224,35479,5,2,0:1:0:0:
284,224,35703,2,0,L|196:228,1,76.4999976654053,0|4,0:0|0:0,0:0:0:0:
108,268,36151,1,0,0:0:0:0:
48,180,36375,1,2,0:0:0:0:
96,288,36599,1,2,0:0:0:0:
152,112,36823,1,4,0:0:0:0:
48,180,37047,1,0,0:0:0:0:
84,308,37270,6,0,P|123:318|184:296,1,76.4999976654053,2|0,0:1|0:0,0:0:0:0:
300,226,37718,2,0,L|224:224,1,76.4999976654053,4|8,0:0|0:3,0:0:0:0:
116,212,38166,1,2,0:0:0:0:
158,311,38390,1,2,0:0:0:0:
248,120,38614,1,4,0:0:0:0:
224,224,38838,1,2,0:0:0:0:
132,96,39061,6,0,B|168:80|170:37|170:37|216:56|264:16,1,152.999995330811,2|4,0:1|0:0,0:0:0:0:
352,32,39733,1,8,0:3:0:0:
352,32,39957,2,0,L|436:36,1,76.4999976654053,2|2,0:0|0:0,0:0:0:0:
380,196,40405,2,0,P|376:148|392:108,1,76.4999976654053,4|0,0:0|0:0,0:0:0:0:
292,304,40852,6,0,P|296:256|280:216,1,76.4999976654053,2|0,0:0|0:0,0:0:0:0:
212,124,41300,1,4,0:0:0:0:
288,104,41524,1,0,0:0:0:0:
212,204,41748,1,2,0:0:0:0:
172,56,41972,1,8,0:3:0:0:
160,264,42196,1,4,0:0:0:0:
144,284,42644,6,0,B|208:284|208:284|220:300|220:300|272:292|297:331,2,170,2|4|4,0:1|0:0|0:0,0:0:0:0:
32,268,43763,1,0,0:0:0:0:
72,152,43987,1,2,0:0:0:0:
68,340,44211,1,0,0:0:0:0:
108,224,44435,1,2,0:0:0:0:
56,360,44658,1,2,0:1:0:0:
36,80,44882,5,2,0:1:0:0:
36,80,45330,2,0,B|68:64|68:64|156:80,1,102,0|8,0:0|0:0,0:0:0:0:
164,104,45778,2,0,P|192:64|252:52,1,102,8|0,0:0|0:0,0:0:0:0:
241,50,46226,6,0,L|248:184,1,101.999996887207,4|0,0:3|0:0,0:0:0:0:
252,204,46561,1,2,0:0:0:0:
252,204,46673,2,0,P|312:216|376:196,1,101.999996887207,8|0,0:0|0:0,0:0:0:0:
436,152,47121,1,2,0:0:0:0:
388,60,47345,1,0,0:0:0:0:
484,28,47569,1,8,0:0:0:0:
444,176,47793,1,2,0:0:0:0:
376,312,48017,6,0,B|352:295|352:295|386:291|386:291|375:261|379:245|387:225|400:208|419:211,1,152.999995330811,2|2,0:0|0:0,0:0:0:0:
444,176,48464,2,0,P|456:128|424:56,1,101.999996887207,8|0,0:0|0:0,0:0:0:0:
296,24,48912,1,2,0:0:0:0:
280,44,49360,2,0,B|236:68|236:68|168:64,1,101.999996887207,8|2,0:0|0:0,0:0:0:0:
91,192,49808,6,0,B|84:171|112:161|112:161|127:174|137:175|148:182|175:180|175:180|184:199|183:213|165:224,1,152.999995330811,2|2,0:3|0:0,0:0:0:0:
140,260,50255,2,0,P|128:304|152:384,1,101.999996887207,8|0,0:0|0:0,0:0:0:0:
244,244,50703,2,0,P|252:186|232:136,1,101.999996887207,2|0,0:0|0:0,0:0:0:0:
168,68,51151,1,8,0:0:0:0:
144,144,51375,1,2,0:0:0:0:
240,100,51599,5,2,0:0:0:0:
124,220,51823,1,2,0:0:0:0:
100,28,52047,1,8,0:0:0:0:
108,236,52270,1,2,0:0:0:0:
92,252,52382,1,8,0:0:0:0:
76,268,52494,5,2,0:0:0:0:
96,316,52606,1,8,0:0:0:0:
136,344,52718,1,2,0:0:0:0:
188,344,52830,1,0,0:0:0:0:
236,324,52942,1,8,0:0:0:0:
264,204,53166,1,2,0:0:0:0:
224,72,53390,6,0,B|240:104|292:104|292:104|271:130|271:130|323:136|342:178|342:209|326:230,1,203.999993774414,2|8,0:1|0:0,0:0:0:0:
360,308,54061,1,0,0:0:0:0:
241,294,54285,2,0,B|232:244|232:244|264:204,1,101.999996887207,2|0,0:0|0:0,0:0:0:0:
344,328,54733,1,8,0:0:0:0:
444,256,54957,1,2,0:0:0:0:
444,256,55181,6,0,P|432:188|452:144,1,101.999996887207,2|0,0:0|0:0,0:0:0:0:
464,112,55517,1,2,0:0:0:0:
464,112,55629,2,0,L|332:108,1,101.999996887207,8|0,0:0|0:0,0:0:0:0:
272,156,56076,2,0,P|284:92|260:48,1,101.999996887207,2|0,0:0|0:0,0:0:0:0:
172,184,56524,1,8,0:0:0:0:
176,208,56636,1,8,0:0:0:0:
180,232,56748,1,2,0:0:0:0:
184,256,56860,1,2,0:0:0:0:
220,292,56972,6,0,B|228:332|228:332|144:308|104:384,1,152.999995330811,2|8,0:1|0:0,0:0:0:0:
76,376,57420,1,2,0:0:0:0:
76,376,57644,2,0,B|52:328|52:328|80:336|80:336|44:264|100:208,1,203.999993774414,2|2,0:1|0:0,0:0:0:0:
172,164,58315,1,2,0:0:0:0:
172,164,58539,2,0,P|128:76|112:148,1,203.999993774414,2|8,0:1|0:0,0:0:0:0:
87,222,59211,5,8,0:0:0:0:
136,312,59435,1,8,0:0:0:0:
228,268,59658,2,0,L|236:328,2,50.9999984436036,2|0|2,0:3|0:0|0:0,0:0:0:0:
308,204,60106,2,0,L|314:153,2,50.9999984436036,2|0|2,0:0|0:0|0:0,0:0:0:0:
324,252,60442,1,8,0:0:0:0:
324,252,60554,6,0,P|372:244|432:268,1,101.999996887207,4|0,0:3|0:0,0:0:0:0:
460,296,60890,1,2,0:0:0:0:
460,296,61002,2,0,B|448:252|448:252|452:244|452:244|436:176,1,101.999996887207,8|0,0:0|0:0,0:0:0:0:
399,104,61450,2,0,P|439:92|499:112,1,101.999996887207,2|0,0:0|0:0,0:0:0:0:
344,184,61897,1,8,0:0:0:0:
304,92,62121,1,2,0:0:0:0:
230,243,62345,6,0,B|229:224|247:200|247:200|224:192|200:206|200:206|224:184|224:152,1,152.999995330811,2|2,0:0|0:0,0:0:0:0:
200,116,62793,2,0,B|192:100|192:100|224:20,1,101.999996887207,8|0,0:0|0:0,0:0:0:0:
304,92,63241,1,2,0:0:0:0:
304,92,63352,1,0,0:0:0:0:
304,92,63464,1,2,0:0:0:0:
376,168,63688,2,0,P|392:216|369:280,1,101.999996887207,8|2,0:0|0:0,0:0:0:0:
188,224,64136,6,0,L|304:216,1,101.999996887207,2|0,0:3|0:0,0:0:0:0:
300,268,64472,1,2,0:0:0:0:
300,268,64584,2,0,P|317:317|382:342,1,101.999996887207,8|0,0:0|0:0,0:0:0:0:
352,156,65032,1,2,0:0:0:0:
280,84,65255,1,0,0:0:0:0:
364,180,65479,1,8,0:0:0:0:
216,128,65703,1,2,0:0:0:0:
376,204,65927,6,0,B|372:224|396:248|432:212|400:165|400:165|468:132|424:96|412:108|400:120|396:136,1,203.999993774414,2|8,0:3|0:0,0:0:0:0:
288,168,66599,1,2,0:0:0:0:
284,192,66711,1,8,0:0:0:0:
280,216,66823,1,2,0:0:0:0:
232,236,66935,1,8,0:0:0:0:
228,260,67047,1,2,0:0:0:0:
224,284,67159,1,8,0:0:0:0:
188,316,67270,1,2,0:0:0:0:
72,276,67494,1,2,0:0:0:0:
117,57,67718,6,0,B|113:89|113:89|125:117|125:117|117:173,1,101.999996887207,2|0,0:1|0:0,0:0:0:0:
73,177,68054,1,2,0:0:0:0:
73,177,68166,2,0,P|61:221|101:313,1,101.999996887207,8|0,0:0|0:0,0:0:0:0:
200,168,68614,2,0,B|212:84|212:84|180:76,1,101.999996887207,2|2,0:0|0:0,0:0:0:0:
119,155,69061,1,8,0:0:0:0:
144,252,69285,1,2,0:0:0:0:
176,348,69509,6,0,B|256:340|256:340|244:384,1,101.999996887207,2|0,0:0|0:0,0:0:0:0:
276,308,69845,1,2,0:0:0:0:
276,308,69957,2,0,P|333:317|385:293,1,101.999996887207,8|0,0:0|0:0,0:0:0:0:
468,264,70405,1,2,0:0:0:0:
332,208,70629,1,0,0:0:0:0:
428,172,70852,1,8,0:0:0:0:
373,301,71076,1,2,0:0:0:0:
344,136,71300,6,0,P|284:152|260:200,1,101.999996887207,2|0,0:0|0:0,0:0:0:0:
232,252,71636,1,2,0:0:0:0:
232,252,71748,2,0,L|112:244,1,101.999996887207,8|0,0:0|0:0,0:0:0:0:
32,356,72196,1,2,0:0:0:0:
48,372,72644,1,8,0:0:0:0:
12,232,72867,1,2,0:0:0:0:
132,128,73091,6,0,P|192:140|240:120,1,101.999996887207,2|0,0:1|0:0,0:0:0:0:
280,72,73427,1,2,0:0:0:0:
280,72,73539,2,0,P|340:80|388:64,1,101.999996887207,8|0,0:0|0:0,0:0:0:0:
500,48,73987,2,0,L|492:172,1,101.999996887207,2|0,0:0|0:0,0:0:0:0:
404,232,74435,1,8,0:0:0:0:
404,232,74658,1,2,0:0:0:0:
296,172,74882,5,2,0:1:0:0:
228,276,75106,1,8,0:0:0:0:
204,268,75218,1,2,0:0:0:0:
180,260,75330,5,2,0:0:0:0:
216,224,75442,1,8,0:0:0:0:
220,164,75554,1,2,0:0:0:0:
196,120,75666,1,2,0:0:0:0:
156,92,75778,5,8,0:0:0:0:
104,100,75890,1,2,0:0:0:0:
68,132,76002,1,2,0:0:0:0:
56,180,76114,1,0,0:0:0:0:
72,228,76226,5,2,0:0:0:0:
44,348,76450,1,2,0:0:0:0:
176,361,76673,6,0,L|180:260,1,101.999996887207,2|0,0:1|0:0,0:0:0:0:
264,264,77009,1,2,0:0:0:0:
264,264,77121,2,0,P|328:272|376:244,1,101.999996887207,8|0,0:0|0:0,0:0:0:0:
304,148,77569,1,2,0:0:0:0:
220,56,77793,1,2,0:0:0:0:
128,136,78017,2,0,B|106:151|106:151|144:224|82:239|102:275|130:307,1,152.999995330811,8|0,0:0|0:0,0:0:0:0:
124,324,78464,5,2,0:0:0:0:
240,296,78688,2,0,L|252:236,1,55.2499974708558,2|0,0:0|0:0,0:0:0:0:
248,196,78912,6,0,P|232:136|292:192,1,178.499994552612,2|8,0:0|0:0,0:0:0:0:
353,178,79360,6,0,B|361:162|378:137|378:137|368:78|289:36,1,127.500004863739,2|8,0:0|0:0,0:0:0:0:
204,104,79808,6,0,B|176:80|176:80|164:92|164:92|152:80|152:80|140:92|140:92|128:80|128:80|80:108|27:72,1,204,2|0,0:0|0:0,0:0:0:0:
84,16,80255,5,2,0:3:0:0:
256,192,80367,12,0,83838,1:0:0:0:
