osu file format v14

[General]
AudioFilename: audio.mp3
AudioLeadIn: 0
PreviewTime: 42420
Countdown: 0
SampleSet: Soft
StackLeniency: 0.4
Mode: 0
LetterboxInBreaks: 0
WidescreenStoryboard: 0

[Editor]
DistanceSpacing: 1.4
BeatDivisor: 4
GridSize: 4
TimelineZoom: 1.2

[Metadata]
Title:INNOCENCE
TitleUnicode:INNOCENCE
Artist:20th Century
ArtistUnicode:20th Century
Creator:Modem
Version:Hard
Source:アイシールド21
Tags:V6 TV Size opening 2 Eyeshield 21 Sena Kobayakawa Yoichi Hiruma Taro Raimon Monta Natsuhiko Taki amefuto american football riichiro inagaki yusuke murata
BeatmapID:989954
BeatmapSetID:462240

[Difficulty]
HPDrainRate:4
CircleSize:4
OverallDifficulty:6.5
ApproachRate:7.5
SliderMultiplier:1.4
SliderTickRate:1

[Events]
//Background and Video events
0,0,"bg.jpg",0,0
Video,1087,"Innocence Video.avi"
//Break Periods
//Storyboard Layer 0 (Background)
//Storyboard Layer 1 (Fail)
//Storyboard Layer 2 (Pass)
//Storyboard Layer 3 (Foreground)
//Storyboard Sound Samples

[TimingPoints]
1450,447.761194029851,4,2,1,55,1,0
1450,-125,4,2,1,55,0,0
1897,-125,4,2,1,35,0,0
5032,-111.111111111111,4,2,1,55,0,0
8166,-111.111111111111,4,2,1,45,0,0
8614,-111.111111111111,4,2,1,60,0,0
8838,-111.111111111111,4,2,1,35,0,0
9285,-111.111111111111,4,2,1,60,0,0
10293,-111.111111111111,4,2,1,5,0,0
10405,-125,4,2,1,35,0,0
23390,-125,4,2,1,65,0,0
23838,-100,4,2,1,55,0,0
24733,-111.111111111111,4,2,1,50,0,0
42644,-100,4,2,1,65,0,0
43091,-100,4,2,1,45,0,0
45330,-125,4,2,1,65,0,0
46226,-83.3333333333333,4,2,1,65,0,1
46673,-83.3333333333333,4,2,1,85,0,1
59211,-83.3333333333333,4,2,1,65,0,1
59658,-83.3333333333333,4,2,1,85,0,1
60330,-83.3333333333333,4,2,1,85,0,0
60554,-83.3333333333333,4,2,1,65,0,1
60890,-83.3333333333333,4,2,1,85,0,1
63241,-83.3333333333333,4,2,1,45,0,1
63688,-83.3333333333333,4,2,1,85,0,1
72867,-83.3333333333333,4,2,1,85,0,0
73091,-83.3333333333333,4,2,1,85,0,1
78352,-83.3333333333333,4,2,1,5,0,1
78464,-83.3333333333333,4,2,1,85,0,0
80255,-83.3333333333333,4,2,1,5,0,0

[Colours]
Combo1 : 213,234,255
Combo2 : 1,190,67
Combo3 : 182,33,33
Combo4 : 255,255,128
Combo5 : 151,203,255
Combo6 : 0,255,128
SliderBorder : 250,215,90

[HitObjects]
96,316,1450,6,0,P|84:256|104:192,1,112,4|4,0:3|0:0,0:0:0:0:
232,132,2345,2,0,L|228:68,1,56,2|2,0:0|0:0,0:0:0:0:
328,36,2793,1,4,0:0:0:0:
340,56,3241,2,0,B|392:60|392:60|400:56|400:56|456:60,1,112,2|4,0:3|0:0,0:0:0:0:
444,136,3912,2,0,B|412:134|412:134|424:232,1,112,2|2,0:3|0:0,0:0:0:0:
364,312,4584,1,4,0:0:0:0:
344,328,5032,6,0,P|296:320|248:336,1,94.499997116089,2|2,0:0|0:0,0:0:0:0:
216,356,5479,2,0,P|216:304|160:256,1,125.999996154785,8|2,0:0|0:0,0:0:0:0:
92,152,6375,2,0,L|120:108,3,31.4999990386963,8|0|0|0,0:0|0:0|0:0|0:0,0:0:0:0:
136,96,6823,2,0,B|152:72|152:72|204:100|268:56,1,125.999996154785,2|2,0:0|0:0,0:0:0:0:
416,28,7718,2,0,P|424:80|416:116,2,62.9999980773926,2|2|4,0:0|0:0|0:0,0:0:0:0:
332,184,8614,5,2,0:0:0:0:
244,168,8838,1,4,0:0:0:0:
192,240,9061,1,4,0:0:0:0:
228,148,9285,1,2,0:1:0:0:
164,76,9509,2,0,B|132:84|132:84|52:64,1,94.499997116089,2|8,0:0|0:0,0:0:0:0:
32,56,9957,2,0,P|40:112|20:172,1,94.499997116089,8|0,0:0|0:0,0:0:0:0:
4,176,10405,6,0,P|-8:224|12:304,1,112,2|4,0:1|0:0,0:0:0:0:
60,340,11076,1,0,0:0:0:0:
136,320,11300,2,0,L|208:328,1,56,2|2,0:0|0:0,0:0:0:0:
264,300,11748,1,4,0:0:0:0:
228,232,11972,1,0,0:0:0:0:
163,156,12196,6,0,B|179:180|179:180|215:149|263:168,1,112,2|4,0:0|0:0,0:0:0:0:
332,188,12867,1,0,0:0:0:0:
384,132,13091,2,0,L|388:56,1,56,2|2,0:0|0:0,0:0:0:0:
360,4,13539,1,4,0:0:0:0:
360,4,13763,1,0,0:0:0:0:
464,72,13987,6,0,L|456:192,1,112,2|4,0:3|0:0,0:0:0:0:
436,260,14658,1,0,0:0:0:0:
360,272,14882,2,0,P|360:238|384:205,1,56,2|2,0:0|0:0,0:0:0:0:
436,260,15330,2,0,P|470:260|503:284,1,56,4|0,0:0|0:0,0:0:0:0:
448,336,15778,6,0,P|426:362|387:372,1,56,2|0,0:3|0:0,0:0:0:0:
332,344,16226,1,4,0:0:0:0:
256,368,16450,2,0,B|168:364|168:364|188:336,1,112,0|0,0:0|0:0,0:0:0:0:
236,288,17121,2,0,L|240:208,1,56,4|0,0:0|0:0,0:0:0:0:
275,151,17569,6,0,B|231:186|231:186|180:164,1,112,2|4,0:1|0:0,0:0:0:0:
180,164,18464,2,0,L|184:84,1,56,2|2,0:0|0:0,0:0:0:0:
252,72,18912,1,4,0:0:0:0:
328,96,19136,1,0,0:0:0:0:
391,142,19360,6,0,P|405:84|363:26,1,112,2|4,0:0|0:0,0:0:0:0:
328,96,20032,1,0,0:0:0:0:
320,172,20255,1,2,0:0:0:0:
244,192,20479,2,0,L|248:272,2,56,2|4|0,0:0|0:0|0:0,0:0:0:0:
182,277,21151,6,0,P|224:316|292:302,1,112,2|4,0:0|0:0,0:0:0:0:
420,248,22047,2,0,L|422:192,1,56,2|2,0:0|0:0,0:0:0:0:
380,124,22494,1,4,0:0:0:0:
240,52,22942,2,0,B|225:74|225:74|197:66|197:66|169:74|169:74|145:42,1,112,2|8,0:0|0:0,0:0:0:0:
200,216,23838,6,0,L|235:206,3,35,2|8|8|8,0:0|0:0|0:0|0:0,0:0:0:0:
275,205,24285,2,0,L|308:214,3,35,2|8|2|2,0:0|0:0|0:0|0:0,0:0:0:0:
349,218,24733,6,0,B|369:158|369:158|289:133,1,125.999996154785,2|4,0:1|0:0,0:0:0:0:
264,72,25405,1,0,0:0:0:0:
344,68,25629,2,0,L|432:94,1,62.9999980773926,2|2,0:0|0:0,0:0:0:0:
464,144,26076,1,4,0:0:0:0:
440,220,26300,1,0,0:0:0:0:
360,280,26524,6,0,B|376:264|376:264|359:241|357:196|372:168|406:157,1,125.999996154785,2|4,0:0|0:0,0:0:0:0:
384,168,27420,2,0,L|311:163,1,62.9999980773926,2|8,0:0|0:3,0:0:0:0:
260,216,27867,1,4,0:0:0:0:
188,176,28091,1,2,0:0:0:0:
268,236,28315,6,0,L|260:372,1,125.999996154785,2|4,0:0|0:0,0:0:0:0:
180,372,28987,1,0,0:0:0:0:
115,319,29211,2,0,B|111:287|111:287|114:257,1,62.9999980773926,2|2,0:0|0:0,0:0:0:0:
40,228,29658,1,4,0:0:0:0:
40,228,29882,1,0,0:0:0:0:
106,133,30106,6,0,B|119:171|119:171|114:257,1,125.999996154785,2|2,0:3|0:0,0:0:0:0:
114,256,31002,1,2,0:0:0:0:
128,276,31450,1,4,0:0:0:0:
144,296,31897,2,0,P|208:286|277:299,1,125.999996154785,2|4,0:1|0:0,0:0:0:0:
348,304,32569,2,0,B|340:288|340:288|344:160,1,125.999996154785,0|8,0:0|0:3,0:0:0:0:
412,132,33241,1,4,0:0:0:0:
420,212,33464,1,0,0:0:0:0:
273,199,33688,6,0,P|283:138|346:108,1,125.999996154785,2|4,0:0|0:0,0:0:0:0:
336,108,34584,1,2,0:0:0:0:
324,84,35032,1,4,0:0:0:0:
312,60,35479,2,0,B|276:60|252:40|252:40|224:77|184:76,1,125.999996154785,2|4,0:1|0:0,0:0:0:0:
136,120,36151,1,0,0:0:0:0:
164,196,36375,2,0,L|168:280,2,62.9999980773926,2|2|4,0:0|0:0|0:0,0:0:0:0:
164,196,37270,6,0,B|256:192|256:192|258:241,1,125.999996154785,2|4,0:1|0:0,0:0:0:0:
300,296,37942,1,8,0:3:0:0:
344,228,38166,2,0,L|340:140,1,62.9999980773926,2|2,0:0|0:0,0:0:0:0:
426,101,38614,2,0,L|423:163,1,62.9999980773926,4|2,0:0|0:0,0:0:0:0:
271,173,39061,6,0,P|291:116|353:96,1,125.999996154785,2|4,0:1|0:0,0:0:0:0:
426,101,39733,1,8,0:3:0:0:
492,144,39957,2,0,L|489:206,1,62.9999980773926,2|2,0:0|0:0,0:0:0:0:
420,252,40405,1,4,0:0:0:0:
440,332,40629,1,0,0:0:0:0:
364,356,40852,6,0,L|292:348,1,62.9999980773926,2|0,0:0|0:0,0:0:0:0:
256,280,41300,2,0,L|193:286,1,62.9999980773926,4|0,0:0|0:0,0:0:0:0:
136,228,41748,2,0,L|80:264,1,62.9999980773926,2|8,0:0|0:3,0:0:0:0:
8,376,42196,1,4,0:0:0:0:
8,376,42644,6,0,B|17:325|17:325|-12:291|-11:244|12:220,1,140,2|4,0:1|0:0,0:0:0:0:
100,108,43539,2,0,P|160:116|216:48,1,140,4|2,0:0|0:0,0:0:0:0:
292,40,44211,2,0,B|352:44|352:44|360:40|360:40|452:48,1,140,2|2,0:0|0:1,0:0:0:0:
384,160,44882,1,2,0:1:0:0:
368,180,45330,6,0,P|360:228|376:284,1,84,0|8,0:0|0:0,0:0:0:0:
380,292,45778,2,0,B|352:288|352:288|276:312,1,84,8|0,0:0|0:0,0:0:0:0:
268,324,46226,6,0,P|288:256|208:184,1,167.999994873047,4|8,0:3|0:0,0:0:0:0:
205,268,46897,1,0,0:0:0:0:
124,248,47121,2,0,B|108:200|108:200|120:80,1,167.999994873047,2|8,0:0|0:0,0:0:0:0:
176,20,47793,1,2,0:0:0:0:
244,68,48017,6,0,B|240:111|240:111|280:100|324:120|324:120|332:72,1,167.999994873047,2|8,0:0|0:0,0:0:0:0:
384,16,48688,1,0,0:0:0:0:
420,92,48912,2,0,B|406:177|406:177|436:212|428:249|416:280,1,167.999994873047,2|8,0:0|0:0,0:0:0:0:
341,235,49584,1,2,0:0:0:0:
286,171,49808,6,0,P|257:229|314:316,1,167.999994873047,2|8,0:3|0:0,0:0:0:0:
341,235,50479,1,0,0:0:0:0:
360,152,50703,2,0,P|338:115|274:97,1,83.9999974365235,2|0,0:0|0:0,0:0:0:0:
220,120,51151,1,8,0:0:0:0:
140,92,51375,1,2,0:0:0:0:
76,144,51599,6,0,L|72:236,1,83.9999974365235,2|2,0:0|0:0,0:0:0:0:
132,288,52047,1,8,0:0:0:0:
132,288,52270,1,2,0:0:0:0:
216,300,52494,2,0,L|284:292,4,41.9999987182618,2|8|2|0|8,0:0|0:0|0:0|0:0|0:0,0:0:0:0:
164,368,53166,1,2,0:0:0:0:
204,224,53390,6,0,B|269:216|269:216|323:235|344:274|332:300|327:316,1,167.999994873047,2|8,0:1|0:0,0:0:0:0:
384,356,54061,1,0,0:0:0:0:
427,283,54285,2,0,P|427:255|403:203,1,83.9999974365235,2|0,0:0|0:0,0:0:0:0:
344,144,54733,1,8,0:0:0:0:
388,72,54957,1,2,0:0:0:0:
388,72,55181,6,0,B|368:36|368:36|352:56|352:56|284:52|256:124,2,167.999994873047,2|8|2,0:0|0:0|0:0,0:0:0:0:
344,144,56300,1,0,0:0:0:0:
272,184,56524,2,0,L|276:280,1,83.9999974365235,8|2,0:0|0:0,0:0:0:0:
192,348,56972,6,0,L|188:212,1,125.999996154785,2|8,0:1|0:0,0:0:0:0:
184,180,57420,1,2,0:0:0:0:
100,192,57644,2,0,P|115:132|217:102,1,167.999994873047,2|2,0:1|0:0,0:0:0:0:
288,120,58315,1,2,0:0:0:0:
384,168,58539,6,0,B|360:192|336:176|336:176|368:148|376:92|336:56|316:52,1,167.999994873047,2|8,0:1|0:0,0:0:0:0:
272,24,59211,2,0,L|180:32,1,83.9999974365235,8|8,0:0|0:0,0:0:0:0:
116,76,59658,1,2,0:3:0:0:
156,152,59882,1,2,0:0:0:0:
84,196,60106,2,0,L|88:288,1,83.9999974365235,2|2,0:0|0:0,0:0:0:0:
72,320,60442,1,8,0:0:0:0:
72,320,60554,6,0,P|128:312|188:352,1,125.999996154785,4|2,0:3|0:0,0:0:0:0:
224,360,61002,2,0,B|220:332|243:309|243:309|222:275|180:255|180:255|208:256|224:232,1,167.999994873047,8|2,0:0|0:0,0:0:0:0:
268,192,61673,1,0,0:0:0:0:
208,136,61897,2,0,P|200:84|220:40,1,83.9999974365235,8|2,0:0|0:0,0:0:0:0:
289,27,62345,6,0,P|337:43|425:23,1,125.999996154785,2|2,0:0|0:0,0:0:0:0:
445,55,62793,2,0,P|455:95|446:135,1,83.9999974365235,8|0,0:0|0:0,0:0:0:0:
400,208,63241,1,2,0:0:0:0:
400,208,63352,1,0,0:0:0:0:
400,208,63464,1,2,0:0:0:0:
316,192,63688,2,0,L|192:196,1,83.9999974365235,8|2,0:0|0:0,0:0:0:0:
172,256,64136,6,0,B|144:228|141:196|144:160|164:144|176:128|176:128|152:132|132:120|132:120,1,167.999994873047,2|8,0:3|0:0,0:0:0:0:
72,100,64808,1,0,0:0:0:0:
68,184,65032,2,0,P|70:233|92:284,1,83.9999974365235,2|0,0:0|0:0,0:0:0:0:
136,328,65479,2,0,L|228:332,1,83.9999974365235,8|2,0:0|0:0,0:0:0:0:
296,292,65927,6,0,B|324:280|324:280|296:260|296:260|369:236|356:148,1,167.999994873047,2|8,0:3|0:0,0:0:0:0:
274,176,66599,1,2,0:0:0:0:
228,104,66823,2,0,L|224:48,4,41.9999987182618,2|8|2|8|2,0:0|0:0|0:0|0:0|0:0,0:0:0:0:
274,176,67494,1,2,0:0:0:0:
357,185,67718,6,0,B|369:213|369:213|389:185|389:185|413:258|501:245,1,167.999994873047,2|8,0:1|0:0,0:0:0:0:
472,162,68390,1,0,0:0:0:0:
480,148,68502,1,0,0:0:0:0:
488,132,68614,2,0,L|484:40,1,83.9999974365235,2|2,0:0|0:0,0:0:0:0:
404,24,69061,1,8,0:0:0:0:
348,84,69285,1,2,0:0:0:0:
348,84,69509,6,0,P|300:144|260:80,1,167.999994873047,2|8,0:0|0:0,0:0:0:0:
257,89,70405,2,0,P|200:96|159:80,1,83.9999974365235,2|0,0:0|0:0,0:0:0:0:
116,32,70852,2,0,L|16:40,1,83.9999974365235,8|2,0:0|0:0,0:0:0:0:
44,124,71300,2,0,B|95:121|95:121|48:172|92:248,1,167.999994873047,2|8,0:0|0:0,0:0:0:0:
82,229,72196,1,2,0:0:0:0:
148,284,72420,1,0,0:0:0:0:
212,232,72644,2,0,L|300:240,1,83.9999974365235,8|2,0:0|0:0,0:0:0:0:
364,292,73091,6,0,P|336:248|376:152,1,125.999996154785,2|2,0:1|0:0,0:0:0:0:
384,160,73539,2,0,L|388:40,1,83.9999974365235,8|0,0:0|0:0,0:0:0:0:
316,32,73987,1,2,0:0:0:0:
244,76,74211,1,0,0:0:0:0:
168,40,74435,1,8,0:0:0:0:
168,40,74658,1,2,0:0:0:0:
96,84,74882,5,2,0:1:0:0:
100,168,75106,1,8,0:0:0:0:
100,168,75218,1,2,0:0:0:0:
100,168,75330,2,0,P|96:200|100:224,3,41.9999987182618,2|8|2|2,0:0|0:0|0:0|0:0,0:0:0:0:
132,232,75778,2,0,P|136:263|147:285,3,41.9999987182618,8|2|2|0,0:0|0:0|0:0|0:0,0:0:0:0:
168,304,76226,2,0,L|270:335,1,83.9999974365235,2|2,0:0|0:0,0:0:0:0:
321,368,76673,6,0,P|330:322|254:245,1,125.999996154785,2|2,0:1|0:0,0:0:0:0:
257,231,77121,2,0,P|220:181|241:71,1,167.999994873047,8|2,0:0|0:0,0:0:0:0:
305,39,77793,1,2,0:0:0:0:
381,79,78017,2,0,P|399:158|365:215,1,125.999996154785,8|0,0:0|0:0,0:0:0:0:
357,231,78464,5,2,0:0:0:0:
370,313,78688,1,2,0:0:0:0:
296,348,78912,2,0,P|232:332|192:260,1,125.999996154785,2|8,0:0|0:0,0:0:0:0:
192,244,79360,2,0,P|152:256|92:240,1,83.9999974365235,2|8,0:0|0:0,0:0:0:0:
28,236,79808,1,2,0:0:0:0:
256,192,80255,12,0,83838,1:0:0:0:
