osu file format v14

[General]
AudioFilename: audio.mp3
AudioLeadIn: 0
PreviewTime: 42492
Countdown: 0
SampleSet: Soft
StackLeniency: 0.5
Mode: 0
LetterboxInBreaks: 0
WidescreenStoryboard: 1

[Editor]
Bookmarks: 14179,19859,31220,65303,76664,76708,76886,77019,77152,77329,77463,77596,77773,77906,78040,78217,78350,78483,78661,78838,78971,79105,79238,79460,79593,79770,79903,80081,80214,80436,80569,80747,80880,81013,81190,81368,81501,88025,105066
DistanceSpacing: 1
BeatDivisor: 4
GridSize: 32
TimelineZoom: 1.8

[Metadata]
Title:Princess Douka Onegai!!
TitleUnicode:Princessどうかお願い!!
Artist:20-moji to Iu Jisuu Seigen ni Idomi Tsuzukeru Kabochi
ArtistUnicode:20文字と言う字数制限に挑み続けるかぼち
Creator:Ascended
Version:alevi's EXHAUST
Source:SOUND VOLTEX III GRAVITY WARS
Tags:alevi -ascended- -_ascended_- Kabocha Kabotyasan かぼちゃ croaknotrue japanese jp pop rock jpop jrock videogame video game sdvx soundvoltex 3 gravitywars Tsumabuki Left 嬬武器烈風刀 Tsumabuki Refuto male vocalist vocals Princess please!!
BeatmapID:3955997
BeatmapSetID:1907079

[Difficulty]
HPDrainRate:4.5
CircleSize:3.8
OverallDifficulty:8
ApproachRate:8.8
SliderMultiplier:1.7
SliderTickRate:1

[Events]
//Background and Video events
0,0,"yassification of tsumabuki left.jpg",0,0
//Break Periods
2,76864,81005
//Storyboard Layer 0 (Background)
//Storyboard Layer 1 (Fail)
//Storyboard Layer 2 (Pass)
//Storyboard Layer 3 (Foreground)
//Storyboard Layer 4 (Overlay)
//Storyboard Sound Samples

[TimingPoints]
1398,355.029585798817,4,2,1,35,1,0
2285,-100,4,2,1,40,0,0
2818,-111.111111111111,4,2,1,55,0,0
19859,-125,4,2,1,55,0,0
31220,-166.666666666667,4,2,1,45,0,0
41871,-166.666666666667,4,2,1,25,0,0
42581,-83.3333333333333,4,2,1,70,0,1
42936,-100,4,2,1,70,0,1
53942,-83.3333333333333,4,2,1,70,0,1
54297,-100,4,2,1,70,0,1
65303,-100,4,2,1,65,0,0
76309,-100,4,2,1,55,0,0
76664,-100,4,2,1,45,0,0
81634,-100,4,2,1,60,0,0
82167,-100,4,2,1,50,0,0
85184,-142.857142857143,4,2,1,55,0,0
86605,-100,4,2,1,55,0,0
88025,-100,4,2,1,70,0,1
93705,-83.3333333333333,4,2,1,70,0,1
94060,-100,4,2,1,70,0,1
105066,-111.111111111111,4,2,1,65,0,0

[Colours]
Combo1 : 255,128,192
Combo2 : 21,234,207

[HitObjects]
203,88,2818,5,6,3:2:0:0:
151,150,2995,2,0,P|110:154|76:172,1,76.4999976654053,0|10,3:3|2:2,0:0:0:0:
187,8,3350,2,0,P|255:20|284:93,1,152.999995330811,2|0,3:2|3:3,0:0:0:0:
388,227,3883,2,0,P|365:194|358:158,1,76.4999976654053,8|2,2:2|3:2,0:0:0:0:
214,202,4238,5,2,2:2:0:0:
261,265,4415,1,2,3:2:0:0:
200,317,4593,1,10,2:2:0:0:
354,371,4770,2,0,P|290:344|197:333,1,152.999995330811,2|2,3:2|3:2,0:0:0:0:
49,231,5303,2,0,P|21:200|32:156,1,76.4999976654053,10|2,2:2|3:2,0:0:0:0:
117,280,5658,5,2,3:2:0:0:
39,324,5835,2,0,P|72:304|121:298,1,76.4999976654053,0|10,3:3|2:2,0:0:0:0:
251,193,6190,2,0,B|262:106|308:149|317:54,1,152.999995330811,2|2,3:2|3:2,0:0:0:0:
199,0,6723,2,0,P|202:37|236:58,1,76.4999976654053,10|2,2:2|3:2,0:0:0:0:
385,159,7078,5,2,2:2:0:0:
454,126,7255,1,2,3:2:0:0:
495,196,7433,1,10,2:2:0:0:
441,299,7611,2,0,P|425:264|423:226,1,76.4999976654053,2|0,3:2|0:0,0:0:0:0:
423,226,7966,1,2,3:2:0:0:
292,114,8143,1,10,2:2:0:0:
223,152,8321,1,10,2:2:0:0:
306,261,8498,5,2,3:2:0:0:
216,165,8676,2,0,B|177:176|177:176|174:182|174:182|134:196,1,76.4999976654053,0|10,3:3|2:2,0:0:0:0:
11,46,9031,2,0,P|86:53|116:125,1,152.999995330811,2|0,3:2|3:3,0:0:0:0:
40,263,9563,2,0,P|21:298|16:343,1,76.4999976654053,8|2,2:2|3:2,0:0:0:0:
0,193,9918,5,2,2:2:0:0:
75,180,10096,1,2,3:2:0:0:
120,243,10273,1,10,2:2:0:0:
230,170,10451,2,0,B|315:152|258:108|362:98,1,152.999995330811,2|2,3:2|3:2,0:0:0:0:
183,16,10983,2,0,P|204:46|211:94,1,76.4999976654053,10|2,2:2|3:2,0:0:0:0:
377,237,11338,5,2,3:2:0:0:
306,279,11516,2,0,P|270:261|227:255,1,76.4999976654053,0|10,3:3|2:2,0:0:0:0:
412,157,11871,2,0,P|473:194|451:272,1,152.999995330811,2|0,3:2|3:3,0:0:0:0:
421,383,12403,2,0,P|391:359|395:312,1,76.4999976654053,8|2,2:2|3:2,0:0:0:0:
288,128,12758,5,2,2:2:0:0:
223,180,12936,1,2,3:2:0:0:
276,243,13113,1,10,2:2:0:0:
128,299,13291,2,0,P|191:267|275:260,1,152.999995330811,2|0,3:2|3:2,0:0:0:0:
138,197,13824,2,0,P|94:188|65:151,1,76.4999976654053,8|0,2:2|3:3,0:0:0:0:
10,376,14179,5,4,3:2:0:0:
10,376,14534,2,0,P|26:340|31:297,1,76.4999976654053,10|0,2:2|3:3,0:0:0:0:
138,197,14889,1,2,2:2:0:0:
205,160,15066,2,0,P|235:186|227:232,1,76.4999976654053,2|8,3:2|2:2,0:0:0:0:
72,149,15421,2,0,B|64:66|12:100|1:10,1,152.999995330811,2|0,3:2|3:3,0:0:0:0:
141,104,15954,1,8,2:2:0:0:
0,185,16131,2,0,P|75:200|143:250,1,152.999995330811,2|2,3:2|3:2,0:0:0:0:
264,343,16664,2,0,P|302:336|327:304,2,76.4999976654053,10|2|0,2:2|3:2|3:3,0:0:0:0:
190,382,17196,5,0,3:3:0:0:
229,194,17374,2,0,P|249:228|257:277,1,76.4999976654053,10|0,2:2|3:3,0:0:0:0:
448,337,17729,1,2,2:2:0:0:
392,384,17906,2,0,P|365:356|372:321,1,76.4999976654053,2|8,3:2|2:2,0:0:0:0:
474,207,18261,2,0,P|463:244|430:255,1,76.4999976654053,2|0,3:2|3:3,0:0:0:0:
313,124,18616,2,0,P|297:81|294:43,1,76.4999976654053,2|8,3:2|2:2,0:0:0:0:
505,125,18971,6,0,P|435:134|367:189,1,152.999995330811,2|10,3:2|2:2,0:0:0:0:
235,314,19504,1,10,2:2:0:0:
235,314,19593,1,8,2:2:0:0:
235,314,19682,1,10,2:2:0:0:
272,242,19859,5,6,3:2:0:0:
58,344,20214,1,10,2:2:0:0:
33,265,20392,2,0,P|94:269|137:341,1,136,2|0,3:2|3:3,0:0:0:0:
294,384,20924,2,0,P|327:367|366:361,1,68,8|2,2:2|3:2,0:0:0:0:
433,297,21279,6,0,P|399:290|369:274,1,68,2|2,2:2|3:2,0:0:0:0:
238,155,21634,1,10,2:2:0:0:
174,198,21812,2,0,P|121:161|140:90,1,136,2|2,3:2|3:2,0:0:0:0:
297,22,22344,1,10,2:2:0:0:
234,77,22522,1,2,3:2:0:0:
145,6,22699,5,2,3:2:0:0:
358,182,23054,1,10,2:2:0:0:
382,108,23232,2,0,P|316:114|279:168,1,136,2|0,3:2|3:3,0:0:0:0:
162,281,23764,1,8,2:2:0:0:
224,340,23942,6,0,B|297:324|272:373|367:362,1,136,2|2,3:2|3:2,0:0:0:0:
243,254,24474,1,10,2:2:0:0:
108,384,24652,2,0,P|103:342|82:300,1,68,2|0,3:2|0:0,0:0:0:0:
27,276,25007,1,2,3:2:0:0:
196,145,25184,2,0,P|184:176|181:210,1,68,10|2,2:2|3:2,0:0:0:0:
12,163,25540,5,2,3:2:0:0:
36,86,25717,2,0,P|47:54|50:20,1,68,0|10,3:3|2:2,0:0:0:0:
197,51,26072,2,0,B|208:66|246:64|246:64|263:87|263:87|298:89|319:103,1,136,0|2,3:3|3:2,0:0:0:0:
420,0,26605,2,0,P|388:8|365:46,1,68,10|2,2:2|3:2,0:0:0:0:
347,175,26960,5,2,2:2:0:0:
492,122,27137,2,0,P|475:93|433:80,1,68,2|10,3:2|2:2,0:0:0:0:
419,217,27492,2,0,P|348:224|289:263,1,136,2|2,3:2|3:2,0:0:0:0:
121,353,28025,1,10,2:2:0:0:
174,294,28202,1,2,3:2:0:0:
60,208,28380,6,0,P|91:227|129:232,1,68,2|2,3:2|3:2,0:0:0:0:
341,344,28735,1,10,2:2:0:0:
271,382,28912,2,0,P|258:307|263:236,1,136,2|2,3:2|3:2,0:0:0:0:
333,91,29445,1,8,2:2:0:0:
278,28,29622,2,0,P|291:103|286:174,1,136,2|2,3:2|3:2,0:0:0:0:
412,277,30155,5,10,2:2:0:0:
396,199,30332,1,0,3:3:0:0:
195,224,30510,5,8,2:2:0:0:
211,146,30687,1,0,3:3:0:0:
274,204,30865,5,0,3:3:0:0:
96,152,31042,1,8,2:2:0:0:
26,196,31220,6,0,P|21:156|-1:98,1,101.999996887207,6|0,3:2|0:0,0:0:0:0:
195,224,31753,2,0,P|155:229|97:251,1,101.999996887207,2|0,3:2|3:3,0:0:0:0:
211,146,32285,1,10,2:2:0:0:
456,327,32640,6,0,P|461:287|483:229,1,101.999996887207,2|0,3:2|0:0,0:0:0:0:
287,355,33173,2,0,P|327:360|385:382,1,101.999996887207,0|0,3:3|3:3,0:0:0:0:
271,277,33705,1,10,2:2:0:0:
271,277,33883,1,0,3:3:0:0:
159,384,34060,6,0,P|118:346|122:299,1,101.999996887207,2|0,3:2|0:0,0:0:0:0:
202,230,34593,2,0,P|218:208|222:181,1,50.9999984436036,2|0,3:2|0:0,0:0:0:0:
160,127,34948,2,0,P|136:136|99:141,1,50.9999984436036,2|8,3:2|2:2,0:0:0:0:
315,39,35480,6,0,P|358:60|425:70,1,101.999996887207,2|0,3:2|0:0,0:0:0:0:
498,235,36013,2,0,P|455:214|388:204,1,101.999996887207,0|0,3:3|3:3,0:0:0:0:
500,95,36545,1,10,2:2:0:0:
240,272,36900,6,0,P|231:220|212:163,1,101.999996887207,6|0,3:2|0:0,0:0:0:0:
315,39,37433,2,0,P|299:87|291:137,1,101.999996887207,2|0,3:2|3:3,0:0:0:0:
149,223,37966,1,10,2:2:0:0:
393,384,38321,6,0,P|431:356|416:304,1,101.999996887207,2|0,3:2|0:0,0:0:0:0:
317,357,38853,2,0,P|305:309|344:280,1,101.999996887207,0|0,3:3|3:3,0:0:0:0:
504,221,39386,1,10,2:2:0:0:
504,221,39563,1,0,3:3:0:0:
449,158,39741,6,0,P|391:145|333:127,1,101.999996887207,2|2,3:2|2:2,0:0:0:0:
195,228,40273,2,0,P|243:213|293:202,1,101.999996887207,0|0,3:3|3:3,0:0:0:0:
448,309,40806,1,10,2:2:0:0:
422,239,40983,1,0,3:3:0:0:
301,351,41161,5,2,3:2:0:0:
102,119,41516,5,0,3:3:0:0:
75,194,41693,1,0,3:3:0:0:
102,119,41871,2,0,L|79:17,1,101.999996887207,2|2,2:2|2:2,0:0:0:0:
4,234,42581,6,0,B|-5:214|-5:214|18:202|78:232|93:260|68:301,1,152.999995330811,6|0,3:2|0:0,0:0:0:0:
104,358,42936,2,0,P|123:382|118:347,1,85,10|0,2:2|3:3,0:0:0:0:
238,205,43291,2,0,P|256:164|265:121,1,85,2|0,2:2|3:3,0:0:0:0:
78,25,43646,2,0,P|96:66|105:109,1,85,10|2,2:2|3:2,0:0:0:0:
300,261,44001,5,2,2:2:0:0:
228,293,44179,2,0,P|185:285|164:234,1,85,2|8,3:2|2:2,0:0:0:0:
361,125,44534,2,0,P|401:110|449:102,1,85,2|0,3:2|0:0,0:0:0:0:
264,25,44889,2,0,P|224:40|176:48,1,85,2|8,3:2|2:2,0:0:0:0:
182,47,45244,1,2,3:2:0:0:
33,197,45421,5,2,3:2:0:0:
39,187,45599,1,0,3:3:0:0:
107,230,45776,1,10,2:2:0:0:
178,153,45954,1,2,3:2:0:0:
86,114,46131,1,2,2:2:0:0:
175,280,46309,1,2,3:2:0:0:
86,114,46486,2,0,P|71:67|66:26,1,85,10|2,2:2|3:2,0:0:0:0:
236,224,46841,5,2,2:2:0:0:
94,304,47019,2,0,P|131:286|176:280,1,85,2|8,3:2|2:2,0:0:0:0:
308,372,47374,2,0,B|295:281|247:321|235:221,1,170,2|2,3:2|3:2,0:0:0:0:
384,48,47906,1,10,2:2:0:0:
325,232,48084,2,0,P|332:212|337:184,1,42.5,10|0,2:2|0:0,0:0:0:0:
281,85,48261,5,6,3:2:0:0:
417,180,48439,1,2,3:2:0:0:
281,85,48616,2,0,P|239:103|195:113,1,85,10|2,2:2|3:2,0:0:0:0:
60,200,48971,1,2,2:2:0:0:
123,249,49149,1,2,3:2:0:0:
0,341,49326,2,0,P|38:324|80:313,1,85,10|0,2:2|3:3,0:0:0:0:
277,240,49682,5,2,2:2:0:0:
240,384,49859,2,0,P|227:336|225:299,1,85,2|8,3:2|2:2,0:0:0:0:
282,78,50214,2,0,P|295:126|297:163,1,85,2|0,3:2|0:0,0:0:0:0:
438,244,50569,2,0,P|402:225|348:217,1,85,2|8,3:2|2:2,0:0:0:0:
145,310,50924,6,0,B|123:293|90:296|90:296|40:242|106:206,1,170,2|0,3:2|3:3,0:0:0:0:
282,78,51457,1,10,2:2:0:0:
260,4,51634,1,2,3:2:0:0:
226,136,51812,1,2,2:2:0:0:
362,97,51989,1,2,3:2:0:0:
226,136,52167,2,0,P|187:120|137:112,1,85,10|2,2:2|3:2,0:0:0:0:
294,267,52522,5,2,2:2:0:0:
224,302,52699,2,0,P|238:343|244:391,1,85,2|8,3:2|2:2,0:0:0:0:
37,322,53054,2,0,P|72:255|170:254,1,170,2|8,3:2|2:2,0:0:0:0:
361,335,53587,2,0,P|383:325|412:319,1,42.5,8|8,2:2|2:2,0:0:0:0:
507,254,53764,2,0,P|485:264|456:270,1,42.5,0|0,3:3|0:0,0:0:0:0:
468,358,53942,6,0,B|458:275|409:304|399:217,1,152.999995330811,6|0,3:2|0:0,0:0:0:0:
431,152,54297,2,0,P|454:130|442:160,1,85,10|0,2:2|3:3,0:0:0:0:
230,211,54652,2,0,P|267:192|318:185,1,85,2|0,2:2|3:3,0:0:0:0:
487,3,55007,2,0,P|450:22|399:29,1,85,10|2,2:2|3:2,0:0:0:0:
201,62,55362,5,2,2:2:0:0:
272,23,55540,2,0,P|286:58|299:114,1,85,2|8,3:2|2:2,0:0:0:0:
512,220,55895,2,0,P|465:156|377:154,1,170,2|2,3:2|3:2,0:0:0:0:
251,267,56427,1,10,2:2:0:0:
323,301,56605,1,2,3:2:0:0:
407,230,56782,5,2,3:2:0:0:
298,379,56960,1,2,3:2:0:0:
407,230,57137,2,0,P|422:189|428:143,1,85,10|0,2:2|3:3,0:0:0:0:
263,8,57492,1,2,2:2:0:0:
196,44,57670,2,0,P|158:23|117:14,1,85,2|10,3:2|2:2,0:0:0:0:
215,117,58025,1,2,3:2:0:0:
21,190,58202,5,2,2:2:0:0:
64,122,58380,1,2,3:2:0:0:
137,153,58557,1,10,2:2:0:0:
82,384,58735,2,0,B|61:287|131:322|90:205,1,170,2|2,3:2|3:2,0:0:0:0:
283,47,59267,1,8,2:2:0:0:
311,60,59356,1,8,2:2:0:0:
323,87,59445,2,0,P|312:108|306:136,1,42.5,0|0,3:3|3:3,0:0:0:0:
190,240,59622,6,0,P|227:222|278:216,1,85,6|0,3:2|3:3,0:0:0:0:
473,88,59977,1,10,2:2:0:0:
405,136,60155,1,2,3:2:0:0:
497,251,60332,2,0,P|482:208|477:164,1,85,2|0,2:2|3:3,0:0:0:0:
293,303,60687,2,0,P|308:346|313:390,1,85,10|2,2:2|3:2,0:0:0:0:
463,347,61042,5,2,2:2:0:0:
417,284,61220,2,0,P|394:252|346:245,1,85,2|8,3:2|2:2,0:0:0:0:
217,342,61575,2,0,P|143:292|177:238,1,170,2|2,3:2|3:2,0:0:0:0:
295,88,62108,1,8,2:2:0:0:
340,155,62285,6,0,P|274:113|169:93,1,170,2|2,3:2|3:2,0:0:0:0:
18,3,62818,2,0,P|40:38|47:84,1,85,10|0,2:2|3:3,0:0:0:0:
188,177,63173,2,0,P|165:212|158:254,1,85,2|0,2:2|3:3,0:0:0:0:
24,350,63528,2,0,P|47:315|97:312,1,85,10|2,2:2|3:2,0:0:0:0:
301,384,63883,5,2,2:2:0:0:
364,335,64060,2,0,B|374:293|377:242|378:242,2,85,2|8|2,3:2|2:2|3:2,0:0:0:0:
478,145,64593,1,8,2:2:0:0:
293,241,64770,1,0,3:2:0:0:
261,226,64859,1,0,3:2:0:0:
249,192,64948,2,0,P|255:173|260:150,1,42.5,8|8,2:2|2:2,0:0:0:0:
350,67,65125,2,0,P|344:48|339:25,1,42.5,8|0,0:0|0:0,0:0:0:0:
373,147,65303,5,4,3:2:0:0:
373,147,65480,1,0,3:3:0:0:
180,52,65658,1,10,2:2:0:0:
257,72,65835,2,0,B|164:85|207:132|119:160,1,170,0|2,3:3|3:2,0:0:0:0:
13,272,66368,2,0,P|3:253|-1:226,2,42.5,10|0|2,2:2|0:0|3:2,0:0:0:0:
111,347,66723,5,2,2:2:0:0:
17,365,66900,2,0,P|54:345|101:335,1,85,2|8,3:2|2:2,0:0:0:0:
244,234,67255,2,2,B|257:252|305:250|305:250|326:279|326:279|370:281|397:299,1,170,2|0,3:2|3:3,0:1:0:0:
219,365,67788,1,8,2:2:0:0:
154,280,67966,6,0,P|147:191|120:108,1,170,2|2,3:2|3:2,0:0:0:0:
314,0,68498,1,10,2:2:0:0:
219,136,68676,1,2,3:2:0:0:
62,60,68853,5,2,2:2:0:0:
110,0,69031,1,2,3:2:0:0:
187,17,69208,1,10,2:2:0:0:
138,79,69386,1,2,3:2:0:0:
138,79,69563,5,2,2:2:0:0:
300,176,69741,2,0,P|319:131|325:91,1,85,2|8,3:2|2:2,0:0:0:0:
229,218,70096,2,2,P|148:232|123:313,1,170,2|0,3:2|3:3,0:2:0:0:
291,384,70628,2,0,P|287:361|274:339,1,42.5,8|0,2:2|0:0,0:0:0:0:
328,252,70806,2,0,P|332:275|345:297,1,42.5,10|8,2:2|0:0,0:0:0:0:
420,331,70983,6,0,B|429:236|481:279|489:177,1,170,4|10,3:2|2:2,0:0:0:0:
341,54,71516,1,0,3:3:0:0:
420,147,71693,1,2,2:2:0:0:
420,147,71871,2,0,P|409:127|403:97,2,42.5,0|0|8,3:3|0:0|2:2,0:0:0:0:
328,252,72226,6,0,P|246:267|167:323,1,170,2|2,3:2|3:2,0:0:0:0:
43,202,72758,2,0,P|86:214|109:253,1,85,10|0,2:2|3:3,0:0:0:0:
53,383,73113,2,0,P|29:341|46:290,1,85,2|0,2:2|3:3,0:0:0:0:
162,157,73469,1,8,2:2:0:0:
239,171,73646,6,0,B|261:154|294:157|294:157|344:103|278:67,1,170,2|2,3:2|3:2,0:0:0:0:
88,9,74179,2,0,P|110:50|120:95,1,85,10|2,2:2|3:2,0:0:0:0:
215,249,74534,1,2,2:2:0:0:
48,178,74711,1,2,3:2:0:0:
215,249,74889,2,0,P|262:258|300:279,1,85,10|2,2:2|3:2,0:0:0:0:
43,384,75244,5,2,2:2:0:0:
149,151,75421,2,0,P|136:185|125:243,1,85,2|8,3:2|2:2,0:0:0:0:
0,299,75776,2,2,P|86:306|141:384,1,170,2|8,3:2|2:2,0:1:0:0:
318,275,76309,1,0,3:3:0:0:
232,242,76486,1,2,3:2:0:0:
201,312,76664,5,6,3:2:0:0:
148,161,81634,5,8,2:2:0:0:
223,302,81812,1,8,2:2:0:0:
364,227,81989,1,8,2:2:0:0:
289,85,82167,1,6,2:2:0:0:
68,381,82699,6,0,L|58:335,1,42.5,10|0,2:2|0:0,0:0:0:0:
403,31,84297,1,0,3:3:0:0:
422,39,84386,1,0,3:3:0:0:
433,55,84474,5,8,2:2:0:0:
307,177,84741,5,8,2:2:0:0:
475,247,85007,5,8,2:2:0:0:
413,153,85184,5,6,3:2:0:0:
104,322,85895,5,6,3:2:0:0:
104,322,86250,2,0,P|98:281|84:254,1,59.4999981842042,0|8,3:3|2:2,0:0:0:0:
227,37,86605,5,6,3:2:0:0:
40,197,86960,2,0,P|58:188|96:179,1,42.5,0|0,3:3|0:0,0:0:0:0:
216,116,87137,2,0,P|195:109|176:100,1,42.5,8|8,2:2|2:2,0:0:0:0:
75,17,87315,1,8,0:0:0:0:
37,25,87403,1,8,2:2:0:0:
17,62,87492,2,0,P|30:82|36:104,1,42.5,8|8,2:2|0:0,0:0:0:0:
183,207,87670,1,8,3:3:0:0:
53,330,87847,1,0,3:3:0:0:
42,298,87936,1,0,3:0:0:0:
72,278,88025,5,6,3:2:0:0:
131,331,88202,1,2,3:2:0:0:
282,233,88380,2,0,P|325:216|370:209,1,85,10|2,2:2|3:2,0:0:0:0:
156,118,88735,2,0,P|113:135|68:142,1,85,2|2,2:2|3:2,0:0:0:0:
260,5,89090,1,10,2:2:0:0:
227,79,89267,1,2,3:2:0:0:
146,0,89445,5,2,2:2:0:0:
311,72,89622,2,0,P|297:107|290:155,1,85,2|8,3:2|2:2,0:0:0:0:
101,279,89977,2,0,P|143:213|232:217,1,170,2|2,3:2|3:2,0:0:0:0:
417,334,90510,1,8,2:2:0:0:
367,269,90687,6,0,B|345:286|312:283|312:283|262:337|328:373,1,170,2|2,3:2|3:2,0:0:0:0:
486,220,91220,2,0,P|505:180|511:133,1,85,10|2,2:2|3:2,0:0:0:0:
305,26,91575,2,0,P|323:64|330:105,1,85,2|2,2:2|3:2,0:0:0:0:
512,55,91930,2,0,P|468:59|440:101,1,85,10|0,2:2|3:3,0:0:0:0:
218,240,92285,5,2,2:2:0:0:
276,183,92463,1,2,3:2:0:0:
156,88,92640,1,10,2:2:0:0:
344,228,92818,2,0,P|389:210|439:205,1,85,2|8,3:2|2:2,0:0:0:0:
226,383,93173,1,0,3:3:0:0:
354,318,93350,1,8,2:2:0:0:
354,318,93439,1,8,2:2:0:0:
354,318,93528,1,0,3:3:0:0:
143,190,93705,6,0,B|152:170|152:170|129:158|69:188|54:216|79:257,1,152.999995330811,6|0,3:2|0:0,0:0:0:0:
102,315,94060,2,0,P|122:337|118:302,1,85,10|0,2:2|3:3,0:0:0:0:
232,152,94415,2,0,P|221:98|202:63,1,85,2|0,2:2|3:3,0:0:0:0:
367,225,94770,2,0,P|373:183|391:144,1,85,10|2,2:2|3:2,0:0:0:0:
281,346,95125,5,2,2:2:0:0:
427,342,95303,2,0,P|400:314|351:306,1,85,2|8,3:2|2:2,0:0:0:0:
181,384,95658,2,0,P|104:350|120:267,1,170,2|2,3:2|3:2,0:0:0:0:
193,97,96190,1,10,2:2:0:0:
265,140,96368,1,2,3:2:0:0:
105,179,96545,5,2,3:2:0:0:
268,60,96723,1,2,3:2:0:0:
105,179,96900,2,0,P|99:131|78:83,1,85,10|0,2:2|3:3,0:0:0:0:
257,234,97255,1,2,2:2:0:0:
217,300,97433,1,2,3:2:0:0:
287,343,97611,2,0,P|324:323|365:315,1,85,10|2,2:2|3:2,0:0:0:0:
504,113,97966,5,2,2:2:0:0:
434,158,98143,2,0,P|396:129|401:80,1,85,2|10,3:2|2:2,0:0:0:0:
512,196,98498,2,0,P|433:198|343:228,1,170,2|0,3:2|3:3,0:0:0:0:
155,89,99031,1,8,2:2:0:0:
173,207,99208,2,0,P|180:187|185:160,1,42.5,8|0,2:2|0:0,0:0:0:0:
263,68,99386,5,6,3:2:0:0:
96,151,99563,1,2,3:2:0:0:
263,68,99741,2,0,P|308:90|350:98,1,85,10|2,2:2|3:2,0:0:0:0:
512,284,100096,1,2,2:2:0:0:
441,245,100273,1,2,3:2:0:0:
341,344,100451,2,0,P|296:322|254:314,1,85,10|0,2:2|3:3,0:0:0:0:
450,384,100806,5,2,2:2:0:0:
363,264,100983,2,0,P|349:223|344:179,1,85,2|8,3:2|2:2,0:0:0:0:
391,74,101338,2,0,P|357:140|269:142,1,170,2|2,3:2|3:2,0:0:0:0:
59,79,101871,1,8,2:2:0:0:
98,155,102048,6,0,B|120:172|153:169|153:169|203:223|137:259,1,170,2|2,3:2|3:2,0:0:0:0:
7,363,102581,2,0,P|49:343|97:335,1,85,10|0,2:2|3:3,0:0:0:0:
278,284,102936,1,2,2:2:0:0:
339,335,103113,1,2,3:2:0:0:
206,373,103291,1,10,2:2:0:0:
355,247,103469,1,2,3:2:0:0:
206,373,103646,6,0,P|198:329|182:293,2,85,2|2|8,2:2|3:2|2:2,0:0:0:0:
300,161,104179,1,2,3:2:0:0:
222,192,104356,1,8,2:2:0:0:
222,192,104445,1,0,3:0:0:0:
222,192,104534,2,0,P|196:182|166:175,1,42.5,2|0,3:2|2:2,0:0:0:0:
72,236,104711,2,0,P|93:218|114:196,1,42.5,10|0,2:2|0:0,0:0:0:0:
108,84,104889,2,0,P|112:111|121:140,1,42.5,2|0,3:2|0:0,0:0:0:0:
181,292,105066,5,6,3:2:0:0:
181,292,105421,2,0,P|163:330|158:372,1,76.4999976654053,10|0,2:2|3:3,0:0:0:0:
321,236,105776,1,2,2:2:0:0:
378,291,105954,2,0,P|416:300|450:324,1,76.4999976654053,2|8,3:2|2:2,0:0:0:0:
350,156,106309,2,0,P|275:155|236:234,1,152.999995330811,2|0,3:2|3:3,0:0:0:0:
21,103,106841,1,8,2:2:0:0:
49,242,107019,6,0,B|58:157|97:195|108:105,1,152.999995330811,2|2,3:2|3:2,0:0:0:0:
292,26,107551,2,0,P|273:22|242:6,1,38.2499988327027,10|0,2:2|0:0,0:0:0:0:
75,13,107729,2,0,P|94:17|125:33,1,38.2499988327027,2|0,3:2|0:0,0:0:0:0:
189,65,107906,5,0,3:3:0:0:
189,65,108084,1,0,3:3:0:0:
368,169,108261,2,0,P|356:127|353:94,1,76.4999976654053,10|0,2:2|3:3,0:0:0:0:
199,274,108616,1,2,2:2:0:0:
247,208,108794,2,0,P|286:217|320:252,1,76.4999976654053,2|8,3:2|2:2,0:0:0:0:
394,359,109149,6,0,P|355:365|313:381,1,76.4999976654053,2|0,3:2|0:0,0:0:0:0:
439,284,109504,2,0,P|478:278|520:262,1,76.4999976654053,2|8,3:2|2:2,0:0:0:0:
387,215,109859,2,0,B|377:129|334:169|323:78,1,152.999995330811,2|2,3:2|3:2,0:0:0:0:
484,2,110392,2,0,P|466:36|459:82,1,76.4999976654053,10|2,2:2|3:2,0:0:0:0:
313,176,110747,5,6,3:2:0:0:
313,176,110924,1,0,3:3:0:0:
411,286,111102,2,0,P|393:252|386:206,1,76.4999976654053,10|0,2:2|3:3,0:0:0:0:
235,88,111457,1,2,2:2:0:0:
179,150,111634,2,0,P|141:155|102:179,1,76.4999976654053,2|8,3:2|2:2,0:0:0:0:
220,0,111989,2,0,P|291:17|322:91,1,152.999995330811,2|0,3:2|3:3,0:0:0:0:
482,211,112522,1,8,2:2:0:0:
413,257,112699,2,0,B|392:241|362:244|362:244|316:194|377:161,1,152.999995330811,2|2,3:2|3:2,0:0:0:0:
512,327,113232,2,0,P|476:332|436:356,2,76.4999976654053,10|2|0,2:2|3:2|3:3,0:0:0:0:
482,211,113764,5,0,3:3:0:0:
363,384,113942,2,0,P|356:347|334:313,1,76.4999976654053,10|0,2:2|3:3,0:0:0:0:
257,278,114297,1,2,2:2:0:0:
482,211,114474,2,0,P|489:174|511:140,1,76.4999976654053,2|8,3:2|2:2,0:0:0:0:
306,26,114829,5,6,3:2:0:0:
306,26,115184,1,14,2:2:0:0:
191,139,115362,1,14,2:2:0:0:
358,187,115540,1,14,2:2:0:0:
