osu file format v14

[General]
AudioFilename: audio.mp3
AudioLeadIn: 0
PreviewTime: 42492
Countdown: 0
SampleSet: Soft
StackLeniency: 0.7
Mode: 0
LetterboxInBreaks: 0
WidescreenStoryboard: 0

[Editor]
Bookmarks: 14179,19859,31220,65303,76664,76708,76886,77019,77152,77329,77463,77596,77773,77906,78040,78217,78350,78483,78661,78838,78971,79105,79238,79460,79593,79770,79903,80081,80214,80436,80569,80747,80880,81013,81190,81368,81501,88025,105066
DistanceSpacing: 1
BeatDivisor: 4
GridSize: 32
TimelineZoom: 1.8

[Metadata]
Title:Princess Douka Onegai!!
TitleUnicode:Princessどうかお願い!!
Artist:20-moji to Iu Jisuu Seigen ni Idomi Tsuzukeru Kabochi
ArtistUnicode:20文字と言う字数制限に挑み続けるかぼち
Creator:Ascended
Version:YASSIFIED
Source:SOUND VOLTEX III GRAVITY WARS
Tags:alevi -ascended- -_ascended_- Kabocha Kabotyasan かぼちゃ croaknotrue japanese jp pop rock jpop jrock videogame video game sdvx soundvoltex 3 gravitywars Tsumabuki Left 嬬武器烈風刀 Tsumabuki Refuto male vocalist vocals Princess please!!
BeatmapID:3932633
BeatmapSetID:1907079

[Difficulty]
HPDrainRate:5
CircleSize:4
OverallDifficulty:8.5
ApproachRate:9.2
SliderMultiplier:1.7
SliderTickRate:1

[Events]
//Background and Video events
0,0,"yassification of tsumabuki left.jpg",0,0
//Break Periods
2,76864,81064
//Storyboard Layer 0 (Background)
//Storyboard Layer 1 (Fail)
//Storyboard Layer 2 (Pass)
//Storyboard Layer 3 (Foreground)
//Storyboard Layer 4 (Overlay)
//Storyboard Sound Samples

[TimingPoints]
1398,355.029585798817,4,2,1,35,1,0
2285,-100,4,2,1,40,0,0
2818,-100,4,2,1,55,0,0
14534,-57.1428571428571,4,2,1,55,0,0
14889,-83.3333333333333,4,2,1,55,0,0
16131,-71.4285714285714,4,2,1,55,0,0
16397,-71.4285714285714,4,2,1,5,0,0
16486,-83.3333333333333,4,2,1,55,0,0
17019,-83.3333333333333,4,2,1,55,0,0
17374,-55.5555555555556,4,2,1,55,0,0
17729,-83.3333333333333,4,2,1,55,0,0
18261,-71.4285714285714,4,2,1,55,0,0
18971,-71.4285714285714,4,2,1,55,0,0
19237,-71.4285714285714,4,2,1,5,0,0
19326,-71.4285714285714,4,2,1,55,0,0
19859,-100,4,2,1,55,0,0
25895,-62.5,4,2,1,55,0,0
26250,-100,4,2,1,55,0,0
31220,-133.333333333333,4,2,1,45,0,0
41871,-400,4,2,1,25,0,0
42581,-45.4545454545455,4,2,1,70,0,1
42936,-100,4,2,1,70,0,1
43291,-90.9090909090909,4,2,1,70,0,1
44089,-90.9090909090909,4,2,1,5,0,1
44179,-90.9090909090909,4,2,1,70,0,1
46929,-90.9090909090909,4,2,1,5,0,1
47019,-90.9090909090909,4,2,1,70,0,1
47374,-66.6666666666667,4,2,1,70,0,1
47640,-66.6666666666667,4,2,1,5,0,1
47729,-90.9090909090909,4,2,1,70,0,1
47817,-90.9090909090909,4,2,1,5,0,1
47906,-90.9090909090909,4,2,1,70,0,1
47994,-90.9090909090909,4,2,1,5,0,1
48084,-90.9090909090909,4,2,1,70,0,1
48172,-90.9090909090909,4,2,1,5,0,1
48261,-90.9090909090909,4,2,1,70,0,1
49326,-90.9090909090909,4,2,1,70,0,1
49770,-90.9090909090909,4,2,1,5,0,1
49859,-90.9090909090909,4,2,1,70,0,1
53054,-71.4285714285714,4,2,1,70,0,1
53320,-71.4285714285714,4,2,1,5,0,1
53409,-71.4285714285714,4,2,1,70,0,1
53942,-55.5555555555556,4,2,1,70,0,1
54297,-100,4,2,1,70,0,1
54652,-90.9090909090909,4,2,1,70,0,1
55450,-90.9090909090909,4,2,1,5,0,1
55540,-90.9090909090909,4,2,1,70,0,1
59178,-90.9090909090909,4,2,1,5,0,1
59267,-90.9090909090909,4,2,1,70,0,1
61130,-90.9090909090909,4,2,1,5,0,1
61220,-90.9090909090909,4,2,1,70,0,1
62373,-90.9090909090909,4,2,1,5,0,1
62463,-90.9090909090909,4,2,1,70,0,1
63528,-71.4285714285714,4,2,1,70,0,1
63794,-71.4285714285714,4,2,1,5,0,1
63883,-90.9090909090909,4,2,1,70,0,1
64415,-90.9090909090909,4,2,1,70,0,1
65303,-90.9090909090909,4,2,1,65,0,0
66811,-90.9090909090909,4,2,1,5,0,0
66900,-90.9090909090909,4,2,1,65,0,0
67255,-76.9230769230769,4,2,1,65,0,0
67788,-90.9090909090909,4,2,1,65,0,0
69651,-90.9090909090909,4,2,1,5,0,0
69741,-90.9090909090909,4,2,1,65,0,0
73734,-90.9090909090909,4,2,1,5,0,0
73824,-90.9090909090909,4,2,1,65,0,0
75687,-90.9090909090909,4,2,1,5,0,0
75776,-62.5,4,2,1,65,0,0
76042,-62.5,4,2,1,5,0,0
76131,-133.333333333333,4,2,1,65,0,0
76219,-133.333333333333,4,2,1,5,0,0
76309,-133.333333333333,4,2,1,55,0,0
76397,-133.333333333333,4,2,1,5,0,0
76486,-133.333333333333,4,2,1,55,0,0
76574,-133.333333333333,4,2,1,5,0,0
76664,-133.333333333333,4,2,1,45,0,0
81634,-133.333333333333,4,2,1,60,0,0
82167,-55.5555555555556,4,2,1,50,0,0
82610,-55.5555555555556,4,2,1,5,0,0
82699,-55.5555555555556,4,2,1,50,0,0
82965,-55.5555555555556,4,2,1,5,0,0
83054,-66.6666666666667,4,2,1,50,0,0
83320,-66.6666666666667,4,2,1,5,0,0
83409,-83.3333333333333,4,2,1,50,0,0
83675,-83.3333333333333,4,2,1,5,0,0
83764,-55.5555555555556,4,2,1,50,0,0
83852,-55.5555555555556,4,2,1,45,0,0
83942,-133.333333333333,4,2,1,50,0,0
84119,-133.333333333333,4,2,1,45,0,0
84297,-133.333333333333,4,2,1,50,0,0
84474,-133.333333333333,4,2,1,50,0,0
85184,-133.333333333333,4,2,1,55,0,0
85895,-76.9230769230769,4,2,1,55,0,0
88025,-90.9090909090909,4,2,1,70,0,1
89533,-90.9090909090909,4,2,1,5,0,1
89623,-90.9090909090909,4,2,1,70,0,1
91575,-83.3333333333333,4,2,1,70,0,1
93705,-55.5555555555556,4,2,1,70,0,1
94060,-100,4,2,1,70,0,1
94415,-90.9090909090909,4,2,1,70,0,1
95213,-90.9090909090909,4,2,1,5,0,1
95303,-90.9090909090909,4,2,1,70,0,1
98941,-90.9090909090909,4,2,1,5,0,1
99030,-90.9090909090909,4,2,1,70,0,1
99118,-90.9090909090909,4,2,1,5,0,1
99208,-90.9090909090909,4,2,1,70,0,1
99296,-90.9090909090909,4,2,1,5,0,1
99385,-90.9090909090909,4,2,1,70,0,1
100894,-90.9090909090909,4,2,1,5,0,1
100983,-90.9090909090909,4,2,1,70,0,1
102136,-90.9090909090909,4,2,1,5,0,1
102226,-90.9090909090909,4,2,1,70,0,1
104089,-90.9090909090909,4,2,1,5,0,1
104179,-90.9090909090909,4,2,1,70,0,1
104444,-90.9090909090909,4,2,1,5,0,1
104534,-90.9090909090909,4,2,1,70,0,1
104799,-90.9090909090909,4,2,1,5,0,1
104889,-90.9090909090909,4,2,1,70,0,1
104977,-90.9090909090909,4,2,1,5,0,1
105066,-90.9090909090909,4,2,1,65,0,0
105420,-57.1428571428571,4,2,1,65,0,0
105775,-83.3333333333333,4,2,1,65,0,0
107017,-71.4285714285714,4,2,1,65,0,0
107285,-71.4285714285714,4,2,1,5,0,0
107372,-83.3333333333333,4,2,1,65,0,0
107905,-83.3333333333333,4,2,1,65,0,0
108260,-55.5555555555556,4,2,1,65,0,0
108615,-83.3333333333333,4,2,1,65,0,0
109147,-71.4285714285714,4,2,1,65,0,0
109857,-71.4285714285714,4,2,1,65,0,0
110125,-71.4285714285714,4,2,1,5,0,0
110214,-71.4285714285714,4,2,1,65,0,0
111100,-57.1428571428571,4,2,1,65,0,0
111455,-83.3333333333333,4,2,1,65,0,0
112697,-66.6666666666667,4,2,1,65,0,0
112965,-66.6666666666667,4,2,1,5,0,0
113052,-83.3333333333333,4,2,1,65,0,0
113585,-83.3333333333333,4,2,1,65,0,0
113942,-57.1428571428571,4,2,1,65,0,0
114297,-83.3333333333333,4,2,1,65,0,0

[Colours]
Combo1 : 255,128,192
Combo2 : 21,234,207

[HitObjects]
58,147,1398,5,8,2:2:0:0:
64,145,1753,1,8,2:2:0:0:
71,143,2108,1,8,2:2:0:0:
78,141,2196,1,0,3:3:0:0:
82,139,2285,1,2,3:2:0:0:
89,137,2374,1,0,3:3:0:0:
95,136,2463,1,10,2:2:0:0:
420,48,2640,5,2,2:2:0:0:
420,48,2729,1,2,0:0:0:0:
420,48,2818,2,0,P|378:38|336:30,1,85,6|0,3:2|3:3,0:0:0:0:
197,160,3173,1,10,2:2:0:0:
196,160,3350,2,0,P|125:125|154:52,1,170,2|0,3:2|3:3,0:0:0:0:
235,0,3883,2,0,P|245:41|253:82,1,85,8|2,2:2|3:2,0:0:0:0:
321,212,4238,6,0,P|329:170|339:129,1,85,2|2,2:2|3:2,0:0:0:0:
231,238,4593,1,10,2:2:0:0:
418,182,4770,2,0,P|496:213|479:298,1,170,2|2,3:2|3:2,0:0:0:0:
420,344,5303,2,0,P|391:302|407:270,1,85,10|2,2:2|3:2,0:0:0:0:
512,384,5658,5,2,3:2:0:0:
512,384,5835,1,0,3:3:0:0:
307,290,6013,1,10,2:2:0:0:
238,357,6190,2,0,B|196:367|156:324|178:311|142:270|99:280,1,170,2|2,3:2|3:2,0:0:0:0:
0,383,6723,2,0,P|8:341|18:300,1,85,10|2,2:2|3:2,0:0:0:0:
97,381,7078,5,2,2:2:0:0:
290,277,7255,1,2,3:2:0:0:
197,191,7433,1,10,2:2:0:0:
188,278,7611,2,0,P|239:272|279:165,1,170,2|2,3:2|3:2,0:0:0:0:
110,185,8143,1,10,2:2:0:0:
110,185,8321,1,10,2:2:0:0:
223,91,8498,6,0,P|232:49|240:8,1,85,2|0,3:2|3:3,0:0:0:0:
96,86,8853,1,10,2:2:0:0:
96,86,9031,2,0,P|179:105|195:193,1,170,2|0,3:2|3:3,0:0:0:0:
0,225,9563,2,0,P|9:183|17:142,1,85,8|2,2:2|3:2,0:0:0:0:
97,181,9918,5,2,2:2:0:0:
170,336,10096,1,2,3:2:0:0:
67,298,10273,1,10,2:2:0:0:
164,325,10451,2,0,B|205:310|248:342|231:353|275:379|325:361,1,170,2|2,3:2|3:2,0:0:0:0:
416,271,10983,2,0,P|407:229|397:188,1,85,10|2,2:2|3:2,0:0:0:0:
284,214,11338,5,2,3:2:0:0:
284,214,11516,1,0,3:3:0:0:
406,353,11693,1,10,2:2:0:0:
321,362,11871,2,0,P|337:284|417:272,1,170,2|0,3:2|3:3,0:0:0:0:
512,384,12403,2,0,P|501:342|493:301,1,85,8|2,2:2|3:2,0:0:0:0:
372,114,12758,5,2,2:2:0:0:
372,114,12936,1,2,3:2:0:0:
440,170,13113,1,10,2:2:0:0:
288,263,13291,2,0,P|209:250|192:172,1,170,2|0,3:2|3:2,0:0:0:0:
293,17,13824,5,8,2:2:0:0:
272,110,14001,1,0,3:3:0:0:
283,1,14179,1,4,3:2:0:0:
25,353,14534,6,0,B|79:318|79:318|-27:358,1,148.750001418591,10|0,2:2|3:3,0:0:0:0:
175,341,14889,2,0,B|160:314|160:314|161:293,1,50.9999984436036,2|0,2:2|0:0,0:0:0:0:
103,220,15066,2,0,B|77:182|77:182|92:235,1,101.999996887207,2|8,3:2|2:2,0:0:0:0:
250,288,15421,6,0,B|302:299|345:251|318:235|366:184|416:196,1,203.999993774414,2|0,3:2|3:3,0:0:0:0:
287,154,15954,1,8,2:2:0:0:
500,384,16131,6,0,P|435:375|413:271,1,178.499994552612,2|0,3:2|0:0,0:0:0:0:
494,292,16486,6,0,P|489:271|483:243,1,50.9999984436036,2|0,3:2|0:0,0:0:0:0:
416,196,16664,6,0,P|416:173|417:145,1,50.9999984436036,10|0,2:2|0:0,0:0:0:0:
365,82,16841,6,0,P|371:60|379:33,1,50.9999984436036,2|0,3:2|0:0,0:0:0:0:
512,0,17019,5,0,3:3:0:0:
512,0,17196,1,0,3:3:0:0:
365,82,17374,6,0,B|419:117|419:117|313:77,1,152.999995330811,10|0,2:2|3:3,0:0:0:0:
214,151,17729,2,0,L|263:135,1,50.9999984436036,2|0,2:2|0:0,0:0:0:0:
265,38,17906,2,0,B|239:0|239:0|254:53,1,101.999996887207,2|8,3:2|2:2,0:0:0:0:
215,275,18261,6,0,P|185:252|185:221,1,59.4999981842042,2|0,3:2|0:0,0:0:0:0:
219,279,18439,1,0,3:3:0:0:
92,209,18616,6,0,P|101:174|127:158,1,59.4999981842042,2|0,3:2|0:0,0:0:0:0:
97,213,18794,1,8,2:2:0:0:
20,16,18971,6,0,P|123:15|153:85,1,178.499994552612,2|0,3:2|0:0,0:0:0:0:
68,91,19326,1,10,2:2:0:0:
214,151,19504,1,10,2:2:0:0:
238,143,19592,1,8,2:2:0:0:
262,135,19681,1,10,2:2:0:0:
0,243,19859,6,0,P|9:201|18:159,1,85,6|0,3:2|3:3,0:0:0:0:
186,255,20214,1,10,2:2:0:0:
186,255,20392,2,0,P|105:253|68:325,1,170,2|0,3:2|3:3,0:0:0:0:
152,377,20924,2,0,P|193:367|235:358,1,85,8|2,2:2|3:2,0:0:0:0:
268,209,21279,5,2,2:2:0:0:
268,209,21457,1,2,3:2:0:0:
378,307,21634,1,10,2:2:0:0:
325,376,21812,2,0,P|343:293|361:209,1,170,2|2,3:2|3:2,0:0:0:0:
421,69,22344,2,0,P|430:110|439:152,1,85,10|2,2:2|3:2,0:0:0:0:
495,233,22699,5,2,3:2:0:0:
495,233,22876,1,0,3:3:0:0:
314,129,23054,1,10,2:2:0:0:
244,186,23232,2,0,P|157:185|120:113,1,170,2|0,3:2|3:3,0:0:0:0:
46,181,23764,1,8,0:0:0:0:
224,21,23942,6,0,P|215:62|206:104,1,85,2|2,3:2|0:2,0:0:0:0:
211,109,24296,1,2,3:2:0:0:
133,25,24474,1,10,2:2:0:0:
244,186,24652,2,0,B|286:169|327:203|306:215|348:248|401:229,1,170,2|2,3:2|3:2,0:0:0:0:
448,8,25184,5,10,2:2:0:0:
448,8,25362,1,2,3:2:0:0:
370,70,25540,2,0,P|380:111|388:152,1,85,2|0,3:2|3:3,0:0:0:0:
470,302,25895,6,0,B|447:366|447:366|449:364|449:364|456:298,1,136,10|0,2:2|3:3,0:0:0:0:
483,216,26250,1,2,2:2:0:0:
370,329,26427,5,2,3:2:0:0:
370,329,26605,2,0,P|328:337|287:347,1,85,10|2,2:2|3:2,0:0:0:0:
88,299,26960,5,2,2:2:0:0:
171,204,27137,1,2,3:2:0:0:
92,150,27314,1,10,2:2:0:0:
180,362,27492,2,0,P|256:332|268:252,1,170,2|2,3:2|3:2,0:0:0:0:
161,195,28025,2,0,P|171:236|179:277,1,85,10|2,2:2|3:2,0:0:0:0:
70,383,28380,6,0,P|78:341|88:300,1,85,2|2,3:2|3:2,0:0:0:0:
243,165,28735,1,10,2:2:0:0:
175,108,28912,2,0,P|95:139|80:220,1,170,2|2,3:2|3:2,0:0:0:0:
166,200,29445,5,8,2:2:0:0:
18,88,29622,2,0,P|10:46|0:5,1,85,2|2,3:2|0:0,0:0:0:0:
0,4,29977,1,2,3:2:0:0:
0,179,30155,5,10,2:2:0:0:
130,12,30332,1,0,3:3:0:0:
162,196,30510,5,8,2:2:0:0:
205,84,30687,1,0,3:3:0:0:
295,180,30865,5,0,3:3:0:0:
299,134,31042,1,8,2:2:0:0:
394,162,31220,5,6,3:2:0:0:
394,162,31753,2,0,P|442:161|476:87,1,127.500004863739,2|0,3:2|3:3,0:0:0:0:
436,26,32285,1,10,2:2:0:0:
336,255,32640,6,0,P|384:256|418:330,1,127.500004863739,2|0,3:2|0:0,0:0:0:0:
497,286,33173,2,0,P|503:254|510:223,1,63.7500024318696,0|2,3:3|2:2,0:0:0:0:
481,381,33528,5,0,3:3:0:0:
330,343,33705,1,10,2:2:0:0:
330,343,33883,1,0,3:3:0:0:
238,358,34060,6,0,P|174:370|112:385,1,127.500004863739,2|0,3:2|0:0,0:0:0:0:
26,325,34593,1,2,3:2:0:0:
199,113,34948,5,2,3:2:0:0:
251,176,35125,2,0,P|244:207|237:238,1,63.7500024318696,8|0,2:2|0:0,0:0:0:0:
165,289,35480,2,0,P|117:288|83:214,1,127.500004863739,2|0,3:2|0:0,0:0:0:0:
80,224,36190,5,2,2:2:0:0:
251,176,36368,1,0,3:3:0:0:
181,114,36545,1,10,2:2:0:0:
489,63,36900,6,0,P|429:77|413:142,1,127.500004863739,6|0,3:2|0:0,0:0:0:0:
474,203,37433,2,0,P|460:265|446:327,1,127.500004863739,2|0,3:2|3:3,0:0:0:0:
512,384,37966,1,10,2:2:0:0:
375,247,38321,6,0,B|313:240|279:284|310:295|269:346|219:333,1,191.250007295609,2|0,3:2|3:3,0:0:0:0:
159,267,39031,1,2,2:2:0:0:
68,280,39208,1,0,3:3:0:0:
191,190,39386,1,10,2:2:0:0:
191,190,39563,1,0,3:3:0:0:
107,38,39741,6,0,P|114:68|120:100,1,63.7500024318696,2|0,3:2|0:0,0:0:0:0:
191,190,40096,1,2,2:2:0:0:
191,190,40273,2,0,P|196:158|204:127,1,63.7500024318696,0|2,3:3|2:2,0:0:0:0:
163,271,40628,5,0,3:3:0:0:
375,207,40806,1,10,2:2:0:0:
163,271,40983,1,0,3:3:0:0:
375,207,41161,1,2,3:2:0:0:
375,207,41516,5,0,3:3:0:0:
226,137,41693,1,0,3:3:0:0:
344,27,41871,2,0,P|364:31|385:36,1,42.5,2|2,2:2|2:2,0:0:0:0:
257,44,42581,6,0,B|263:24|249:5|249:5|312:9|343:64|307:115,1,187.000005706787,6|0,3:2|3:3,0:0:0:0:
61,198,42936,2,0,P|102:189|144:180,1,85,10|0,2:2|3:3,0:0:0:0:
226,137,43291,5,2,2:2:0:0:
406,304,43469,1,0,3:3:0:0:
485,265,43646,2,0,P|516:231|511:186,1,93.5000028533936,10|2,2:2|3:2,0:0:0:0:
246,233,44001,6,0,P|269:237|292:242,1,46.7500014266968,2|0,2:2|0:0,0:0:0:0:
419,191,44179,2,0,P|374:200|328:210,1,93.5000028533936,2|8,3:2|2:2,0:0:0:0:
107,373,44534,6,0,P|31:361|14:260,1,187.000005706787,2|2,3:2|3:2,0:0:0:0:
126,183,45066,2,0,P|115:234|104:285,1,93.5000028533936,8|2,2:2|3:2,0:0:0:0:
196,334,45421,5,2,3:2:0:0:
200,338,45599,1,0,3:3:0:0:
31,162,45776,1,10,2:2:0:0:
143,93,45954,1,2,3:2:0:0:
53,21,46131,5,2,2:2:0:0:
232,168,46309,1,2,3:2:0:0:
301,103,46486,2,0,P|291:57|281:12,1,93.5000028533936,10|2,2:2|3:2,0:0:0:0:
348,290,46841,6,0,P|344:267|339:244,1,46.7500014266968,2|0,2:2|0:0,0:0:0:0:
383,127,47019,2,0,P|374:172|364:218,1,93.5000028533936,2|8,3:2|2:2,0:0:0:0:
68,356,47374,6,0,B|120:374|158:330|126:316|178:266|227:283,1,191.250007295609,2|0,3:2|0:0,0:0:0:0:
52,339,47729,6,0,P|29:334|6:329,1,46.7500014266968,2|0,3:2|0:0,0:0:0:0:
251,196,47906,6,0,P|228:191|205:186,1,46.7500014266968,10|0,2:2|0:0,0:0:0:0:
349,360,48084,6,0,P|326:355|303:350,1,46.7500014266968,10|0,2:2|0:0,0:0:0:0:
497,348,48261,5,6,3:2:0:0:
497,348,48439,1,2,3:2:0:0:
339,211,48616,1,10,2:2:0:0:
220,368,48794,1,2,3:2:0:0:
410,288,48971,5,2,2:2:0:0:
265,156,49149,1,2,3:2:0:0:
389,21,49326,2,0,P|379:66|369:112,1,93.5000028533936,10|0,2:2|3:3,0:0:0:0:
512,169,49682,6,0,P|489:165|466:160,1,46.7500014266968,2|0,2:2|0:0,0:0:0:0:
339,211,49859,2,0,P|384:202|430:192,1,93.5000028533936,2|8,3:2|2:2,0:0:0:0:
290,56,50214,2,0,P|192:65|158:146,1,187.000005706787,2|2,3:2|3:2,0:0:0:0:
68,276,50747,2,0,P|22:245|23:205,1,93.5000028533936,8|2,2:2|3:2,0:0:0:0:
27,75,51102,5,0,3:3:0:0:
27,75,51279,1,0,3:3:0:0:
164,223,51457,1,10,2:2:0:0:
255,166,51634,1,2,3:2:0:0:
68,276,51812,5,2,2:2:0:0:
259,170,51989,1,2,3:2:0:0:
159,119,52167,1,10,2:2:0:0:
294,255,52344,1,2,3:2:0:0:
412,121,52522,5,2,2:2:0:0:
412,121,52699,2,0,P|457:130|503:140,1,93.5000028533936,2|8,3:2|2:2,0:0:0:0:
512,377,53054,6,0,B|469:394|425:358|457:338|413:296|361:307,1,178.499994552612,2|0,3:2|0:0,0:0:0:0:
299,361,53409,2,0,P|269:366|240:373,1,59.4999981842042,8|0,2:2|0:0,0:0:0:0:
128,285,53587,1,8,2:2:0:0:
107,237,53675,1,8,2:2:0:0:
148,203,53764,2,0,P|177:209|206:215,1,59.4999981842042,0|0,3:3|0:0,0:0:0:0:
404,137,53942,6,0,P|370:72|298:76,1,152.999995330811,6|0,3:2|3:3,0:0:0:0:
241,372,54297,2,0,P|250:331|259:289,1,85,10|0,2:2|3:3,0:0:0:0:
334,214,54652,5,2,2:2:0:0:
177,65,54829,1,0,3:3:0:0:
97,126,55007,2,0,P|51:136|5:145,1,93.5000028533936,10|2,2:2|3:2,0:0:0:0:
259,290,55362,6,0,P|236:294|213:299,1,46.7500014266968,2|0,2:2|0:0,0:0:0:0:
100,250,55540,2,0,P|145:259|191:269,1,93.5000028533936,2|8,3:2|2:2,0:0:0:0:
501,288,55895,6,0,B|456:305|415:273|437:250|383:209|337:229,1,187.000005706787,2|2,3:2|3:2,0:0:0:0:
421,113,56427,2,0,P|466:103|512:93,1,93.5000028533936,10|2,2:2|3:2,0:0:0:0:
240,71,56782,5,2,3:2:0:0:
240,71,56960,1,2,3:2:0:0:
342,46,57137,2,0,P|332:91|322:137,1,93.5000028533936,10|0,2:2|3:3,0:0:0:0:
186,166,57492,5,2,2:2:0:0:
365,308,57670,1,2,3:2:0:0:
198,372,57847,1,10,2:2:0:0:
338,222,58025,1,2,3:2:0:0:
490,341,58202,5,2,2:2:0:0:
490,341,58380,1,2,3:2:0:0:
313,140,58557,1,10,2:2:0:0:
424,101,58735,2,0,P|433:55|443:9,1,93.5000028533936,2|0,3:2|0:0,0:0:0:0:
278,157,59090,6,0,P|273:179|268:202,1,46.7500014266968,2|0,3:2|0:0,0:0:0:0:
397,384,59267,1,8,2:2:0:0:
450,378,59356,1,8,2:2:0:0:
486,337,59445,1,0,3:3:0:0:
486,280,59534,1,0,3:3:0:0:
447,245,59622,5,6,3:2:0:0:
297,360,59800,1,0,3:3:0:0:
222,292,59977,2,0,P|176:301|130:311,1,93.5000028533936,10|2,2:2|3:2,0:0:0:0:
355,97,60332,6,0,P|380:135|373:180,1,93.5000028533936,2|0,2:2|3:3,0:0:0:0:
232,59,60687,1,10,2:2:0:0:
232,59,60865,1,2,3:2:0:0:
0,145,61042,6,0,P|23:141|46:136,1,46.7500014266968,2|0,2:2|0:0,0:0:0:0:
159,185,61220,2,0,P|114:176|68:166,1,93.5000028533936,2|8,3:2|2:2,0:0:0:0:
3,384,61575,6,0,P|10:296|96:282,1,187.000005706787,2|2,3:2|3:2,0:0:0:0:
312,339,62108,1,8,2:2:0:0:
250,177,62285,2,0,P|245:199|240:222,1,46.7500014266968,2|0,3:2|0:0,0:0:0:0:
231,255,62463,5,2,3:2:0:0:
331,226,62640,1,2,3:2:0:0:
210,357,62818,2,0,P|164:366|118:376,1,93.5000028533936,10|0,2:2|3:3,0:0:0:0:
421,252,63173,6,0,P|428:206|403:168,1,93.5000028533936,2|0,2:2|3:3,0:0:0:0:
64,125,63528,6,0,B|112:141|147:101|118:88|166:42|217:56,1,178.499994552612,10|0,2:2|0:0,0:0:0:0:
232,67,63883,5,2,2:2:0:0:
512,55,64060,2,0,P|466:45|420:36,1,93.5000028533936,2|8,3:2|2:2,0:0:0:0:
404,169,64415,5,2,3:2:0:0:
317,8,64593,2,0,P|325:53|335:99,1,93.5000028533936,8|0,2:2|3:2,0:0:0:0:
304,150,64859,1,0,3:2:0:0:
249,150,64948,1,8,2:2:0:0:
207,188,65037,1,8,2:2:0:0:
207,245,65125,1,8,0:0:0:0:
442,346,65303,6,0,B|468:362|468:362|400:341,1,93.5000028533936,4|0,3:2|3:3,0:0:0:0:
159,348,65658,5,10,2:2:0:0:
354,262,65835,2,0,P|356:350|270:360,1,187.000005706787,0|2,3:3|3:2,0:0:0:0:
258,346,66279,1,2,2:2:0:0:
267,322,66368,2,0,P|221:330|175:340,1,93.5000028533936,10|2,2:2|3:2,0:0:0:0:
43,238,66723,6,0,P|47:260|52:283,1,46.7500014266968,2|0,2:2|0:0,0:0:0:0:
64,359,66900,2,0,P|72:313|82:267,1,93.5000028533936,2|8,3:2|2:2,0:0:0:0:
328,89,67255,6,2,B|243:58|189:126|189:126|189:161|161:183,1,220.999989883423,2|0,3:2|3:3,0:1:0:0:
276,204,67788,1,8,2:2:0:0:
136,48,67966,2,0,P|89:39|44:30,1,93.5000028533936,2|0,3:2|3:3,0:0:0:0:
234,7,68321,5,2,3:2:0:0:
234,7,68498,1,10,2:2:0:0:
234,7,68676,1,2,3:2:0:0:
83,124,68853,1,2,2:2:0:0:
242,245,69031,1,2,3:2:0:0:
145,275,69208,2,0,P|154:229|162:183,1,93.5000028533936,10|2,2:2|3:2,0:0:0:0:
4,384,69563,6,0,P|26:379|49:375,1,46.7500014266968,2|0,2:2|0:0,0:0:0:0:
83,351,69741,2,0,P|128:360|174:368,1,93.5000028533936,2|8,3:2|2:2,0:0:0:0:
497,381,70096,6,2,P|466:322|349:323,1,187.000005706787,2|0,3:2|3:3,0:2:0:0:
433,264,70628,1,8,2:2:0:0:
272,384,70806,5,10,2:2:0:0:
272,384,70895,1,8,0:0:0:0:
272,384,70983,2,0,P|262:338|254:292,1,93.5000028533936,4|2,3:2|3:2,0:0:0:0:
332,124,71338,2,0,P|323:170|314:215,1,93.5000028533936,10|0,2:2|3:3,0:0:0:0:
245,71,71693,5,2,2:2:0:0:
414,181,71871,1,0,3:3:0:0:
249,75,72048,1,8,2:2:0:0:
418,185,72226,6,0,P|509:159|517:72,1,187.000005706787,2|2,3:2|3:2,0:0:0:0:
338,8,72758,2,0,P|346:54|355:99,1,93.5000028533936,10|0,2:2|3:3,0:0:0:0:
432,34,73113,5,2,2:2:0:0:
280,168,73291,1,0,3:3:0:0:
436,38,73468,1,8,2:2:0:0:
191,148,73646,6,0,P|168:143|145:139,1,46.7500014266968,2|0,3:2|0:0,0:0:0:0:
108,136,73824,1,0,3:3:0:0:
108,136,74001,1,2,3:2:0:0:
21,187,74179,5,10,2:2:0:0:
255,82,74356,1,2,3:2:0:0:
190,6,74534,5,2,2:2:0:0:
96,47,74711,1,2,3:2:0:0:
253,264,74889,5,10,2:2:0:0:
461,175,75066,1,2,3:2:0:0:
351,30,75244,5,2,2:2:0:0:
457,265,75421,1,2,3:2:0:0:
457,265,75510,1,2,0:0:0:0:
457,265,75599,2,0,P|452:287|448:310,1,46.7500014266968,8|0,2:2|0:0,0:0:0:0:
512,380,75776,6,2,B|462:399|412:358|445:332|398:286|338:299,1,204,2|0,3:2|0:0,0:1:0:0:
259,370,76131,6,0,P|258:351|274:340,1,31.8750012159348,8|0,2:2|0:0,0:0:0:0:
235,265,76309,6,0,P|250:255|268:263,1,31.8750012159348,0|0,3:3|0:0,0:0:0:0:
314,193,76486,6,0,P|329:201|332:220,1,31.8750012159348,2|0,3:2|0:0,0:0:0:0:
94,354,76664,5,6,3:2:0:0:
7,197,81634,5,8,2:2:0:0:
256,192,81812,1,8,2:2:0:0:
505,187,81989,1,8,2:2:0:0:
501,191,82167,6,0,B|444:9|444:9|451:1|451:1|480:179,1,382.499988327027,6|0,2:2|0:0,0:0:0:0:
391,192,82699,6,0,B|358:307|358:307|363:306|363:306|380:196,1,229.499992996216,10|0,2:2|0:0,0:0:0:0:
296,193,83054,6,0,B|266:98|266:98|272:102|272:102|287:189,1,191.250007295609,2|0,2:2|0:0,0:0:0:0:
203,192,83409,6,0,B|179:268|179:268|184:265|184:265|196:194,1,152.999995330811,2|0,2:2|0:0,0:0:0:0:
113,192,83764,6,0,B|101:152|101:152|104:154|104:154|109:190,1,76.4999976654053,2|0,2:2|0:0,0:0:0:0:
23,192,83942,6,0,B|13:224|13:224|15:223|15:223|20:193,1,63.7500024318696,2|0,2:2|0:0,0:0:0:0:
0,185,84297,5,0,3:3:0:0:
0,185,84386,1,0,3:3:0:0:
0,185,84474,1,8,2:2:0:0:
114,199,84741,5,8,2:2:0:0:
225,159,85007,5,8,2:2:0:0:
481,181,85184,6,0,P|387:201|294:222,1,191.250007295609,6|0,3:2|0:0,0:0:0:0:
344,36,85895,6,0,P|242:56|226:162,1,220.999989883423,6|0,3:2|3:3,0:0:0:0:
314,134,86427,1,8,2:2:0:0:
224,363,86605,6,0,P|148:364|121:232,1,220.999989883423,6|0,3:2|3:3,0:0:0:0:
230,163,87137,5,8,2:2:0:0:
230,163,87226,1,8,2:2:0:0:
295,223,87403,5,8,2:2:0:0:
295,223,87492,1,8,2:2:0:0:
380,205,87670,5,0,3:3:0:0:
380,205,87847,1,0,3:3:0:0:
11,86,88025,5,6,3:2:0:0:
114,243,88202,1,2,3:2:0:0:
230,163,88380,1,10,2:2:0:0:
230,163,88557,1,2,3:2:0:0:
141,129,88735,5,2,2:2:0:0:
306,272,88912,1,2,3:2:0:0:
96,348,89090,1,10,2:2:0:0:
193,255,89267,1,2,3:2:0:0:
418,344,89445,6,0,P|395:340|372:335,1,46.7500014266968,2|0,2:2|0:0,0:0:0:0:
258,379,89623,2,0,P|303:370|349:360,1,93.5000028533936,2|8,3:2|2:2,0:0:0:0:
512,117,89977,2,0,P|500:41|399:24,1,187.000005706787,2|2,3:2|3:2,0:0:0:0:
319,162,90510,2,0,P|328:207|338:253,1,93.5000028533936,8|2,2:2|3:2,0:0:0:0:
512,328,90865,5,0,3:3:0:0:
512,328,91042,1,2,3:2:0:0:
413,190,91220,2,0,P|422:144|432:98,1,93.5000028533936,10|2,2:2|3:2,0:0:0:0:
344,277,91575,6,0,B|293:264|239:315|270:329|225:374|170:358,1,203.999993774414,2|10,2:2|2:2,0:0:0:0:
84,290,92108,1,0,3:3:0:0:
19,372,92285,5,2,2:2:0:0:
180,274,92463,1,2,3:2:0:0:
26,194,92640,1,10,2:2:0:0:
92,299,92818,1,2,3:2:0:0:
256,224,92995,5,8,2:2:0:0:
256,224,93173,2,0,P|250:195|244:167,1,50.9999984436036,0|0,3:3|0:0,0:0:0:0:
306,57,93350,1,8,2:2:0:0:
278,22,93439,1,8,2:2:0:0:
238,35,93528,2,0,P|232:59|227:84,1,50.9999984436036,0|0,3:3|0:0,0:0:0:0:
187,373,93705,6,0,P|111:364|92:295,1,152.999995330811,6|0,3:2|3:3,0:0:0:0:
348,139,94060,2,0,P|390:130|432:120,1,85,10|0,2:2|3:3,0:0:0:0:
407,210,94415,5,2,2:2:0:0:
226,84,94593,1,0,3:3:0:0:
156,183,94770,2,0,P|167:228|176:274,1,93.5000028533936,10|2,2:2|3:2,0:0:0:0:
428,302,95125,6,0,P|405:298|382:293,1,46.7500014266968,2|0,2:2|0:0,0:0:0:0:
276,336,95303,2,0,P|321:327|367:317,1,93.5000028533936,2|8,3:2|2:2,0:0:0:0:
125,153,95658,6,0,P|38:164|4:251,1,187.000005706787,2|2,3:2|3:2,0:0:0:0:
71,382,96190,2,0,P|81:336|91:290,1,93.5000028533936,10|2,2:2|3:2,0:0:0:0:
137,41,96545,5,2,3:2:0:0:
137,41,96723,1,2,3:2:0:0:
25,20,96900,2,0,P|36:66|45:112,1,93.5000028533936,10|0,2:2|3:3,0:0:0:0:
73,204,97255,5,2,2:2:0:0:
284,100,97433,1,2,3:2:0:0:
137,41,97610,1,10,2:2:0:0:
305,196,97788,1,2,3:2:0:0:
501,145,97966,5,2,2:2:0:0:
501,145,98144,1,2,3:2:0:0:
325,293,98321,1,10,2:2:0:0:
215,258,98498,2,0,P|205:212|195:166,1,93.5000028533936,2|0,3:2|0:0,0:0:0:0:
436,276,98853,6,0,P|459:271|482:266,1,46.7500014266968,0|0,3:3|0:0,0:0:0:0:
305,196,99030,6,0,P|328:191|351:186,1,46.7500014266968,8|0,2:2|0:0,0:0:0:0:
190,365,99208,6,0,P|213:360|236:355,1,46.7500014266968,8|0,2:2|0:0,0:0:0:0:
77,159,99385,5,6,3:2:0:0:
77,159,99563,1,2,3:2:0:0:
215,258,99740,1,10,2:2:0:0:
32,346,99918,1,2,3:2:0:0:
110,258,100096,5,2,2:2:0:0:
110,258,100274,1,2,3:2:0:0:
322,384,100451,2,0,P|332:339|299:297,1,93.5000028533936,10|0,2:2|3:3,0:0:0:0:
246,87,100806,6,0,P|250:110|255:133,1,46.7500014266968,2|0,2:2|0:0,0:0:0:0:
215,258,100983,2,0,P|224:213|234:167,1,93.5000028533936,2|8,3:2|2:2,0:0:0:0:
125,7,101338,6,0,P|36:8|0:89,1,187.000005706787,2|2,3:2|3:2,0:0:0:0:
75,241,101871,1,8,2:2:0:0:
137,150,102048,2,0,P|133:127|128:104,1,46.7500014266968,2|0,3:2|0:0,0:0:0:0:
88,81,102226,5,0,3:3:0:0:
0,177,102403,1,2,3:2:0:0:
119,324,102581,2,0,P|165:333|211:343,1,93.5000028533936,10|0,2:2|3:3,0:0:0:0:
400,318,102936,5,2,2:2:0:0:
400,318,103113,1,2,3:2:0:0:
314,375,103291,2,0,P|305:329|295:283,1,93.5000028533936,10|2,2:2|3:2,0:0:0:0:
280,194,103646,5,2,2:2:0:0:
369,232,103824,1,2,3:2:0:0:
355,137,104001,5,8,2:2:0:0:
214,262,104179,1,2,3:2:0:0:
261,111,104356,5,8,2:2:0:0:
62,114,104534,6,0,P|39:109|16:104,1,46.7500014266968,2|2,3:2|3:2,0:0:0:0:
197,240,104711,6,0,P|174:235|151:230,1,46.7500014266968,10|0,2:2|0:0,0:0:0:0:
364,41,104889,6,0,P|341:36|318:31,1,46.7500014266968,2|0,3:2|0:0,0:0:0:0:
500,131,105066,5,6,3:2:0:0:
500,131,105244,1,0,3:3:0:0:
512,0,105421,6,0,B|445:52|445:52|503:24,1,148.750001418591,10|0,2:2|3:3,0:0:0:0:
261,111,105776,2,0,L|310:123,1,50.9999984436036,2|0,2:2|0:0,0:0:0:0:
407,180,105953,2,0,B|392:127|392:127|427:178,1,101.999996887207,2|8,3:2|2:2,0:0:0:0:
507,381,106309,6,0,P|483:283|388:267,1,203.999993774414,2|0,3:2|3:3,0:0:0:0:
419,348,106841,1,8,2:2:0:0:
155,367,107019,6,0,P|242:349|329:328,1,178.499994552612,2|0,3:2|0:0,0:0:0:0:
246,378,107374,6,0,P|240:351|234:326,1,50.9999984436036,2|0,3:2|0:0,0:0:0:0:
285,254,107551,6,0,P|273:230|260:206,1,50.9999984436036,10|0,2:2|0:0,0:0:0:0:
286,129,107729,6,0,P|268:108|250:89,1,50.9999984436036,2|0,3:2|0:0,0:0:0:0:
183,41,107906,5,0,3:3:0:0:
183,41,108084,1,0,3:3:0:0:
166,151,108261,6,0,B|99:98|99:98|169:129,1,152.999995330811,10|0,2:2|3:3,0:0:0:0:
8,5,108616,2,0,L|28:51,1,50.9999984436036,2|0,2:2|0:0,0:0:0:0:
21,141,108793,2,0,B|6:194|6:194|41:143,1,101.999996887207,2|8,3:2|2:2,0:0:0:0:
132,374,109149,6,0,P|162:351|162:320,1,59.4999981842042,2|0,3:2|0:0,0:0:0:0:
136,379,109327,1,0,0:0:0:0:
264,307,109504,6,0,P|255:272|229:256,1,59.4999981842042,2|0,3:2|0:0,0:0:0:0:
269,312,109682,1,8,2:2:0:0:
121,114,109859,6,0,P|101:202|84:291,1,178.499994552612,2|0,3:2|0:0,0:0:0:0:
88,292,110214,1,2,3:2:0:0:
14,350,110392,6,0,B|-2:324|-2:324|2:290,1,59.4999981842042,10|0,2:2|0:0,0:0:0:0:
147,191,110569,2,0,L|163:251,1,59.4999981842042,2|0,3:2|0:0,0:0:0:0:
349,286,110747,5,6,3:2:0:0:
349,286,110924,1,0,3:3:0:0:
443,332,111102,6,0,B|509:384|509:384|451:356,1,148.750001418591,10|0,2:2|3:3,0:0:0:0:
349,286,111457,2,0,L|301:303,1,50.9999984436036,2|0,2:2|0:0,0:0:0:0:
438,227,111634,2,0,B|412:189|412:189|427:242,1,101.999996887207,2|8,3:2|2:2,0:0:0:0:
240,375,111989,6,0,P|136:365|114:258,1,203.999993774414,2|0,3:2|3:3,0:0:0:0:
82,380,112522,1,8,2:2:0:0:
157,115,112699,6,0,P|177:215|198:315,1,191.250007295609,2|0,3:2|0:0,0:0:0:0:
155,205,113054,6,0,P|182:210|207:216,1,50.9999984436036,2|0,3:2|0:0,0:0:0:0:
287,215,113232,6,0,P|311:226|334:239,1,50.9999984436036,10|0,2:2|0:0,0:0:0:0:
412,259,113409,6,0,P|432:276|451:294,1,50.9999984436036,2|0,3:2|0:0,0:0:0:0:
512,365,113586,5,0,3:3:0:0:
512,365,113764,1,0,3:3:0:0:
286,381,113942,6,0,B|353:328|353:328|283:359,1,148.750001418591,10|0,2:2|3:3,0:0:0:0:
54,275,114297,2,0,L|100:295,1,50.9999984436036,2|0,2:2|0:0,0:0:0:0:
195,302,114474,2,0,B|207:356|207:356|175:304,1,101.999996887207,2|8,3:2|2:2,0:0:0:0:
419,380,114829,5,6,3:2:0:0:
423,384,115184,5,14,2:2:0:0:
144,214,115362,1,14,2:2:0:0:
348,64,115540,1,14,2:2:0:0:
