osu file format v14

[General]
AudioFilename: audio.mp3
AudioLeadIn: 0
PreviewTime: 42492
Countdown: 0
SampleSet: Soft
StackLeniency: 0.7
Mode: 0
LetterboxInBreaks: 0
WidescreenStoryboard: 1

[Editor]
Bookmarks: 14179,19859,31220,65303,76664,76708,76886,77019,77152,77329,77463,77596,77773,77906,78040,78217,78350,78483,78661,78838,78971,79105,79238,79460,79593,79770,79903,80081,80214,80436,80569,80747,80880,81013,81190,81368,81501,88025,105066
DistanceSpacing: 1
BeatDivisor: 4
GridSize: 32
TimelineZoom: 2

[Metadata]
Title:Princess Douka Onegai!!
TitleUnicode:Princessどうかお願い!!
Artist:20-moji to Iu Jisuu Seigen ni Idomi Tsuzukeru Kabochi
ArtistUnicode:20文字と言う字数制限に挑み続けるかぼち
Creator:Ascended
Version:NOVICE
Source:SOUND VOLTEX III GRAVITY WARS
Tags:alevi -ascended- -_ascended_- Kabocha Kabotyasan かぼちゃ croaknotrue japanese jp pop rock jpop jrock videogame video game sdvx soundvoltex 3 gravitywars Tsumabuki Left 嬬武器烈風刀 Tsumabuki Refuto male vocalist vocals Princess please!!
BeatmapID:3941805
BeatmapSetID:1907079

[Difficulty]
HPDrainRate:4
CircleSize:3.5
OverallDifficulty:4
ApproachRate:5.5
SliderMultiplier:1.1
SliderTickRate:1

[Events]
//Background and Video events
0,0,"yassification of tsumabuki left.jpg",0,0
//Break Periods
2,76864,80509
//Storyboard Layer 0 (Background)
//Storyboard Layer 1 (Fail)
//Storyboard Layer 2 (Pass)
//Storyboard Layer 3 (Foreground)
//Storyboard Layer 4 (Overlay)
//Storyboard Sound Samples

[TimingPoints]
1398,355.029585798817,4,2,1,35,1,0
2285,-100,4,2,1,40,0,0
2818,-100,4,2,1,55,0,0
31220,-111.111111111111,4,2,1,45,0,0
41871,-111.111111111111,4,2,1,25,0,0
42581,-90.9090909090908,4,2,1,70,0,1
65303,-100,4,2,1,65,0,0
76309,-100,4,2,1,55,0,0
76664,-100,4,2,1,45,0,0
81634,-100,4,2,1,60,0,0
82167,-100,4,2,1,50,0,0
85184,-100,4,2,1,55,0,0
88025,-90.9090909090909,4,2,1,70,0,1
105066,-100,4,2,1,65,0,0

[Colours]
Combo1 : 255,128,192
Combo2 : 21,234,207

[HitObjects]
0,117,2818,6,0,P|12:65|62:49,1,110,6|10,3:2|2:2,0:0:0:0:
101,10,3350,2,0,P|152:22|168:72,1,110,2|0,3:2|3:3,0:0:0:0:
209,109,3883,1,8,2:2:0:0:
139,194,4238,6,0,P|113:188|85:183,2,55,2|2|10,2:2|3:2|2:2,0:0:0:0:
168,240,4770,2,0,P|220:228|275:218,1,110,2|2,3:2|3:2,0:0:0:0:
330,210,5303,1,10,2:2:0:0:
407,288,5658,6,0,P|458:275|474:225,1,110,2|10,3:2|2:2,0:0:0:0:
446,178,6190,2,0,P|455:123|468:70,1,110,2|2,3:2|3:2,0:0:0:0:
477,15,6723,1,10,2:2:0:0:
368,33,7078,6,0,P|341:39|314:44,1,55,2|2,2:2|3:2,0:0:0:0:
263,25,7433,1,10,2:2:0:0:
263,25,7611,2,0,P|211:37|195:87,1,110,2|2,3:2|3:2,0:0:0:0:
220,134,8143,2,0,P|247:138|273:145,2,55,10|10|2,2:2|2:2|3:2,0:0:0:0:
232,247,8853,5,10,2:2:0:0:
232,247,9031,2,0,P|177:256|124:269,1,110,2|0,3:2|3:3,0:0:0:0:
70,280,9563,1,8,2:2:0:0:
49,171,9918,6,0,P|43:145|38:117,2,55,2|2|10,2:2|3:2|2:2,0:0:0:0:
103,160,10451,2,0,P|154:147|170:97,1,110,2|2,3:2|3:2,0:0:0:0:
156,44,10983,1,10,2:2:0:0:
261,13,11338,6,0,P|287:19|314:24,1,55,2|0,3:2|3:3,0:0:0:0:
373,35,11693,1,10,2:2:0:0:
373,35,11871,2,0,P|360:88|350:142,1,110,2|0,3:2|3:3,0:0:0:0:
299,160,12403,1,8,2:2:0:0:
235,249,12758,6,0,P|209:243|181:238,2,55,2|2|10,2:2|3:2|2:2,0:0:0:0:
277,284,13291,2,0,P|328:296|344:346,1,110,2|0,3:2|3:2,0:0:0:0:
391,376,13824,2,0,P|417:370|444:365,1,55,8|0,2:2|3:3,0:0:0:0:
499,354,14179,1,4,3:2:0:0:
509,244,14534,5,10,2:2:0:0:
429,167,14889,1,2,2:2:0:0:
429,167,15066,2,0,B|420:141|420:141|440:113,1,55,2|8,3:2|2:2,0:0:0:0:
470,75,15421,1,2,3:2:0:0:
372,24,15776,6,0,B|344:20|344:20|318:35,1,55,0|8,3:3|2:2,0:0:0:0:
282,72,16131,2,0,B|225:57|251:25|194:9,1,110,2|2,3:2|3:2,0:0:0:0:
148,38,16664,2,0,P|143:65|136:91,2,55,10|2|0,2:2|3:2|3:3,0:0:0:0:
41,11,17374,5,10,2:2:0:0:
21,122,17729,1,2,2:2:0:0:
21,122,17906,2,0,B|12:148|12:148|32:175,1,55,2|8,3:2|2:2,0:0:0:0:
62,214,18261,1,2,3:2:0:0:
142,289,18616,6,0,B|170:293|170:293|195:277,1,55,2|8,3:2|2:2,0:0:0:0:
220,231,18971,1,2,3:2:0:0:
332,252,19326,1,10,2:2:0:0:
332,252,19504,2,0,B|360:248|360:248|383:261,1,55,10|10,2:2|2:2,0:0:0:0:
436,274,19859,6,0,P|430:300|425:328,2,55,6|0|10,3:2|3:3|2:2,0:0:0:0:
471,231,20392,2,0,P|477:178|428:150,1,110,2|0,3:2|3:3,0:0:0:0:
381,166,20924,1,8,2:2:0:0:
306,85,21279,6,0,P|278:80|252:73,1,55,2|2,2:2|3:2,0:0:0:0:
206,101,21634,1,10,2:2:0:0:
206,101,21812,2,0,P|218:153|228:208,1,110,2|2,3:2|3:2,0:0:0:0:
241,261,22344,1,10,2:2:0:0:
155,330,22699,6,0,P|149:356|144:384,2,55,2|0|10,3:2|3:3|2:2,0:0:0:0:
108,299,23232,1,2,3:2:0:0:
10,247,23587,2,0,P|5:219|0:193,1,55,0|8,3:3|2:2,0:0:0:0:
26,145,23942,6,0,P|37:93|86:72,1,110,2|2,3:2|3:2,0:0:0:0:
142,93,24474,1,10,2:2:0:0:
142,93,24652,1,2,3:2:0:0:
248,64,25007,2,0,P|252:36|258:10,2,55,2|10|2,3:2|2:2|3:2,0:0:0:0:
273,112,25540,6,0,P|266:138|262:165,1,55,2|0,3:2|3:3,0:0:0:0:
222,204,25895,2,0,P|230:258|244:311,1,110,10|2,0:2|0:0,0:0:0:0:
333,245,26605,1,10,0:0:0:0:
437,278,26960,2,0,P|442:305|448:331,2,55,2|2|10,2:2|3:2|2:2,0:0:0:0:
476,239,27492,2,0,P|488:181|455:144,1,110,2|2,3:2|3:2,0:0:0:0:
411,116,28024,1,10,2:2:0:0:
367,14,28380,6,0,P|339:9|313:2,1,55,2|2,3:2|3:2,0:0:0:0:
264,22,28734,1,10,2:2:0:0:
264,22,28912,1,2,3:2:0:0:
162,59,29267,2,0,P|134:54|108:47,1,55,2|8,3:2|2:2,0:0:0:0:
72,5,29622,1,2,3:2:0:0:
8,95,29977,5,2,3:2:0:0:
8,95,30155,2,0,P|14:121|19:148,1,55,10|0,2:2|3:3,0:0:0:0:
71,165,30510,2,0,P|77:191|82:218,1,55,8|0,2:2|3:3,0:0:0:0:
64,275,30865,1,0,3:3:0:0:
64,275,31042,1,8,2:2:0:0:
64,275,31220,1,6,3:2:0:0:
177,371,31753,6,0,B|249:356|227:312|311:295,1,148.49999546814,2|10,3:2|2:2,0:0:0:0:
390,341,32640,1,2,3:2:0:0:
246,204,33350,2,0,P|250:174|254:150,2,49.4999984893799,2|0|10,2:2|3:3|2:2,0:0:0:0:
152,235,34060,6,0,B|80:220|102:176|18:159,1,148.49999546814,2|2,3:2|3:2,0:0:0:0:
80,83,34948,2,0,P|110:77|140:69,1,49.4999984893799,2|8,3:2|2:2,0:0:0:0:
203,7,35480,1,2,3:2:0:0:
266,194,36190,2,0,P|260:224|256:248,2,49.4999984893799,2|0|10,2:2|3:3|2:2,0:0:0:0:
356,235,36900,6,0,B|428:220|406:176|490:159,1,148.49999546814,6|2,3:2|3:2,0:0:0:0:
427,77,37788,1,0,3:3:0:0:
427,77,37966,1,10,2:2:0:0:
336,118,38321,6,0,P|328:69|318:20,2,98.9999969787599,2|0|2,3:2|0:0|2:2,0:0:0:0:
291,139,39208,2,0,P|266:134|242:130,1,49.4999984893799,0|10,3:3|2:2,0:0:0:0:
183,210,39741,6,0,P|223:227|228:284,1,98.9999969787599,2|2,3:2|2:2,0:0:0:0:
251,322,40273,2,0,P|234:362|177:367,1,98.9999969787599,0|0,3:3|3:3,0:0:0:0:
146,336,40806,2,0,P|121:331|97:327,1,49.4999984893799,10|0,2:2|3:3,0:0:0:0:
49,342,41161,1,2,3:2:0:0:
23,246,41516,2,0,P|27:221|31:197,1,49.4999984893799,0|0,3:3|3:3,0:0:0:0:
4,155,41871,1,2,2:2:0:0:
147,32,42581,6,0,P|180:38|214:44,1,60.5000018463135,6|0,3:2|3:3,0:0:0:0:
256,77,42936,2,0,P|289:70|323:64,1,60.5000018463135,10|0,2:2|3:3,0:0:0:0:
359,24,43291,2,0,P|405:26|448:86,1,121.000003692627,2|10,2:2|2:2,0:0:0:0:
395,193,44001,5,2,2:2:0:0:
395,193,44179,2,0,P|401:226|407:260,1,60.5000018463135,2|8,3:2|2:2,0:0:0:0:
460,278,44534,1,2,3:2:0:0:
401,384,44889,1,2,3:2:0:0:
401,384,45066,2,0,P|367:377|333:371,1,60.5000018463135,8|2,2:2|3:2,0:0:0:0:
281,361,45421,5,2,3:2:0:0:
261,241,45776,2,0,P|267:207|273:173,1,60.5000018463135,10|2,2:2|3:2,0:0:0:0:
240,129,46131,2,0,P|246:95|252:61,2,60.5000018463135,2|2|10,2:2|3:2|2:2,0:0:0:0:
184,147,46664,5,2,3:2:0:0:
184,147,46841,2,0,P|150:140|116:134,1,60.5000018463135,2|2,2:2|3:2,0:0:0:0:
80,175,47196,1,8,2:2:0:0:
80,175,47374,1,2,3:2:0:0:
58,294,47729,2,0,P|51:327|45:361,2,60.5000018463135,2|10|10,3:2|2:2|2:2,0:0:0:0:
117,285,48261,6,0,P|146:289|176:296,1,60.5000018463135,6|2,3:2|3:2,0:0:0:0:
224,333,48616,2,0,P|253:326|283:321,1,60.5000018463135,10|2,2:2|3:2,0:0:0:0:
343,312,48971,2,0,P|349:341|354:371,2,60.5000018463135,2|2|10,2:2|3:2|2:2,0:0:0:0:
271,220,49682,5,2,2:2:0:0:
271,220,49859,2,0,P|277:190|282:160,1,60.5000018463135,2|8,3:2|2:2,0:0:0:0:
257,104,50214,2,0,P|277:49|336:44,1,121.000003692627,2|2,3:2|3:2,0:0:0:0:
382,78,50747,2,0,P|386:107|393:137,1,60.5000018463135,8|2,2:2|3:2,0:0:0:0:
405,196,51102,5,0,3:3:0:0:
492,291,51457,2,0,P|487:320|480:350,1,60.5000018463135,10|2,2:2|3:2,0:0:0:0:
424,374,51812,2,0,P|394:368|365:362,1,60.5000018463135,2|2,2:2|3:2,0:0:0:0:
328,314,52167,1,10,2:2:0:0:
224,376,52522,6,0,P|164:362|152:309,1,121.000003692627,2|8,2:2|2:2,0:0:0:0:
103,274,53054,2,0,P|117:214|170:202,1,121.000003692627,2|8,3:2|2:2,0:0:0:0:
223,228,53587,2,0,P|252:222|281:216,1,60.5000018463135,8|0,2:2|3:3,0:0:0:0:
328,176,53942,6,0,P|321:142|315:108,1,60.5000018463135,6|0,3:2|3:3,0:0:0:0:
285,64,54297,2,0,P|255:59|225:52,1,60.5000018463135,10|0,2:2|3:3,0:0:0:0:
182,9,54652,2,0,P|122:21|63:31,1,121.000003692627,2|10,2:2|2:2,0:0:0:0:
17,142,55362,5,2,2:2:0:0:
17,142,55540,2,0,P|23:175|29:209,1,60.5000018463135,2|8,3:2|2:2,0:0:0:0:
71,243,55895,1,2,3:2:0:0:
99,365,56250,1,2,3:2:0:0:
99,365,56427,2,0,P|132:371|166:377,1,60.5000018463135,10|2,2:2|3:2,0:0:0:0:
214,349,56782,6,0,P|218:319|225:289,1,60.5000018463135,2|2,3:2|3:2,0:0:0:0:
191,238,57137,1,10,2:2:0:0:
259,138,57492,2,0,P|290:145|309:172,1,60.5000018463135,2|2,2:2|3:2,0:0:0:0:
349,209,57847,2,0,P|358:239|344:269,1,60.5000018463135,10|2,2:2|3:2,0:0:0:0:
371,321,58202,6,0,P|377:350|382:380,2,60.5000018463135,2|2|10,2:2|3:2|2:2,0:0:0:0:
429,304,58735,1,2,3:2:0:0:
490,201,59090,1,2,3:2:0:0:
490,201,59267,2,0,P|494:171|501:141,1,60.5000018463135,8|0,2:2|3:3,0:0:0:0:
510,81,59622,5,6,3:2:0:0:
415,6,59977,2,0,P|385:12|355:17,1,60.5000018463135,10|2,2:2|3:2,0:0:0:0:
296,3,60332,2,0,P|257:17|251:96,1,121.000003692627,2|10,2:2|2:2,0:0:0:0:
297,129,60865,5,2,3:2:0:0:
297,129,61042,2,0,P|303:158|308:188,1,60.5000018463135,2|2,2:2|3:2,0:0:0:0:
316,253,61398,1,8,2:2:0:0:
316,253,61575,2,0,P|256:240|197:230,1,121.000003692627,2|2,3:2|3:2,0:0:0:0:
157,276,62108,1,8,2:2:0:0:
45,229,62463,6,0,P|40:199|33:169,1,60.5000018463135,2|2,3:2|3:2,0:0:0:0:
25,109,62818,1,10,2:2:0:0:
109,21,63173,2,0,B|169:36|143:71|206:88,1,121.000003692627,2|10,2:2|2:2,0:0:0:0:
256,129,63705,5,2,3:2:0:0:
256,129,63883,2,0,P|285:122|315:117,1,60.5000018463135,2|2,2:2|3:2,0:0:0:0:
336,241,64415,1,2,3:2:0:0:
336,241,64593,2,0,P|306:245|276:252,1,60.5000018463135,8|0,2:2|3:2,0:0:0:0:
223,266,64948,1,8,2:2:0:0:
223,266,65125,1,8,0:0:0:0:
223,266,65303,1,4,3:2:0:0:
151,349,65658,5,10,2:2:0:0:
151,349,65835,2,0,B|101:330|101:330|82:273,1,110,0|2,3:3|3:2,0:0:0:0:
30,259,66368,1,10,2:2:0:0:
77,159,66723,6,0,L|135:150,1,55,2|2,2:2|3:2,0:0:0:0:
181,174,67078,1,8,2:2:0:0:
181,174,67255,2,2,B|231:185|231:185|279:153|279:153|335:164,1,165,2|8,3:2|2:2,0:1:0:0:
376,199,67966,1,2,3:2:0:0:
477,152,68321,5,2,3:2:0:0:
477,152,68498,2,0,L|467:97,1,55,10|2,2:2|3:2,0:0:0:0:
424,62,68853,2,0,L|369:72,1,55,2|2,2:2|3:2,0:0:0:0:
319,49,69208,1,10,2:2:0:0:
210,64,69563,6,0,L|220:9,2,55,2|2|8,2:2|3:2|2:2,0:0:0:0:
155,71,70096,2,2,B|73:50|73:50|23:117,1,165,2|8,3:2|2:2,0:2:0:0:
0,170,70806,5,10,2:2:0:0:
0,170,70983,2,0,L|10:225,1,55,4|2,3:2|3:2,0:0:0:0:
22,277,71338,1,10,2:2:0:0:
128,305,71693,2,0,L|118:360,2,55,2|0|8,2:2|3:3|2:2,0:0:0:0:
168,267,72226,5,2,3:2:0:0:
280,287,72581,1,2,3:2:0:0:
280,287,72758,1,10,2:2:0:0:
353,368,73113,2,0,B|408:360|408:360|436:301,1,110,2|8,2:2|2:2,0:0:0:0:
478,281,73646,5,2,3:2:0:0:
478,281,73824,2,0,L|468:226,1,55,0|2,3:3|3:2,0:0:0:0:
427,189,74179,2,0,L|372:199,1,55,10|2,2:2|3:2,0:0:0:0:
321,178,74534,2,0,L|331:123,1,55,2|2,2:2|3:2,0:0:0:0:
305,75,74889,1,10,2:2:0:0:
204,114,75244,5,2,2:2:0:0:
204,114,75421,2,0,L|214:169,1,55,2|8,3:2|2:2,0:0:0:0:
199,221,75776,2,2,B|171:240|171:240|129:202|129:202|95:209,1,110,2|8,3:2|2:2,0:1:0:0:
65,196,76309,1,0,3:3:0:0:
65,196,76486,1,2,3:2:0:0:
65,196,76664,1,6,3:2:0:0:
253,221,81634,6,0,P|258:188|262:165,1,55,8|8,2:2|2:2,0:0:0:0:
244,114,81989,1,8,2:2:0:0:
287,80,82167,2,0,P|274:32|171:31,1,165,6|10,2:2|2:2,0:0:0:0:
56,283,84474,6,0,B|32:316|32:316|39:357,2,82.5,8|8|8,2:2|2:2|2:2,0:0:0:0:
107,263,85184,2,0,P|179:279|319:335,1,220,6|6,3:2|3:2,0:0:0:0:
448,157,86605,2,0,P|433:114|368:113,1,110,6|0,3:2|3:3,0:0:0:0:
320,117,87137,2,0,B|292:87|292:87|305:44,2,82.5,8|8|0,2:2|2:2|3:3,0:0:0:0:
341,236,88025,6,0,P|307:242|273:248,1,60.5000018463135,6|2,3:2|3:2,0:0:0:0:
241,292,88380,2,0,P|207:285|173:279,1,60.5000018463135,10|2,2:2|3:2,0:0:0:0:
127,309,88735,2,0,P|133:342|139:376,2,60.5000018463135,2|2|10,2:2|3:2|2:2,0:0:0:0:
20,262,89445,5,2,2:2:0:0:
20,262,89622,2,0,P|26:228|32:194,1,60.5000018463135,2|8,3:2|2:2,0:0:0:0:
13,144,89977,2,0,P|40:87|101:91,1,121.000003692627,2|2,3:2|3:2,0:0:0:0:
140,122,90510,1,8,2:2:0:0:
248,68,90865,6,0,P|252:97|259:127,1,60.5000018463135,0|2,3:3|3:2,0:0:0:0:
274,186,91220,1,10,2:2:0:0:
299,308,91575,1,2,2:2:0:0:
299,308,91753,2,0,P|294:337|287:367,2,60.5000018463135,2|10|0,3:2|2:2|3:3,0:0:0:0:
357,291,92285,6,0,P|386:295|416:302,1,60.5000018463135,2|2,2:2|3:2,0:0:0:0:
452,357,92640,1,10,2:2:0:0:
452,357,92818,2,0,P|481:352|511:345,1,60.5000018463135,2|8,3:2|2:2,0:0:0:0:
493,226,93350,5,8,2:2:0:0:
493,226,93528,1,0,3:3:0:0:
493,226,93705,2,0,P|486:192|480:158,1,60.5000018463135,6|0,3:2|3:3,0:0:0:0:
471,106,94060,2,0,P|441:101|411:94,1,60.5000018463135,10|0,2:2|3:3,0:0:0:0:
371,49,94415,2,0,P|311:61|294:124,1,121.000003692627,2|10,2:2|2:2,0:0:0:0:
274,235,95125,5,2,2:2:0:0:
274,235,95303,2,0,P|240:228|206:222,1,60.5000018463135,2|8,3:2|2:2,0:0:0:0:
155,212,95658,1,2,3:2:0:0:
51,167,96013,1,2,3:2:0:0:
51,167,96190,2,0,P|44:200|38:234,1,60.5000018463135,10|2,2:2|3:2,0:0:0:0:
5,277,96545,6,0,P|9:306|16:336,1,60.5000018463135,2|2,3:2|3:2,0:0:0:0:
69,365,96900,1,10,2:2:0:0:
188,383,97255,2,0,P|219:376|238:349,1,60.5000018463135,2|2,2:2|3:2,0:0:0:0:
278,312,97610,2,0,P|287:281|273:251,1,60.5000018463135,10|2,2:2|3:2,0:0:0:0:
241,206,97966,6,0,P|247:176|252:146,2,60.5000018463135,2|2|10,2:2|3:2|2:2,0:0:0:0:
187,234,98498,1,2,3:2:0:0:
80,187,98853,1,0,3:3:0:0:
80,187,99031,2,0,P|75:157|68:127,1,60.5000018463135,8|8,2:2|2:2,0:0:0:0:
58,67,99386,6,0,P|87:62|117:55,1,60.5000018463135,6|2,3:2|3:2,0:0:0:0:
177,45,99741,1,10,2:2:0:0:
237,149,100096,2,0,P|266:153|296:160,1,60.5000018463135,2|2,2:2|3:2,0:0:0:0:
355,175,100451,1,10,2:2:0:0:
477,201,100806,5,2,2:2:0:0:
477,201,100983,2,0,P|481:171|488:141,1,60.5000018463135,2|8,3:2|2:2,0:0:0:0:
509,84,101338,2,0,P|475:19|420:17,1,121.000003692627,2|2,3:2|3:2,0:0:0:0:
384,48,101871,1,8,2:2:0:0:
281,112,102226,6,0,P|287:141|292:171,1,60.5000018463135,0|2,3:3|3:2,0:0:0:0:
305,230,102581,1,10,2:2:0:0:
241,332,102936,2,0,P|211:325|181:320,1,60.5000018463135,2|2,2:2|3:2,0:0:0:0:
137,281,103291,2,0,P|107:287|77:292,1,60.5000018463135,10|2,2:2|3:2,0:0:0:0:
24,274,103646,1,2,2:2:0:0:
24,274,103824,2,0,P|30:244|35:214,1,60.5000018463135,2|8,3:2|2:2,0:0:0:0:
9,165,104179,1,2,3:2:0:0:
9,165,104356,1,8,2:2:0:0:
72,65,104711,5,10,2:2:0:0:
72,65,104889,1,2,3:2:0:0:
72,65,105066,1,6,3:2:0:0:
181,79,105421,5,10,2:2:0:0:
230,183,105776,1,2,2:2:0:0:
230,183,105953,2,0,B|239:209|239:209|219:237,1,55,2|8,3:2|2:2,0:0:0:0:
189,275,106308,1,2,3:2:0:0:
264,355,106664,6,0,B|287:341|287:341|315:345,1,55,0|8,3:3|2:2,0:0:0:0:
367,363,107019,2,0,P|422:344|426:293,1,110,2|2,3:2|3:2,0:0:0:0:
459,253,107551,2,0,P|485:260|512:265,2,55,10|2|0,2:2|3:2|3:3,0:0:0:0:
446,143,108261,5,10,2:2:0:0:
372,68,108616,1,2,2:2:0:0:
372,68,108793,2,0,B|346:59|346:59|319:79,1,55,2|8,3:2|2:2,0:0:0:0:
280,109,109148,1,2,3:2:0:0:
193,176,109503,6,0,B|189:204|189:204|205:229,1,55,2|8,3:2|2:2,0:0:0:0:
251,254,109858,1,2,3:2:0:0:
220,362,110213,1,2,3:2:0:0:
220,362,110391,2,0,B|197:349|197:349|169:353,1,55,10|2,2:2|3:2,0:0:0:0:
113,347,110747,1,6,3:2:0:0:
32,272,111102,5,10,2:2:0:0:
45,166,111457,1,2,2:2:0:0:
45,166,111634,2,0,B|36:140|36:140|56:112,1,55,2|8,3:2|2:2,0:0:0:0:
93,81,111989,1,2,3:2:0:0:
183,17,112345,6,0,B|206:30|206:30|234:26,1,55,0|8,3:3|2:2,0:0:0:0:
275,62,112700,2,0,P|220:81|216:132,1,110,2|2,3:2|3:2,0:0:0:0:
236,176,113232,2,0,P|228:202|223:229,2,55,10|2|0,2:2|3:2|3:3,0:0:0:0:
338,136,113942,5,10,2:2:0:0:
429,206,114297,1,2,2:2:0:0:
429,206,114474,2,0,B|438:232|438:232|418:259,1,55,2|8,3:2|2:2,0:0:0:0:
393,301,114829,1,6,3:2:0:0:
298,356,115184,5,14,2:2:0:0:
252,325,115362,1,14,2:2:0:0:
198,336,115540,1,14,2:2:0:0:
