osu file format v14

[General]
AudioFilename: audio.mp3
AudioLeadIn: 0
PreviewTime: 42492
Countdown: 0
SampleSet: Soft
StackLeniency: 0.7
Mode: 0
LetterboxInBreaks: 0
WidescreenStoryboard: 1

[Editor]
Bookmarks: 14179,19859,31220,65303,76664,76708,76886,77019,77152,77329,77463,77596,77773,77906,78040,78217,78350,78483,78661,78838,78971,79105,79238,79460,79593,79770,79903,80081,80214,80436,80569,80747,80880,81013,81190,81368,81501,88025,105066
DistanceSpacing: 1
BeatDivisor: 4
GridSize: 32
TimelineZoom: 1.8

[Metadata]
Title:Princess Douka Onegai!!
TitleUnicode:Princessどうかお願い!!
Artist:20-moji to Iu Jisuu Seigen ni Idomi Tsuzukeru Kabochi
ArtistUnicode:20文字と言う字数制限に挑み続けるかぼち
Creator:Ascended
Version:ADVANCED
Source:SOUND VOLTEX III GRAVITY WARS
Tags:alevi -ascended- -_ascended_- Kabocha Kabotyasan かぼちゃ croaknotrue japanese jp pop rock jpop jrock videogame video game sdvx soundvoltex 3 gravitywars Tsumabuki Left 嬬武器烈風刀 Tsumabuki Refuto male vocalist vocals Princess please!!
BeatmapID:3942765
BeatmapSetID:1907079

[Difficulty]
HPDrainRate:4.2
CircleSize:3.6
OverallDifficulty:6
ApproachRate:7.5
SliderMultiplier:1.4
SliderTickRate:1

[Events]
//Background and Video events
0,0,"yassification of tsumabuki left.jpg",0,0
//Break Periods
2,76864,80809
2,82899,83649
//Storyboard Layer 0 (Background)
//Storyboard Layer 1 (Fail)
//Storyboard Layer 2 (Pass)
//Storyboard Layer 3 (Foreground)
//Storyboard Layer 4 (Overlay)
//Storyboard Sound Samples

[TimingPoints]
1398,355.029585798817,4,2,1,35,1,0
2285,-100,4,2,1,40,0,0
2818,-100,4,2,1,55,0,0
14179,-90.9090909090909,4,2,1,55,0,0
19859,-100,4,2,1,55,0,0
31220,-133.333333333333,4,2,1,45,0,0
41871,-111.111111111111,4,2,1,25,0,0
42581,-71.4285714285714,4,2,1,70,0,1
42936,-83.3333333333333,4,2,1,70,0,1
53940,-71.4285714285714,4,2,1,70,0,1
54295,-83.3333333333333,4,2,1,70,0,1
65303,-86.9565217391304,4,2,1,65,0,0
76309,-100,4,2,1,55,0,0
76664,-100,4,2,1,45,0,0
81634,-100,4,2,1,60,0,0
82167,-100,4,2,1,50,0,0
85184,-125,4,2,1,55,0,0
88025,-83.3333333333333,4,2,1,70,0,1
93704,-71.4285714285714,4,2,1,70,0,1
94059,-83.3333333333333,4,2,1,70,0,1
105066,-90.9090909090909,4,2,1,65,0,0

[Colours]
Combo1 : 255,128,192
Combo2 : 21,234,207

[HitObjects]
38,346,2818,6,0,P|72:340|107:334,1,70,6|0,3:2|3:3,0:0:0:0:
194,376,3173,1,10,2:2:0:0:
194,376,3350,2,0,P|266:342|267:279,1,140,2|0,3:2|3:3,0:0:0:0:
200,234,3883,1,8,2:2:0:0:
58,132,4238,5,2,2:2:0:0:
58,132,4415,2,0,P|52:97|46:62,1,70,2|10,3:2|2:2,0:0:0:0:
129,17,4770,2,0,P|140:85|151:155,1,140,2|2,3:2|3:2,0:0:0:0:
82,218,5303,1,10,2:2:0:0:
246,150,5658,6,0,P|251:115|257:80,2,70,2|0|10,3:2|3:3|2:2,0:0:0:0:
338,128,6190,2,0,P|410:162|411:225,1,140,2|2,3:2|3:2,0:0:0:0:
485,275,6723,1,10,2:2:0:0:
360,373,7078,6,0,P|325:378|290:384,1,70,2|2,2:2|3:2,0:0:0:0:
190,343,7433,1,10,2:2:0:0:
190,343,7611,2,0,P|203:277|267:255,1,140,2|2,3:2|3:2,0:0:0:0:
367,284,8143,5,10,2:2:0:0:
367,284,8321,1,10,2:2:0:0:
367,284,8498,2,0,P|361:249|355:214,1,70,2|0,3:2|3:3,0:0:0:0:
429,158,8853,1,10,2:2:0:0:
429,158,9031,2,0,P|408:89|342:78,1,140,2|0,3:2|3:3,0:0:0:0:
275,16,9563,1,8,2:2:0:0:
122,60,9918,6,0,P|127:94|133:129,1,70,2|2,2:2|3:2,0:0:0:0:
61,188,10273,1,10,2:2:0:0:
61,188,10450,2,0,P|50:257|38:326,1,140,2|2,3:2|3:2,0:0:0:0:
109,384,10983,1,10,2:2:0:0:
259,313,11338,6,0,P|293:318|328:324,2,70,2|0|10,3:2|3:3|2:2,0:0:0:0:
235,219,11871,2,0,P|303:230|373:241,1,140,2|0,3:2|3:3,0:0:0:0:
418,324,12403,1,8,2:2:0:0:
508,183,12758,6,0,P|502:148|496:113,1,70,2|2,2:2|3:2,0:0:0:0:
430,46,13113,1,10,2:2:0:0:
430,46,13291,2,0,P|362:40|323:101,1,140,2|0,3:2|3:2,0:0:0:0:
242,140,13824,1,8,2:2:0:0:
242,140,14001,1,0,3:3:0:0:
164,82,14179,1,4,3:2:0:0:
68,214,14534,6,0,B|54:250|54:250|82:277,1,77.0000023498536,10|0,2:2|3:3,0:0:0:0:
151,343,14889,1,2,2:2:0:0:
151,343,15066,2,0,P|188:336|226:330,1,77.0000023498536,2|8,3:2|2:2,0:0:0:0:
314,370,15421,2,0,P|386:353|379:276,1,154.000004699707,2|0,3:2|3:3,0:0:0:0:
333,215,15954,1,8,2:2:0:0:
241,234,16131,2,0,B|166:217|211:163|124:143,1,154.000004699707,2|2,3:2|3:2,0:0:0:0:
43,188,16664,2,0,P|36:225|30:263,2,77.0000023498536,10|2|0,2:2|3:2|3:3,0:0:0:0:
70,29,17374,6,0,B|97:1|97:1|133:15,1,77.0000023498536,10|0,2:2|3:3,0:0:0:0:
214,71,17729,1,2,2:2:0:0:
214,71,17906,2,0,P|252:77|289:83,1,77.0000023498536,2|8,3:2|2:2,0:0:0:0:
375,45,18261,2,0,P|405:70|406:112,1,77.0000023498536,2|0,3:2|3:3,0:0:0:0:
486,147,18616,2,0,P|479:185|443:207,1,77.0000023498536,2|8,3:2|2:2,0:0:0:0:
355,185,18971,2,0,B|270:204|318:254|238:275,1,154.000004699707,2|10,3:2|2:2,0:0:0:0:
154,229,19504,1,10,2:2:0:0:
154,229,19593,1,8,2:2:0:0:
154,229,19682,1,10,2:2:0:0:
100,312,19859,6,0,P|65:306|31:300,1,70,6|0,3:2|3:3,0:0:0:0:
0,213,20214,1,10,2:2:0:0:
0,213,20392,2,0,P|34:141|97:140,1,140,2|0,3:2|3:3,0:0:0:0:
153,75,20924,2,0,P|187:68|221:63,1,70,8|2,2:2|3:2,0:0:0:0:
297,122,21279,5,2,2:2:0:0:
297,122,21457,2,0,P|290:156|285:190,1,70,2|10,3:2|2:2,0:0:0:0:
199,222,21812,2,0,P|211:290|222:359,1,140,2|2,3:2|3:2,0:0:0:0:
310,383,22344,1,10,2:2:0:0:
443,283,22699,6,0,P|478:288|513:294,2,70,2|0|10,3:2|3:3|2:2,0:0:0:0:
393,201,23231,2,0,P|412:138|479:122,1,140,2|0,3:2|3:3,0:0:0:0:
428,33,23764,5,8,2:2:0:0:
428,33,23942,2,0,P|359:44|289:54,1,140,2|2,3:2|3:2,0:0:0:0:
194,26,24474,1,10,2:2:0:0:
194,26,24652,2,0,P|205:94|215:164,1,140,2|2,3:2|3:2,0:0:0:0:
309,196,25184,1,10,2:2:0:0:
248,357,25540,6,0,P|213:351|178:346,1,70,2|0,3:2|3:3,0:0:0:0:
88,327,25895,1,10,2:2:0:0:
87,327,26072,2,0,P|21:315|0:251,1,140,0|2,3:3|3:2,0:0:0:0:
14,156,26605,1,10,2:2:0:0:
141,40,26960,6,0,P|145:74|151:109,1,70,2|2,2:2|3:2,0:0:0:0:
236,52,27315,1,10,2:2:0:0:
236,52,27492,2,0,P|308:62|320:129,1,140,2|2,3:2|3:2,0:0:0:0:
232,158,28025,1,10,2:2:0:0:
232,158,28202,1,2,3:2:0:0:
290,227,28380,6,0,P|285:261|279:296,1,70,2|2,3:2|3:2,0:0:0:0:
339,372,28735,1,10,2:2:0:0:
339,372,28912,2,0,P|406:354|417:289,1,140,2|2,3:2|3:2,0:0:0:0:
489,233,29445,1,8,2:2:0:0:
431,158,29622,6,0,P|442:89|452:19,1,140,2|2,3:2|3:2,0:0:0:0:
360,53,30155,1,10,2:2:0:0:
360,53,30332,1,0,3:3:0:0:
271,16,30510,2,0,P|236:21|201:26,1,70,8|0,2:2|3:3,0:0:0:0:
126,83,30865,1,0,3:3:0:0:
126,83,31042,1,8,2:2:0:0:
35,46,31220,5,6,3:2:0:0:
0,271,31753,1,2,3:2:0:0:
138,171,32108,1,0,3:3:0:0:
138,171,32285,2,0,B|190:181|170:211|224:225,1,105.000004005432,10|2,2:2|3:2,0:0:0:0:
489,331,33173,5,0,3:3:0:0:
489,331,33350,2,0,P|493:303|496:275,1,52.5000020027161,2|0,2:2|3:3,0:0:0:0:
412,229,33705,2,0,P|407:256|404:284,1,52.5000020027161,10|0,2:2|3:3,0:0:0:0:
339,354,34060,2,0,P|298:298|212:312,1,157.500006008148,2|2,3:2|3:2,0:0:0:0:
71,381,34948,5,2,3:2:0:0:
71,381,35125,2,0,P|66:353|63:325,1,52.5000020027161,8|0,2:2|0:0,0:0:0:0:
0,258,35480,2,0,P|6:205|15:154,1,105.000004005432,2|0,3:2|0:0,0:0:0:0:
129,24,36190,1,2,2:2:0:0:
129,24,36368,2,0,P|155:20|180:16,1,52.5000020027161,0|10,3:3|2:2,0:0:0:0:
337,88,36900,5,6,3:2:0:0:
141,205,37433,1,2,3:2:0:0:
191,360,37788,1,0,3:3:0:0:
191,360,37966,2,0,P|249:354|262:306,1,105.000004005432,10|2,2:2|3:2,0:0:0:0:
478,198,38853,5,0,3:3:0:0:
478,198,39031,2,0,P|474:172|470:147,1,52.5000020027161,2|0,2:2|3:3,0:0:0:0:
386,100,39386,2,0,P|381:125|377:151,1,52.5000020027161,10|0,2:2|3:3,0:0:0:0:
361,249,39741,1,2,3:2:0:0:
223,168,40096,5,2,2:2:0:0:
223,168,40273,2,0,P|171:176|119:184,1,105.000004005432,0|0,3:3|3:3,0:0:0:0:
36,230,40806,1,10,2:2:0:0:
36,230,40983,1,0,3:3:0:0:
1,141,41161,1,2,3:2:0:0:
127,24,41516,5,0,3:3:0:0:
127,24,41693,1,0,3:3:0:0:
212,71,41871,1,2,2:2:0:0:
511,12,42581,6,0,B|463:0|463:0|423:33,1,97.9999970092774,6|0,3:2|3:3,0:0:0:0:
393,119,42936,2,0,P|400:160|407:203,1,83.9999974365235,10|0,2:2|3:3,0:0:0:0:
475,277,43291,1,2,2:2:0:0:
475,277,43469,1,0,3:3:0:0:
421,356,43646,2,0,P|379:348|336:341,1,83.9999974365235,10|2,2:2|3:2,0:0:0:0:
253,379,44001,5,2,2:2:0:0:
184,316,44179,2,0,P|191:274|198:231,1,83.9999974365235,2|8,3:2|2:2,0:0:0:0:
220,145,44534,2,0,P|286:136|301:33,1,167.999994873047,2|2,3:2|3:2,0:0:0:0:
227,0,45066,2,0,P|185:7|142:14,1,83.9999974365235,8|2,2:2|3:2,0:0:0:0:
72,77,45421,5,2,3:2:0:0:
118,234,45776,1,10,2:2:0:0:
118,234,45954,1,2,3:2:0:0:
143,323,46131,2,0,P|184:329|225:336,1,83.9999974365235,2|2,2:2|3:2,0:0:0:0:
293,274,46486,2,0,P|286:232|279:191,1,83.9999974365235,10|2,2:2|3:2,0:0:0:0:
238,105,46841,5,2,2:2:0:0:
312,52,47019,2,0,P|357:65|376:105,1,83.9999974365235,2|8,3:2|2:2,0:0:0:0:
476,112,47374,2,0,P|397:124|376:201,1,167.999994873047,2|2,3:2|3:2,0:0:0:0:
455,259,47906,1,10,2:2:0:0:
455,259,48084,1,10,2:2:0:0:
429,347,48261,6,0,P|387:353|346:360,1,83.9999974365235,6|2,3:2|3:2,0:0:0:0:
266,315,48616,1,10,2:2:0:0:
266,315,48794,1,2,3:2:0:0:
168,334,48971,2,0,P|174:292|181:251,1,83.9999974365235,2|2,2:2|3:2,0:0:0:0:
254,181,49326,2,0,P|248:139|241:98,1,83.9999974365235,10|0,2:2|3:3,0:0:0:0:
164,37,49682,5,2,2:2:0:0:
77,70,49859,2,0,P|83:112|90:153,1,83.9999974365235,2|8,3:2|2:2,0:0:0:0:
1,185,50214,2,0,P|80:197|101:274,1,167.999994873047,2|2,3:2|3:2,0:0:0:0:
82,368,50747,5,8,2:2:0:0:
82,368,50924,2,0,P|40:374|-1:381,2,83.9999974365235,2|0|0,3:2|3:3|3:3,0:0:0:0:
172,339,51457,2,0,P|212:318|223:278,1,83.9999974365235,10|2,2:2|3:2,0:0:0:0:
281,211,51812,1,2,2:2:0:0:
281,211,51989,1,2,3:2:0:0:
205,156,52167,1,10,2:2:0:0:
327,39,52522,5,2,2:2:0:0:
327,39,52699,2,0,P|368:46|409:51,1,83.9999974365235,2|8,3:2|2:2,0:0:0:0:
490,108,53054,2,0,P|502:144|479:188,1,83.9999974365235,2|0,3:2|0:0,0:0:0:0:
395,229,53409,1,8,2:2:0:0:
470,299,53587,1,8,2:2:0:0:
470,299,53676,1,8,2:2:0:0:
470,299,53764,1,0,3:3:0:0:
396,357,53942,6,0,B|358:387|358:387|310:375,1,97.9999970092774,6|0,3:2|3:3,0:0:0:0:
234,324,54297,2,0,P|240:282|247:241,1,83.9999974365235,10|0,2:2|3:3,0:0:0:0:
313,172,54652,1,2,2:2:0:0:
313,172,54830,1,0,3:3:0:0:
288,82,55007,2,0,P|246:90|203:97,1,83.9999974365235,10|2,2:2|3:2,0:0:0:0:
132,34,55362,5,2,2:2:0:0:
49,90,55540,2,0,P|55:131|62:172,1,83.9999974365235,2|8,3:2|2:2,0:0:0:0:
44,268,55895,2,0,P|132:259|155:192,1,167.999994873047,2|2,3:2|3:2,0:0:0:0:
234,261,56427,2,0,P|276:268|319:275,1,83.9999974365235,10|2,2:2|3:2,0:0:0:0:
421,300,56782,5,2,3:2:0:0:
421,300,56960,1,2,3:2:0:0:
421,300,57137,2,0,P|423:252|400:221,1,83.9999974365235,10|0,2:2|3:3,0:0:0:0:
377,135,57492,1,2,2:2:0:0:
377,135,57670,1,2,3:2:0:0:
301,185,57847,1,10,2:2:0:0:
301,185,58025,1,2,3:2:0:0:
211,152,58202,6,0,P|169:158|128:165,1,83.9999974365235,2|2,2:2|3:2,0:0:0:0:
70,226,58557,1,10,2:2:0:0:
5,151,58735,2,0,P|18:85|116:73,1,167.999994873047,2|2,3:2|3:2,0:0:0:0:
182,5,59267,1,8,2:2:0:0:
214,0,59355,1,8,2:2:0:0:
244,15,59444,1,0,3:3:0:0:
259,41,59533,1,0,3:3:0:0:
262,73,59622,5,6,3:2:0:0:
417,8,59977,2,0,P|423:50|430:91,1,83.9999974365235,10|2,2:2|3:2,0:0:0:0:
509,146,60332,2,0,P|497:230|483:312,1,167.999994873047,2|10,2:2|2:2,0:0:0:0:
400,363,60865,5,2,3:2:0:0:
400,363,61042,1,2,2:2:0:0:
315,319,61220,2,0,P|273:325|232:332,1,83.9999974365235,2|8,3:2|2:2,0:0:0:0:
159,384,61575,2,0,P|93:371|81:273,1,167.999994873047,2|2,3:2|3:2,0:0:0:0:
145,217,62108,2,0,P|186:224|227:229,1,83.9999974365235,8|2,2:2|3:2,0:0:0:0:
314,175,62463,6,0,P|318:134|294:101,2,83.9999974365235,2|2|10,3:2|3:2|2:2,0:0:0:0:
186,57,63173,2,0,B|95:80|129:127|35:152,1,167.999994873047,2|10,2:2|2:2,0:0:0:0:
3,232,63705,1,2,3:2:0:0:
3,232,63883,1,2,2:2:0:0:
73,294,64060,2,0,P|115:300|156:307,1,83.9999974365235,2|8,3:2|2:2,0:0:0:0:
240,265,64415,1,2,3:2:0:0:
240,265,64593,1,8,2:2:0:0:
292,348,64770,6,0,P|312:344|333:341,1,41.9999987182618,0|0,3:2|3:2,0:0:0:0:
365,312,64948,1,8,2:2:0:0:
385,315,65036,1,8,2:2:0:0:
406,318,65125,1,8,0:0:0:0:
512,189,65303,6,0,P|504:147|499:106,1,80.5000015354157,4|0,3:2|3:3,0:0:0:0:
427,44,65658,1,10,2:2:0:0:
427,44,65835,2,0,B|348:60|378:98|286:120,1,161.000003070831,0|2,3:3|3:2,0:0:0:0:
198,104,66368,1,10,2:2:0:0:
319,204,66723,5,2,2:2:0:0:
372,279,66900,2,0,B|376:322|376:322|357:358,1,80.5000015354157,2|8,3:2|2:2,0:0:0:0:
273,384,67255,2,2,B|246:384|246:384|211:373|211:373|178:328|178:328|192:281,1,161.000003070831,2|0,3:2|3:3,0:1:0:0:
127,212,67788,1,8,2:2:0:0:
37,244,67966,6,0,P|25:164|11:84,1,161.000003070831,2|2,3:2|3:2,0:0:0:0:
62,1,68498,2,0,B|101:7|101:7|120:48,1,80.5000015354157,10|2,2:2|3:2,0:0:0:0:
208,24,68853,2,0,B|222:60|222:60|196:97,1,80.5000015354157,2|2,2:2|3:2,0:0:0:0:
114,132,69208,2,0,P|120:171|126:211,1,80.5000015354157,10|2,2:2|3:2,0:0:0:0:
186,289,69563,5,2,2:2:0:0:
270,252,69741,2,0,B|313:248|313:248|349:267,1,80.5000015354157,2|8,3:2|2:2,0:0:0:0:
406,340,70096,2,2,P|452:331|465:228,1,161.000003070831,2|0,3:2|3:3,0:2:0:0:
414,158,70628,1,8,2:2:0:0:
486,99,70806,5,10,2:2:0:0:
486,99,70895,1,8,0:0:0:0:
486,99,70983,2,0,L|502:17,2,80.5000015354157,4|2|10,3:2|3:2|2:2,0:0:0:0:
335,26,71693,2,0,P|266:29|239:119,1,161.000003070831,2|8,2:2|2:2,0:0:0:0:
298,177,72226,6,0,L|314:259,1,80.5000015354157,2|0,3:2|0:0,0:0:0:0:
232,314,72581,1,2,3:2:0:0:
232,314,72758,2,0,L|216:234,1,80.5000015354157,10|0,2:2|3:3,0:0:0:0:
134,285,73113,2,0,P|71:279|58:187,1,161.000003070831,2|8,2:2|2:2,0:0:0:0:
2,118,73646,1,2,3:2:0:0:
75,63,73824,6,0,B|112:50|112:50|147:83,1,80.5000015354157,0|2,3:3|3:2,0:0:0:0:
213,138,74179,2,0,B|250:151|250:151|285:118,1,80.5000015354157,10|2,2:2|3:2,0:0:0:0:
345,51,74534,1,2,2:2:0:0:
345,51,74711,1,2,3:2:0:0:
410,111,74889,2,0,B|423:148|423:148|390:183,1,80.5000015354157,10|2,2:2|3:2,0:0:0:0:
331,242,75244,5,2,2:2:0:0:
381,318,75421,2,0,L|457:290,1,80.5000015354157,2|8,3:2|2:2,0:0:0:0:
442,384,75776,2,2,L|290:328,1,161.000003070831,2|8,3:2|2:2,0:1:0:0:
197,361,76309,1,0,3:3:0:0:
197,361,76486,1,2,3:2:0:0:
107,343,76664,1,6,3:2:0:0:
1,4,81634,5,8,2:2:0:0:
1,4,81812,1,8,2:2:0:0:
65,68,81989,1,8,2:2:0:0:
158,46,82167,2,0,B|275:72|220:131|346:150,1,210,6|10,2:2|2:2,0:0:0:0:
473,326,84474,6,0,B|492:278|492:278|457:238,2,105,8|8|8,2:2|2:2|2:2,0:0:0:0:
386,372,85184,2,0,P|288:317|178:302,1,224,6|6,3:2|3:2,0:0:0:0:
22,365,86250,2,0,P|7:340|17:312,1,56,0|8,3:3|2:2,0:0:0:0:
46,232,86605,2,0,P|90:218|96:155,1,112,6|0,3:2|3:3,0:0:0:0:
23,105,87137,2,0,B|-5:72|-5:72|9:30,2,84,8|8|0,2:2|2:2|3:3,0:0:0:0:
164,22,88025,5,6,3:2:0:0:
164,22,88202,1,2,3:2:0:0:
235,85,88380,2,0,P|228:126|221:169,1,83.9999974365235,10|2,2:2|3:2,0:0:0:0:
165,242,88735,1,2,2:2:0:0:
165,242,88912,1,2,3:2:0:0:
189,331,89090,2,0,P|230:324|273:317,1,83.9999974365235,10|2,2:2|3:2,0:0:0:0:
345,381,89445,5,2,2:2:0:0:
423,334,89622,2,0,P|405:295|367:281,1,83.9999974365235,2|8,3:2|2:2,0:0:0:0:
299,215,89977,2,0,P|306:134|389:117,1,167.999994873047,2|2,3:2|3:2,0:0:0:0:
475,129,90510,5,8,2:2:0:0:
475,129,90687,2,0,P|481:170|488:211,2,83.9999974365235,2|0|2,3:2|3:3|3:2,0:0:0:0:
435,34,91220,2,0,P|393:27|352:20,1,83.9999974365235,10|2,2:2|3:2,0:0:0:0:
264,54,91575,2,0,P|180:40|98:26,1,167.999994873047,2|10,2:2|2:2,0:0:0:0:
13,93,92108,5,0,3:3:0:0:
13,93,92285,2,0,P|20:134|26:175,1,83.9999974365235,2|2,2:2|3:2,0:0:0:0:
105,240,92640,1,10,2:2:0:0:
105,240,92817,2,0,P|112:198|118:157,1,83.9999974365235,2|8,3:2|2:2,0:0:0:0:
207,120,93173,1,0,3:3:0:0:
292,186,93350,1,8,2:2:0:0:
292,186,93439,1,8,2:2:0:0:
292,186,93528,1,0,3:3:0:0:
378,145,93705,6,0,B|426:133|426:133|464:163,1,97.9999970092774,6|0,3:2|3:3,0:0:0:0:
512,245,94060,2,0,P|504:286|499:327,1,83.9999974365235,10|0,2:2|3:3,0:0:0:0:
410,377,94415,1,2,2:2:0:0:
410,377,94593,1,0,3:3:0:0:
327,325,94770,2,0,P|285:333|242:340,1,83.9999974365235,10|2,2:2|3:2,0:0:0:0:
156,368,95125,5,2,2:2:0:0:
171,273,95303,2,0,P|179:231|186:188,1,83.9999974365235,2|8,3:2|2:2,0:0:0:0:
272,148,95658,2,0,P|281:70|205:44,1,167.999994873047,2|2,3:2|3:2,0:0:0:0:
133,102,96190,2,0,P|91:109|48:116,1,83.9999974365235,10|2,2:2|3:2,0:0:0:0:
0,198,96545,5,2,3:2:0:0:
0,198,96723,1,2,3:2:0:0:
0,198,96900,2,0,P|-6:238|14:277,1,83.9999974365235,10|0,2:2|3:3,0:0:0:0:
102,316,97255,1,2,2:2:0:0:
102,316,97433,1,2,3:2:0:0:
179,255,97610,1,10,2:2:0:0:
179,255,97788,1,2,3:2:0:0:
251,311,97965,6,0,P|293:317|334:324,1,83.9999974365235,2|2,2:2|3:2,0:0:0:0:
412,375,98320,1,10,2:2:0:0:
500,344,98498,2,0,P|488:260|474:178,1,167.999994873047,2|0,3:2|3:3,0:0:0:0:
512,95,99031,1,8,2:2:0:0:
512,95,99208,1,8,2:2:0:0:
442,25,99386,6,0,P|391:38|370:71,1,83.9999974365235,6|2,3:2|3:2,0:0:0:0:
379,151,99741,1,10,2:2:0:0:
272,271,100096,2,0,P|230:265|189:258,1,83.9999974365235,2|2,2:2|3:2,0:0:0:0:
118,332,100451,2,0,P|55:312|50:242,1,125.999996154785,10|0,2:2|0:0,0:0:0:0:
74,230,100806,5,2,2:2:0:0:
22,140,100983,2,0,P|64:134|105:127,1,83.9999974365235,2|8,3:2|2:2,0:0:0:0:
146,43,101338,2,0,P|228:57|311:68,1,167.999994873047,2|2,3:2|3:2,0:0:0:0:
388,131,101871,2,0,P|395:175|377:209,1,83.9999974365235,8|2,2:2|3:2,0:0:0:0:
297,162,102226,6,0,P|255:167|214:174,2,83.9999974365235,0|2|10,3:3|3:2|2:2,0:0:0:0:
319,322,102936,2,0,P|277:327|236:335,1,83.9999974365235,2|2,2:2|3:2,0:0:0:0:
145,382,103291,2,0,P|137:340|132:299,1,83.9999974365235,10|2,2:2|3:2,0:0:0:0:
47,257,103646,5,2,2:2:0:0:
59,160,103824,2,0,P|67:118|72:77,1,83.9999974365235,2|8,3:2|2:2,0:0:0:0:
150,19,104179,1,2,3:2:0:0:
150,19,104356,2,0,P|192:24|233:31,1,83.9999974365235,8|2,2:2|3:2,0:0:0:0:
317,74,104711,1,10,2:2:0:0:
317,74,104888,1,2,3:2:0:0:
390,11,105066,1,6,3:2:0:0:
482,149,105421,6,0,B|496:185|496:185|468:212,1,77.0000023498536,10|0,2:2|3:3,0:0:0:0:
385,275,105776,1,2,2:2:0:0:
385,275,105953,2,0,P|378:238|372:200,1,77.0000023498536,2|8,3:2|2:2,0:0:0:0:
283,174,106309,2,0,P|211:188|195:259,1,154.000004699707,2|0,3:2|3:3,0:0:0:0:
255,327,106841,1,8,2:2:0:0:
172,382,107018,2,0,B|87:360|142:319|55:291,1,154.000004699707,2|2,3:2|3:2,0:0:0:0:
28,196,107551,2,0,P|21:159|15:121,2,77.0000023498536,10|2|0,2:2|3:2|3:3,0:0:0:0:
134,66,108261,6,0,B|170:52|170:52|197:80,1,77.0000023498536,10|0,2:2|3:3,0:0:0:0:
276,130,108616,1,2,2:2:0:0:
276,130,108793,2,0,P|314:124|351:118,1,77.0000023498536,2|8,3:2|2:2,0:0:0:0:
415,50,109148,2,0,P|445:75|446:117,1,77.0000023498536,2|0,3:2|0:0,0:0:0:0:
512,181,109503,2,0,P|505:219|469:241,1,77.0000023498536,2|8,3:2|2:2,0:0:0:0:
395,212,109858,2,0,B|312:231|354:283|278:302,1,154.000004699707,2|2,3:2|3:2,0:0:0:0:
193,279,110392,1,10,2:2:0:0:
193,279,110569,1,2,3:2:0:0:
132,352,110747,1,6,3:2:0:0:
21,242,111102,6,0,B|7:206|7:206|35:179,1,77.0000023498536,10|0,2:2|3:3,0:0:0:0:
114,116,111457,1,2,2:2:0:0:
114,116,111634,2,0,P|151:123|189:129,1,77.0000023498536,2|8,3:2|2:2,0:0:0:0:
250,203,111989,2,0,P|325:188|402:176,1,154.000004699707,2|0,3:2|3:3,0:0:0:0:
471,120,112522,1,8,2:2:0:0:
384,81,112699,2,0,B|305:63|331:17|249:-1,1,154.000004699707,2|2,3:2|3:2,0:0:0:0:
166,33,113232,2,0,P|129:26|91:20,2,77.0000023498536,10|2|0,2:2|3:2|3:3,0:0:0:0:
7,100,113942,6,0,B|-7:136|-7:136|21:163,1,77.0000023498536,10|0,2:2|3:3,0:0:0:0:
98,231,114297,1,2,2:2:0:0:
98,231,114474,2,0,P|92:269|86:306,1,77.0000023498536,2|8,3:2|2:2,0:0:0:0:
26,384,114829,1,6,3:2:0:0:
174,323,115184,5,14,2:2:0:0:
260,333,115362,1,14,2:2:0:0:
332,288,115540,1,14,2:2:0:0:
