osu file format v14

[General]
AudioFilename: 2-01 - KISS CANDY FLAVOR.mp3
AudioLeadIn: 2
PreviewTime: 0
Countdown: 0
SampleSet: None
StackLeniency: 0.7
Mode: 3
LetterboxInBreaks: 0
SpecialStyle: 0
WidescreenStoryboard: 1

[Editor]
Bookmarks: 38719,52075
DistanceSpacing: 0.8
BeatDivisor: 4
GridSize: 8
TimelineZoom: 2.1

[Metadata]
Title:KISS CANDY FLAVOR
TitleUnicode:KISS CANDY FLAVOR
Artist:
ArtistUnicode:カラフル・サウンズ・ポート
Creator:Applequestria
Version:Hitsounds
Source:Yolomania Vol. 2
Tags:
BeatmapID:1476510
BeatmapSetID:697044

[Difficulty]
HPDrainRate:8
CircleSize:4
OverallDifficulty:8
ApproachRate:10
SliderMultiplier:1.4
SliderTickRate:1

[Events]
//Background and Video events
0,0,"background.jpg",0,0
//Break Periods
2,33371,95084
//Storyboard Layer 0 (Background)
//Storyboard Layer 1 (Fail)
//Storyboard Layer 2 (Pass)
//Storyboard Layer 3 (Foreground)
//Storyboard Sound Samples

[TimingPoints]
295,410.958904109589,4,1,0,0,1,0

[HitObjects]
64,192,295,1,0,0:0:0:0:
192,192,705,1,0,0:0:0:0:
64,192,911,1,0,0:0:0:0:
64,192,1322,1,0,0:0:0:0:
192,192,1527,1,0,0:0:0:0:
64,192,1938,1,0,0:0:0:0:
192,192,2349,1,0,0:0:0:0:
64,192,2555,1,0,0:0:0:0:
64,192,2966,1,0,0:0:0:0:
192,192,3171,1,0,0:0:0:0:
64,192,3582,1,0,0:0:0:0:
192,192,3993,1,0,0:0:0:0:
64,192,4199,1,0,0:0:0:0:
64,192,4610,1,0,0:0:0:0:
192,192,4815,1,0,0:0:0:0:
64,192,5226,1,0,0:0:0:0:
192,192,5637,1,0,0:0:0:0:
64,192,5842,1,0,0:0:0:0:
64,192,6253,1,0,0:0:0:0:
192,192,6459,1,0,0:0:0:0:
64,192,6870,1,0,0:0:0:0:
192,192,7281,1,0,0:0:0:0:
64,192,7486,1,0,0:0:0:0:
64,192,7897,1,0,0:0:0:0:
192,192,8103,1,0,0:0:0:0:
64,192,8514,1,0,0:0:0:0:
192,192,8925,1,0,0:0:0:0:
64,192,9130,1,0,0:0:0:0:
64,192,9541,1,0,0:0:0:0:
192,192,9747,1,0,0:0:0:0:
64,192,10158,1,0,0:0:0:0:
192,192,10568,1,0,0:0:0:0:
64,192,10774,1,0,0:0:0:0:
64,192,11185,1,0,0:0:0:0:
192,192,11390,1,0,0:0:0:0:
64,192,11801,1,0,0:0:0:0:
192,192,12212,1,0,0:0:0:0:
64,192,12418,1,0,0:0:0:0:
64,192,12829,1,0,0:0:0:0:
192,192,13034,1,0,0:0:0:0:
64,192,13445,1,0,0:0:0:0:
192,192,13856,1,0,0:0:0:0:
64,192,14062,1,0,0:0:0:0:
64,192,14473,1,0,0:0:0:0:
192,192,14678,1,0,0:0:0:0:
64,192,15089,1,0,0:0:0:0:
192,192,15500,1,0,0:0:0:0:
64,192,15705,1,0,0:0:0:0:
64,192,16116,1,0,0:0:0:0:
192,192,16322,1,0,0:0:0:0:
64,192,16733,1,0,0:0:0:0:
192,192,17144,1,0,0:0:0:0:
64,192,17349,1,0,0:0:0:0:
64,192,17760,1,0,0:0:0:0:
192,192,17966,1,0,0:0:0:0:
64,192,18171,1,0,0:0:0:0:
448,192,18171,1,0,0:0:0:0:
192,192,18788,1,0,0:0:0:0:
64,192,18993,1,0,0:0:0:0:
448,192,18993,1,0,0:0:0:0:
192,192,19610,1,0,0:0:0:0:
192,192,19815,1,0,0:0:0:0:
192,192,19918,1,0,0:0:0:0:
64,192,20021,1,0,0:0:0:0:
448,192,20021,1,0,0:0:0:0:
192,192,20431,1,0,0:0:0:0:
64,192,20431,1,0,0:0:0:0:
64,192,20842,1,0,0:0:0:0:
64,192,21253,1,0,0:0:0:0:
192,192,21253,1,0,0:0:0:0:
64,192,21664,1,0,0:0:0:0:
64,192,22075,1,0,0:0:0:0:
192,192,22075,1,0,0:0:0:0:
64,192,22486,1,0,0:0:0:0:
64,192,22897,1,0,0:0:0:0:
192,192,22897,1,0,0:0:0:0:
64,192,23308,1,0,0:0:0:0:
64,192,23719,1,0,0:0:0:0:
192,192,23719,1,0,0:0:0:0:
64,192,24130,1,0,0:0:0:0:
64,192,24541,1,0,0:0:0:0:
192,192,24541,1,0,0:0:0:0:
64,192,24952,1,0,0:0:0:0:
64,192,25363,1,0,0:0:0:0:
192,192,25363,1,0,0:0:0:0:
64,192,25774,1,0,0:0:0:0:
64,192,26185,1,0,0:0:0:0:
192,192,26185,1,0,0:0:0:0:
64,192,26596,1,0,0:0:0:0:
64,192,27007,1,0,0:0:0:0:
192,192,27007,1,0,0:0:0:0:
64,192,27418,1,0,0:0:0:0:
64,192,27829,1,0,0:0:0:0:
192,192,27829,1,0,0:0:0:0:
64,192,28240,1,0,0:0:0:0:
64,192,28651,1,0,0:0:0:0:
192,192,28651,1,0,0:0:0:0:
64,192,29062,1,0,0:0:0:0:
64,192,29473,1,0,0:0:0:0:
192,192,29473,1,0,0:0:0:0:
64,192,29884,1,0,0:0:0:0:
64,192,30294,1,0,0:0:0:0:
192,192,30294,1,0,0:0:0:0:
64,192,30705,1,0,0:0:0:0:
64,192,31116,1,0,0:0:0:0:
192,192,31116,1,0,0:0:0:0:
64,192,31527,1,0,0:0:0:0:
448,192,31527,1,0,0:0:0:0:
64,192,33171,1,0,0:0:0:0:
448,192,33171,1,0,0:0:0:0:
192,192,33582,1,0,0:0:0:0:
64,192,33788,1,0,0:0:0:0:
64,192,34199,1,0,0:0:0:0:
192,192,34404,1,0,0:0:0:0:
64,192,34815,1,0,0:0:0:0:
192,192,35226,1,0,0:0:0:0:
64,192,35431,1,0,0:0:0:0:
64,192,35842,1,0,0:0:0:0:
192,192,36048,1,0,0:0:0:0:
64,192,36459,1,0,0:0:0:0:
192,192,36870,1,0,0:0:0:0:
64,192,37075,1,0,0:0:0:0:
64,192,37486,1,0,0:0:0:0:
192,192,37692,1,0,0:0:0:0:
64,192,38103,1,0,0:0:0:0:
192,192,38514,1,0,0:0:0:0:
64,192,38719,1,0,0:0:0:0:
64,192,39130,1,0,0:0:0:0:
192,192,39336,1,0,0:0:0:0:
64,192,39747,1,0,0:0:0:0:
192,192,40158,1,0,0:0:0:0:
64,192,40363,1,0,0:0:0:0:
64,192,40774,1,0,0:0:0:0:
192,192,40979,1,0,0:0:0:0:
64,192,41390,1,0,0:0:0:0:
192,192,41801,1,0,0:0:0:0:
64,192,42007,1,0,0:0:0:0:
64,192,42418,1,0,0:0:0:0:
192,192,42623,1,0,0:0:0:0:
64,192,43034,1,0,0:0:0:0:
192,192,43445,1,0,0:0:0:0:
64,192,43651,1,0,0:0:0:0:
64,192,44062,1,0,0:0:0:0:
192,192,44267,1,0,0:0:0:0:
64,192,44678,1,0,0:0:0:0:
192,192,45089,1,0,0:0:0:0:
64,192,45295,1,0,0:0:0:0:
64,192,45705,1,0,0:0:0:0:
192,192,45911,1,0,0:0:0:0:
64,192,46322,1,0,0:0:0:0:
448,192,46322,1,0,0:0:0:0:
192,192,46733,1,0,0:0:0:0:
64,192,46938,1,0,0:0:0:0:
64,192,47349,1,0,0:0:0:0:
192,192,47555,1,0,0:0:0:0:
64,192,47966,1,0,0:0:0:0:
192,192,48377,1,0,0:0:0:0:
64,192,48582,1,0,0:0:0:0:
64,192,48993,1,0,0:0:0:0:
192,192,49199,1,0,0:0:0:0:
64,192,49610,1,0,0:0:0:0:
192,192,50021,1,0,0:0:0:0:
64,192,50226,1,0,0:0:0:0:
64,192,50637,1,0,0:0:0:0:
192,192,50842,1,0,0:0:0:0:
64,192,51253,1,0,0:0:0:0:
192,192,51664,1,0,0:0:0:0:
64,192,51870,1,0,0:0:0:0:
64,192,52281,1,0,0:0:0:0:
192,192,52486,1,0,0:0:0:0:
64,192,52897,1,0,0:0:0:0:
192,192,53308,1,0,0:0:0:0:
64,192,53514,1,0,0:0:0:0:
64,192,53925,1,0,0:0:0:0:
192,192,54130,1,0,0:0:0:0:
64,192,54541,1,0,0:0:0:0:
192,192,54952,1,0,0:0:0:0:
64,192,55158,1,0,0:0:0:0:
64,192,55568,1,0,0:0:0:0:
192,192,55774,1,0,0:0:0:0:
64,192,56185,1,0,0:0:0:0:
192,192,56596,1,0,0:0:0:0:
64,192,56801,1,0,0:0:0:0:
64,192,57212,1,0,0:0:0:0:
192,192,57418,1,0,0:0:0:0:
64,192,57829,1,0,0:0:0:0:
192,192,58240,1,0,0:0:0:0:
64,192,58445,1,0,0:0:0:0:
64,192,58856,1,0,0:0:0:0:
192,192,59062,1,0,0:0:0:0:
64,192,59473,1,0,0:0:0:0:
448,192,59473,1,0,0:0:0:0:
64,192,59884,1,0,0:0:0:0:
192,192,59884,1,0,0:0:0:0:
64,192,60294,1,0,0:0:0:0:
64,192,60705,1,0,0:0:0:0:
192,192,60705,1,0,0:0:0:0:
64,192,61116,1,0,0:0:0:0:
64,192,61527,1,0,0:0:0:0:
192,192,61527,1,0,0:0:0:0:
64,192,61938,1,0,0:0:0:0:
64,192,62349,1,0,0:0:0:0:
192,192,62349,1,0,0:0:0:0:
64,192,62760,1,0,0:0:0:0:
64,192,63171,1,0,0:0:0:0:
192,192,63171,1,0,0:0:0:0:
64,192,63582,1,0,0:0:0:0:
192,192,63993,1,0,0:0:0:0:
64,192,63993,1,0,0:0:0:0:
64,192,64404,1,0,0:0:0:0:
64,192,64815,1,0,0:0:0:0:
192,192,64815,1,0,0:0:0:0:
64,192,65226,1,0,0:0:0:0:
64,192,65637,1,0,0:0:0:0:
192,192,65637,1,0,0:0:0:0:
64,192,66048,1,0,0:0:0:0:
64,192,66459,1,0,0:0:0:0:
192,192,66459,1,0,0:0:0:0:
64,192,66870,1,0,0:0:0:0:
64,192,67281,1,0,0:0:0:0:
192,192,67281,1,0,0:0:0:0:
64,192,67692,1,0,0:0:0:0:
448,192,67692,1,0,0:0:0:0:
64,192,68514,1,0,0:0:0:0:
448,192,68514,1,0,0:0:0:0:
64,192,69336,1,0,0:0:0:0:
448,192,69336,1,0,0:0:0:0:
64,192,69747,1,0,0:0:0:0:
192,192,69747,1,0,0:0:0:0:
64,192,70158,1,0,0:0:0:0:
64,192,70568,1,0,0:0:0:0:
192,192,70568,1,0,0:0:0:0:
64,192,70979,1,0,0:0:0:0:
64,192,71390,1,0,0:0:0:0:
192,192,71390,1,0,0:0:0:0:
64,192,71801,1,0,0:0:0:0:
64,192,72212,1,0,0:0:0:0:
192,192,72212,1,0,0:0:0:0:
64,192,72623,1,0,0:0:0:0:
64,192,73034,1,0,0:0:0:0:
192,192,73034,1,0,0:0:0:0:
64,192,73445,1,0,0:0:0:0:
192,192,73856,1,0,0:0:0:0:
64,192,73856,1,0,0:0:0:0:
64,192,74267,1,0,0:0:0:0:
64,192,74678,1,0,0:0:0:0:
192,192,74678,1,0,0:0:0:0:
64,192,75089,1,0,0:0:0:0:
64,192,75295,1,0,0:0:0:0:
192,192,75397,1,0,0:0:0:0:
64,192,75397,1,0,0:0:0:0:
64,192,75500,1,0,0:0:0:0:
192,192,75500,1,0,0:0:0:0:
448,192,75500,1,0,0:0:0:0:
64,192,75911,1,0,0:0:0:0:
448,192,75911,1,0,0:0:0:0:
64,192,76322,1,0,0:0:0:0:
192,192,76322,1,0,0:0:0:0:
64,192,76733,1,0,0:0:0:0:
64,192,77144,1,0,0:0:0:0:
192,192,77144,1,0,0:0:0:0:
64,192,77555,1,0,0:0:0:0:
64,192,77966,1,0,0:0:0:0:
192,192,77966,1,0,0:0:0:0:
64,192,78377,1,0,0:0:0:0:
64,192,78788,1,0,0:0:0:0:
192,192,78788,1,0,0:0:0:0:
64,192,79199,1,0,0:0:0:0:
64,192,79610,1,0,0:0:0:0:
192,192,79610,1,0,0:0:0:0:
64,192,80021,1,0,0:0:0:0:
64,192,80431,1,0,0:0:0:0:
192,192,80431,1,0,0:0:0:0:
64,192,80842,1,0,0:0:0:0:
64,192,81253,1,0,0:0:0:0:
192,192,81253,1,0,0:0:0:0:
64,192,81664,1,0,0:0:0:0:
192,192,81870,1,0,0:0:0:0:
192,192,81973,1,0,0:0:0:0:
64,192,82075,1,0,0:0:0:0:
192,192,82075,1,0,0:0:0:0:
64,192,82486,1,0,0:0:0:0:
448,192,82486,1,0,0:0:0:0:
64,192,82897,1,0,0:0:0:0:
192,192,82897,1,0,0:0:0:0:
64,192,83308,1,0,0:0:0:0:
64,192,83719,1,0,0:0:0:0:
192,192,83719,1,0,0:0:0:0:
64,192,84130,1,0,0:0:0:0:
64,192,84541,1,0,0:0:0:0:
192,192,84541,1,0,0:0:0:0:
64,192,84952,1,0,0:0:0:0:
64,192,85363,1,0,0:0:0:0:
192,192,85363,1,0,0:0:0:0:
64,192,85774,1,0,0:0:0:0:
64,192,86185,1,0,0:0:0:0:
192,192,86185,1,0,0:0:0:0:
64,192,86596,1,0,0:0:0:0:
64,192,87007,1,0,0:0:0:0:
192,192,87007,1,0,0:0:0:0:
64,192,87418,1,0,0:0:0:0:
64,192,87829,1,0,0:0:0:0:
192,192,87829,1,0,0:0:0:0:
64,192,88240,1,0,0:0:0:0:
64,192,88445,1,0,0:0:0:0:
64,192,88548,1,0,0:0:0:0:
192,192,88548,1,0,0:0:0:0:
64,192,88651,1,0,0:0:0:0:
192,192,88651,1,0,0:0:0:0:
448,192,88651,1,0,0:0:0:0:
64,192,89062,1,0,0:0:0:0:
448,192,89062,1,0,0:0:0:0:
64,192,89473,1,0,0:0:0:0:
192,192,89473,1,0,0:0:0:0:
64,192,89884,1,0,0:0:0:0:
64,192,90295,1,0,0:0:0:0:
192,192,90295,1,0,0:0:0:0:
64,192,90705,1,0,0:0:0:0:
64,192,91116,1,0,0:0:0:0:
192,192,91116,1,0,0:0:0:0:
64,192,91527,1,0,0:0:0:0:
64,192,91938,1,0,0:0:0:0:
192,192,91938,1,0,0:0:0:0:
64,192,92349,1,0,0:0:0:0:
64,192,92760,1,0,0:0:0:0:
192,192,92760,1,0,0:0:0:0:
64,192,93171,1,0,0:0:0:0:
64,192,93582,1,0,0:0:0:0:
192,192,93582,1,0,0:0:0:0:
64,192,93788,1,0,0:0:0:0:
448,192,93788,1,0,0:0:0:0:
192,192,94404,1,0,0:0:0:0:
64,192,94610,1,0,0:0:0:0:
448,192,94610,1,0,0:0:0:0:
64,192,95226,5,0,0:0:0:0:
192,192,95431,1,0,0:0:0:0:
192,192,95534,1,0,0:0:0:0:
64,192,95637,1,0,0:0:0:0:
448,192,95637,1,0,0:0:0:0:
64,192,96048,1,0,0:0:0:0:
192,192,96048,1,0,0:0:0:0:
64,192,96459,1,0,0:0:0:0:
64,192,96870,1,0,0:0:0:0:
192,192,96870,1,0,0:0:0:0:
64,192,97281,1,0,0:0:0:0:
64,192,97692,1,0,0:0:0:0:
192,192,97692,1,0,0:0:0:0:
64,192,98103,1,0,0:0:0:0:
64,192,98514,1,0,0:0:0:0:
192,192,98514,1,0,0:0:0:0:
64,192,98925,1,0,0:0:0:0:
64,192,99336,1,0,0:0:0:0:
192,192,99336,1,0,0:0:0:0:
64,192,99747,1,0,0:0:0:0:
64,192,100158,1,0,0:0:0:0:
192,192,100158,1,0,0:0:0:0:
64,192,100568,1,0,0:0:0:0:
64,192,100979,1,0,0:0:0:0:
192,192,100979,1,0,0:0:0:0:
64,192,101390,1,0,0:0:0:0:
64,192,101801,1,0,0:0:0:0:
192,192,101801,1,0,0:0:0:0:
64,192,102212,1,0,0:0:0:0:
64,192,102623,1,0,0:0:0:0:
192,192,102623,1,0,0:0:0:0:
64,192,103034,1,0,0:0:0:0:
64,192,103445,1,0,0:0:0:0:
192,192,103445,1,0,0:0:0:0:
64,192,103856,1,0,0:0:0:0:
64,192,104267,1,0,0:0:0:0:
192,192,104267,1,0,0:0:0:0:
64,192,104678,1,0,0:0:0:0:
64,192,105089,1,0,0:0:0:0:
192,192,105089,1,0,0:0:0:0:
64,192,105500,1,0,0:0:0:0:
64,192,105911,1,0,0:0:0:0:
192,192,105911,1,0,0:0:0:0:
64,192,106322,1,0,0:0:0:0:
64,192,106733,1,0,0:0:0:0:
192,192,106733,1,0,0:0:0:0:
64,192,107144,1,0,0:0:0:0:
448,192,107144,1,0,0:0:0:0:
64,192,108788,1,0,0:0:0:0:
448,192,108788,1,0,0:0:0:0:
192,192,109199,1,0,0:0:0:0:
64,192,109404,1,0,0:0:0:0:
64,192,109815,1,0,0:0:0:0:
192,192,110021,1,0,0:0:0:0:
64,192,110431,1,0,0:0:0:0:
192,192,110842,1,0,0:0:0:0:
64,192,111048,1,0,0:0:0:0:
64,192,111459,1,0,0:0:0:0:
192,192,111664,1,0,0:0:0:0:
64,192,112075,1,0,0:0:0:0:
192,192,112486,1,0,0:0:0:0:
64,192,112692,1,0,0:0:0:0:
64,192,113103,1,0,0:0:0:0:
192,192,113308,1,0,0:0:0:0:
64,192,114747,1,0,0:0:0:0:
192,192,114952,1,0,0:0:0:0:
64,192,115363,1,0,0:0:0:0:
192,192,115774,1,0,0:0:0:0:
64,192,115979,1,0,0:0:0:0:
64,192,116390,1,0,0:0:0:0:
192,192,116596,1,0,0:0:0:0:
64,192,117007,1,0,0:0:0:0:
192,192,117418,1,0,0:0:0:0:
64,192,117623,1,0,0:0:0:0:
64,192,118034,1,0,0:0:0:0:
192,192,118240,1,0,0:0:0:0:
64,192,118651,1,0,0:0:0:0:
192,192,119062,1,0,0:0:0:0:
64,192,119267,1,0,0:0:0:0:
64,192,119678,1,0,0:0:0:0:
192,192,119884,1,0,0:0:0:0:
64,192,120294,1,0,0:0:0:0:
192,192,120705,1,0,0:0:0:0:
64,192,120911,1,0,0:0:0:0:
64,192,121322,1,0,0:0:0:0:
192,192,121527,1,0,0:0:0:0:
192,192,121733,1,0,0:0:0:0:
192,192,121836,1,0,0:0:0:0:
64,192,121938,1,0,0:0:0:0:
448,192,121938,1,0,0:0:0:0:
192,192,122349,1,0,0:0:0:0:
64,192,122349,1,0,0:0:0:0:
64,192,122760,1,0,0:0:0:0:
64,192,123171,1,0,0:0:0:0:
192,192,123171,1,0,0:0:0:0:
64,192,123582,1,0,0:0:0:0:
64,192,123993,1,0,0:0:0:0:
192,192,123993,1,0,0:0:0:0:
64,192,124404,1,0,0:0:0:0:
64,192,124815,1,0,0:0:0:0:
192,192,124815,1,0,0:0:0:0:
64,192,125226,1,0,0:0:0:0:
64,192,125637,1,0,0:0:0:0:
192,192,125637,1,0,0:0:0:0:
64,192,126048,1,0,0:0:0:0:
64,192,126459,1,0,0:0:0:0:
192,192,126459,1,0,0:0:0:0:
64,192,126870,1,0,0:0:0:0:
64,192,127281,1,0,0:0:0:0:
192,192,127281,1,0,0:0:0:0:
64,192,127692,1,0,0:0:0:0:
64,192,128103,1,0,0:0:0:0:
192,192,128103,1,0,0:0:0:0:
64,192,128514,1,0,0:0:0:0:
64,192,128925,1,0,0:0:0:0:
192,192,128925,1,0,0:0:0:0:
64,192,129336,1,0,0:0:0:0:
64,192,129747,1,0,0:0:0:0:
192,192,129747,1,0,0:0:0:0:
192,192,129952,1,0,0:0:0:0:
192,192,130055,1,0,0:0:0:0:
64,192,130158,1,0,0:0:0:0:
448,192,130158,1,0,0:0:0:0:
192,192,130363,1,0,0:0:0:0:
192,192,130466,1,0,0:0:0:0:
64,192,130568,1,0,0:0:0:0:
448,192,130568,1,0,0:0:0:0:
192,192,130774,1,0,0:0:0:0:
192,192,130877,1,0,0:0:0:0:
64,192,130979,1,0,0:0:0:0:
448,192,130979,1,0,0:0:0:0:
192,192,131185,1,0,0:0:0:0:
192,192,131288,1,0,0:0:0:0:
64,192,131390,1,0,0:0:0:0:
448,192,131390,1,0,0:0:0:0:
192,192,131596,1,0,0:0:0:0:
192,192,131699,1,0,0:0:0:0:
64,192,131801,1,0,0:0:0:0:
448,192,131801,1,0,0:0:0:0:
192,192,132212,1,0,0:0:0:0:
64,192,132212,1,0,0:0:0:0:
64,192,132623,1,0,0:0:0:0:
64,192,133034,1,0,0:0:0:0:
192,192,133034,1,0,0:0:0:0:
64,192,133445,1,0,0:0:0:0:
64,192,133856,1,0,0:0:0:0:
192,192,133856,1,0,0:0:0:0:
64,192,134267,1,0,0:0:0:0:
64,192,134678,1,0,0:0:0:0:
192,192,134678,1,0,0:0:0:0:
64,192,135089,1,0,0:0:0:0:
192,192,135500,1,0,0:0:0:0:
64,192,135500,1,0,0:0:0:0:
64,192,135911,1,0,0:0:0:0:
64,192,136322,1,0,0:0:0:0:
192,192,136322,1,0,0:0:0:0:
64,192,136733,1,0,0:0:0:0:
64,192,137144,1,0,0:0:0:0:
192,192,137144,1,0,0:0:0:0:
64,192,137555,1,0,0:0:0:0:
64,192,137760,1,0,0:0:0:0:
192,192,137863,1,0,0:0:0:0:
64,192,137863,1,0,0:0:0:0:
64,192,137966,1,0,0:0:0:0:
192,192,137966,1,0,0:0:0:0:
448,192,137966,1,0,0:0:0:0:
64,192,138377,1,0,0:0:0:0:
448,192,138377,1,0,0:0:0:0:
64,192,138788,1,0,0:0:0:0:
192,192,138788,1,0,0:0:0:0:
64,192,139199,1,0,0:0:0:0:
192,192,139610,1,0,0:0:0:0:
64,192,139610,1,0,0:0:0:0:
64,192,140021,1,0,0:0:0:0:
64,192,140431,1,0,0:0:0:0:
192,192,140431,1,0,0:0:0:0:
64,192,140842,1,0,0:0:0:0:
64,192,141253,1,0,0:0:0:0:
192,192,141253,1,0,0:0:0:0:
64,192,141664,1,0,0:0:0:0:
64,192,142075,1,0,0:0:0:0:
192,192,142075,1,0,0:0:0:0:
64,192,142486,1,0,0:0:0:0:
64,192,142897,1,0,0:0:0:0:
192,192,142897,1,0,0:0:0:0:
64,192,143308,1,0,0:0:0:0:
64,192,143719,1,0,0:0:0:0:
192,192,143719,1,0,0:0:0:0:
64,192,144130,1,0,0:0:0:0:
192,192,144336,1,0,0:0:0:0:
192,192,144438,1,0,0:0:0:0:
64,192,144541,1,0,0:0:0:0:
192,192,144541,1,0,0:0:0:0:
64,192,144952,1,0,0:0:0:0:
448,192,144952,1,0,0:0:0:0:
64,192,145363,1,0,0:0:0:0:
192,192,145363,1,0,0:0:0:0:
64,192,145774,1,0,0:0:0:0:
64,192,146185,1,0,0:0:0:0:
192,192,146185,1,0,0:0:0:0:
64,192,146596,1,0,0:0:0:0:
64,192,147007,1,0,0:0:0:0:
192,192,147007,1,0,0:0:0:0:
64,192,147418,1,0,0:0:0:0:
64,192,147829,1,0,0:0:0:0:
192,192,147829,1,0,0:0:0:0:
64,192,148240,1,0,0:0:0:0:
64,192,148651,1,0,0:0:0:0:
192,192,148651,1,0,0:0:0:0:
64,192,149062,1,0,0:0:0:0:
64,192,149473,1,0,0:0:0:0:
192,192,149473,1,0,0:0:0:0:
64,192,149884,1,0,0:0:0:0:
64,192,150295,1,0,0:0:0:0:
192,192,150295,1,0,0:0:0:0:
64,192,150705,1,0,0:0:0:0:
64,192,150911,1,0,0:0:0:0:
192,192,151014,1,0,0:0:0:0:
64,192,151014,1,0,0:0:0:0:
64,192,151116,1,0,0:0:0:0:
192,192,151116,1,0,0:0:0:0:
448,192,151116,1,0,0:0:0:0:
64,192,151527,1,0,0:0:0:0:
448,192,151527,1,0,0:0:0:0:
64,192,151938,1,0,0:0:0:0:
192,192,151938,1,0,0:0:0:0:
64,192,152349,1,0,0:0:0:0:
64,192,152760,1,0,0:0:0:0:
192,192,152760,1,0,0:0:0:0:
64,192,153171,1,0,0:0:0:0:
64,192,153582,1,0,0:0:0:0:
192,192,153582,1,0,0:0:0:0:
64,192,153993,1,0,0:0:0:0:
64,192,154404,1,0,0:0:0:0:
192,192,154404,1,0,0:0:0:0:
64,192,154815,1,0,0:0:0:0:
64,192,155226,1,0,0:0:0:0:
192,192,155226,1,0,0:0:0:0:
64,192,155637,1,0,0:0:0:0:
64,192,156048,1,0,0:0:0:0:
192,192,156048,1,0,0:0:0:0:
64,192,156253,1,0,0:0:0:0:
448,192,156253,1,0,0:0:0:0:
192,192,156870,1,0,0:0:0:0:
64,192,157075,1,0,0:0:0:0:
448,192,157075,1,0,0:0:0:0:
64,192,157692,1,0,0:0:0:0:
192,192,157897,1,0,0:0:0:0:
192,192,158000,1,0,0:0:0:0:
64,192,158103,1,0,0:0:0:0:
448,192,158103,1,0,0:0:0:0:
64,192,158514,1,0,0:0:0:0:
192,192,158514,1,0,0:0:0:0:
64,192,158925,1,0,0:0:0:0:
64,192,159336,1,0,0:0:0:0:
192,192,159336,1,0,0:0:0:0:
64,192,159747,1,0,0:0:0:0:
64,192,160158,1,0,0:0:0:0:
192,192,160158,1,0,0:0:0:0:
64,192,160568,1,0,0:0:0:0:
64,192,160979,1,0,0:0:0:0:
192,192,160979,1,0,0:0:0:0:
64,192,161390,1,0,0:0:0:0:
64,192,161801,1,0,0:0:0:0:
192,192,161801,1,0,0:0:0:0:
64,192,162212,1,0,0:0:0:0:
64,192,162623,1,0,0:0:0:0:
192,192,162623,1,0,0:0:0:0:
64,192,163034,1,0,0:0:0:0:
64,192,163445,1,0,0:0:0:0:
192,192,163445,1,0,0:0:0:0:
64,192,163856,1,0,0:0:0:0:
64,192,164062,1,0,0:0:0:0:
64,192,164164,1,0,0:0:0:0:
192,192,164164,1,0,0:0:0:0:
64,192,164267,1,0,0:0:0:0:
192,192,164267,1,0,0:0:0:0:
448,192,164267,1,0,0:0:0:0:
64,192,164678,1,0,0:0:0:0:
448,192,164678,1,0,0:0:0:0:
64,192,165089,1,0,0:0:0:0:
192,192,165089,1,0,0:0:0:0:
64,192,165500,1,0,0:0:0:0:
64,192,165911,1,0,0:0:0:0:
192,192,165911,1,0,0:0:0:0:
64,192,166322,1,0,0:0:0:0:
64,192,166733,1,0,0:0:0:0:
192,192,166733,1,0,0:0:0:0:
64,192,167144,1,0,0:0:0:0:
64,192,167555,1,0,0:0:0:0:
192,192,167555,1,0,0:0:0:0:
64,192,167966,1,0,0:0:0:0:
64,192,168377,1,0,0:0:0:0:
192,192,168377,1,0,0:0:0:0:
64,192,168788,1,0,0:0:0:0:
64,192,169199,1,0,0:0:0:0:
192,192,169199,1,0,0:0:0:0:
64,192,169610,1,0,0:0:0:0:
448,192,169610,1,0,0:0:0:0:
64,192,170021,1,0,0:0:0:0:
192,192,170021,1,0,0:0:0:0:
64,192,170431,1,0,0:0:0:0:
192,192,170637,1,0,0:0:0:0:
192,192,170740,1,0,0:0:0:0:
64,192,170842,1,0,0:0:0:0:
192,192,170842,1,0,0:0:0:0:
64,192,171253,1,0,0:0:0:0:
448,192,171253,1,0,0:0:0:0:
192,192,171664,1,0,0:0:0:0:
64,192,171664,1,0,0:0:0:0:
64,192,172075,1,0,0:0:0:0:
64,192,172486,1,0,0:0:0:0:
192,192,172486,1,0,0:0:0:0:
64,192,172897,1,0,0:0:0:0:
64,192,173308,1,0,0:0:0:0:
192,192,173308,1,0,0:0:0:0:
64,192,173719,1,0,0:0:0:0:
64,192,174130,1,0,0:0:0:0:
192,192,174130,1,0,0:0:0:0:
64,192,174541,1,0,0:0:0:0:
64,192,174952,1,0,0:0:0:0:
192,192,174952,1,0,0:0:0:0:
64,192,175363,1,0,0:0:0:0:
64,192,175774,1,0,0:0:0:0:
192,192,175774,1,0,0:0:0:0:
64,192,176185,1,0,0:0:0:0:
64,192,176596,1,0,0:0:0:0:
192,192,176596,1,0,0:0:0:0:
64,192,177007,1,0,0:0:0:0:
64,192,177212,1,0,0:0:0:0:
192,192,177315,1,0,0:0:0:0:
64,192,177315,1,0,0:0:0:0:
64,192,177418,1,0,0:0:0:0:
192,192,177418,1,0,0:0:0:0:
448,192,177418,1,0,0:0:0:0:
64,192,177829,1,0,0:0:0:0:
448,192,177829,1,0,0:0:0:0:
192,192,178240,1,0,0:0:0:0:
64,192,178240,1,0,0:0:0:0:
64,192,178651,1,0,0:0:0:0:
64,192,179062,1,0,0:0:0:0:
192,192,179062,1,0,0:0:0:0:
64,192,179473,1,0,0:0:0:0:
64,192,179884,1,0,0:0:0:0:
192,192,179884,1,0,0:0:0:0:
64,192,180295,1,0,0:0:0:0:
64,192,180705,1,0,0:0:0:0:
192,192,180705,1,0,0:0:0:0:
64,192,181116,1,0,0:0:0:0:
64,192,181527,1,0,0:0:0:0:
192,192,181527,1,0,0:0:0:0:
64,192,181938,1,0,0:0:0:0:
64,192,182349,1,0,0:0:0:0:
192,192,182349,1,0,0:0:0:0:
64,192,182555,1,0,0:0:0:0:
448,192,182555,1,0,0:0:0:0:
192,192,183171,1,0,0:0:0:0:
64,192,183377,1,0,0:0:0:0:
448,192,183377,1,0,0:0:0:0:
64,192,183993,1,0,0:0:0:0:
448,192,184404,1,0,0:0:0:0:
64,192,184404,1,0,0:0:0:0:
192,192,184815,1,0,0:0:0:0:
64,192,185021,1,0,0:0:0:0:
64,192,185431,1,0,0:0:0:0:
192,192,185637,1,0,0:0:0:0:
64,192,186048,1,0,0:0:0:0:
192,192,186459,1,0,0:0:0:0:
64,192,186664,1,0,0:0:0:0:
64,192,187075,1,0,0:0:0:0:
192,192,187281,1,0,0:0:0:0:
64,192,187692,1,0,0:0:0:0:
192,192,188103,1,0,0:0:0:0:
64,192,188308,1,0,0:0:0:0:
64,192,188719,1,0,0:0:0:0:
192,192,188925,1,0,0:0:0:0:
64,192,189336,1,0,0:0:0:0:
192,192,189747,1,0,0:0:0:0:
64,192,189952,1,0,0:0:0:0:
64,192,190363,1,0,0:0:0:0:
192,192,190568,1,0,0:0:0:0:
192,192,190774,1,0,0:0:0:0:
192,192,190877,1,0,0:0:0:0:
64,192,190979,1,0,0:0:0:0:
448,192,190979,1,0,0:0:0:0:
64,192,192623,1,0,0:0:0:0:
448,192,192623,1,0,0:0:0:0:
64,192,194267,1,0,0:0:0:0:
448,192,194267,1,0,0:0:0:0:
64,192,194884,1,0,0:0:0:0:
448,192,194884,1,0,0:0:0:0:
64,192,195705,1,0,0:0:0:0:
448,192,195705,1,0,0:0:0:0:
192,192,197144,1,0,0:0:0:0:
192,192,197349,1,0,0:0:0:0:
192,192,197452,1,0,0:0:0:0:
64,192,197555,1,0,0:0:0:0:
448,192,197555,1,0,0:0:0:0:
