osu file format v14

[General]
AudioFilename: 2-01 - KISS CANDY FLAVOR.mp3
AudioLeadIn: 2
PreviewTime: 0
Countdown: 0
SampleSet: Normal
StackLeniency: 0.7
Mode: 3
LetterboxInBreaks: 0
SpecialStyle: 0
WidescreenStoryboard: 0

[Editor]
Bookmarks: 38719,52075
DistanceSpacing: 0.8
BeatDivisor: 4
GridSize: 8
TimelineZoom: 2.1

[Metadata]
Title:KISS CANDY FLAVOR
TitleUnicode:KISS CANDY FLAVOR
Artist:
ArtistUnicode:カラフル・サウンズ・ポート
Creator:Applequestria
Version:Applequestria
Source:Yolomania Vol. 2
Tags:
BeatmapID:1476509
BeatmapSetID:697044

[Difficulty]
HPDrainRate:8
CircleSize:4
OverallDifficulty:8
ApproachRate:10
SliderMultiplier:1.4
SliderTickRate:1

[Events]
//Background and Video events
0,0,"2-01 - KISS CANDY FLAVOR.png",0,0
//Break Periods
//Storyboard Layer 0 (Background)
//Storyboard Layer 1 (Fail)
//Storyboard Layer 2 (Pass)
//Storyboard Layer 3 (Foreground)
//Storyboard Layer 4 (Overlay)
//Storyboard Sound Samples

[TimingPoints]
295,410.958904109589,4,1,0,10,1,0

[HitObjects]
448,192,295,5,0,0:0:0:0:
64,192,295,128,0,397:0:0:0:0:
192,192,397,128,0,500:0:0:0:0:
320,192,500,128,0,603:0:0:0:0:
64,192,603,128,0,705:0:0:0:0:
192,192,705,128,0,808:0:0:0:0:
448,192,705,1,0,0:0:0:0:
320,192,808,128,0,911:0:0:0:0:
448,192,911,1,0,0:0:0:0:
64,192,911,128,0,1014:0:0:0:0:
192,192,1014,128,0,1116:0:0:0:0:
320,192,1116,128,0,1219:0:0:0:0:
64,192,1219,128,0,1322:0:0:0:0:
448,192,1322,1,0,0:0:0:0:
192,192,1322,128,0,1425:0:0:0:0:
320,192,1425,128,0,1527:0:0:0:0:
192,192,1527,1,0,0:0:0:0:
64,192,1527,1,0,0:0:0:0:
448,192,1630,128,0,1733:0:0:0:0:
192,192,1733,128,0,1836:0:0:0:0:
320,192,1836,128,0,1938:0:0:0:0:
448,192,1938,1,0,0:0:0:0:
64,192,1938,1,0,0:0:0:0:
320,192,2041,128,0,2144:0:0:0:0:
192,192,2144,128,0,2247:0:0:0:0:
448,192,2247,128,0,2349:0:0:0:0:
64,192,2349,1,0,0:0:0:0:
320,192,2349,128,0,2452:0:0:0:0:
192,192,2452,128,0,2555:0:0:0:0:
64,192,2555,1,0,0:0:0:0:
448,192,2555,128,0,2658:0:0:0:0:
320,192,2658,128,0,2760:0:0:0:0:
192,192,2760,128,0,2863:0:0:0:0:
448,192,2863,128,0,2966:0:0:0:0:
64,192,2966,1,0,0:0:0:0:
320,192,2966,128,0,3068:0:0:0:0:
192,192,3068,128,0,3171:0:0:0:0:
320,192,3171,1,0,0:0:0:0:
448,192,3171,1,0,0:0:0:0:
64,192,3274,128,0,3377:0:0:0:0:
320,192,3377,128,0,3479:0:0:0:0:
192,192,3479,128,0,3582:0:0:0:0:
64,192,3582,1,0,0:0:0:0:
448,192,3582,1,0,0:0:0:0:
192,192,3685,128,0,3788:0:0:0:0:
320,192,3788,128,0,3890:0:0:0:0:
64,192,3890,128,0,3993:0:0:0:0:
448,192,3993,1,0,0:0:0:0:
192,192,3993,128,0,4096:0:0:0:0:
320,192,4096,128,0,4199:0:0:0:0:
192,192,4199,1,0,0:0:0:0:
64,192,4199,128,0,4301:0:0:0:0:
448,192,4301,128,0,4404:0:0:0:0:
320,192,4404,128,0,4507:0:0:0:0:
64,192,4507,128,0,4610:0:0:0:0:
448,192,4610,1,0,0:0:0:0:
192,192,4610,128,0,4712:0:0:0:0:
320,192,4712,128,0,4815:0:0:0:0:
448,192,4815,1,0,0:0:0:0:
64,192,4815,1,0,0:0:0:0:
192,192,4918,128,0,5021:0:0:0:0:
64,192,5021,1,0,0:0:0:0:
320,192,5021,128,0,5123:0:0:0:0:
448,192,5123,128,0,5226:0:0:0:0:
64,192,5226,1,0,0:0:0:0:
192,192,5226,1,0,0:0:0:0:
320,192,5329,128,0,5431:0:0:0:0:
192,192,5431,128,0,5534:0:0:0:0:
448,192,5534,128,0,5637:0:0:0:0:
64,192,5637,1,0,0:0:0:0:
320,192,5637,128,0,5740:0:0:0:0:
192,192,5740,128,0,5842:0:0:0:0:
320,192,5842,1,0,0:0:0:0:
448,192,5842,128,0,5945:0:0:0:0:
64,192,5945,128,0,6048:0:0:0:0:
192,192,6048,128,0,6151:0:0:0:0:
448,192,6151,128,0,6253:0:0:0:0:
64,192,6253,1,0,0:0:0:0:
320,192,6253,128,0,6356:0:0:0:0:
192,192,6356,128,0,6459:0:0:0:0:
64,192,6459,1,0,0:0:0:0:
448,192,6459,1,0,0:0:0:0:
320,192,6562,128,0,6664:0:0:0:0:
448,192,6664,1,0,0:0:0:0:
192,192,6664,128,0,6767:0:0:0:0:
64,192,6767,128,0,6870:0:0:0:0:
448,192,6870,128,0,7281:0:0:0:0:
320,192,6870,1,0,0:0:0:0:
192,192,6973,128,0,7075:0:0:0:0:
64,192,7075,128,0,7178:0:0:0:0:
192,192,7178,128,0,7281:0:0:0:0:
320,192,7281,128,0,7486:0:0:0:0:
448,192,7384,128,0,7486:0:0:0:0:
64,192,7486,128,0,7897:0:0:0:0:
192,192,7486,128,0,7589:0:0:0:0:
320,192,7589,128,0,7692:0:0:0:0:
448,192,7692,128,0,7795:0:0:0:0:
320,192,7795,128,0,7897:0:0:0:0:
192,192,7897,128,0,8103:0:0:0:0:
448,192,7897,128,0,8000:0:0:0:0:
64,192,8000,128,0,8103:0:0:0:0:
448,192,8103,1,0,0:0:0:0:
320,192,8103,128,0,8308:0:0:0:0:
192,192,8205,128,0,8308:0:0:0:0:
448,192,8308,128,0,8514:0:0:0:0:
64,192,8308,128,0,8411:0:0:0:0:
320,192,8411,128,0,8514:0:0:0:0:
192,192,8514,128,0,8719:0:0:0:0:
64,192,8514,1,0,0:0:0:0:
320,192,8616,128,0,8719:0:0:0:0:
64,192,8719,128,0,8925:0:0:0:0:
448,192,8719,128,0,8822:0:0:0:0:
192,192,8822,128,0,8925:0:0:0:0:
320,192,8925,128,0,9130:0:0:0:0:
64,192,9027,128,0,9130:0:0:0:0:
448,192,9130,128,0,9336:0:0:0:0:
192,192,9130,128,0,9233:0:0:0:0:
320,192,9233,128,0,9336:0:0:0:0:
192,192,9336,128,0,9541:0:0:0:0:
64,192,9336,128,0,9438:0:0:0:0:
448,192,9438,128,0,9541:0:0:0:0:
320,192,9541,128,0,9644:0:0:0:0:
448,192,9644,128,0,9747:0:0:0:0:
192,192,9747,128,0,9952:0:0:0:0:
64,192,9747,1,0,0:0:0:0:
320,192,9849,128,0,9952:0:0:0:0:
448,192,9952,128,0,10055:0:0:0:0:
64,192,10055,128,0,10158:0:0:0:0:
320,192,10158,1,0,0:0:0:0:
448,192,10158,128,0,10568:0:0:0:0:
192,192,10260,128,0,10363:0:0:0:0:
64,192,10363,128,0,10466:0:0:0:0:
192,192,10466,128,0,10568:0:0:0:0:
320,192,10568,128,0,10774:0:0:0:0:
448,192,10671,128,0,10774:0:0:0:0:
192,192,10774,128,0,10877:0:0:0:0:
64,192,10774,128,0,11185:0:0:0:0:
320,192,10877,128,0,10979:0:0:0:0:
448,192,10979,128,0,11082:0:0:0:0:
320,192,11082,128,0,11185:0:0:0:0:
448,192,11185,128,0,11288:0:0:0:0:
192,192,11185,128,0,11390:0:0:0:0:
64,192,11288,128,0,11390:0:0:0:0:
320,192,11390,128,0,11596:0:0:0:0:
448,192,11390,1,0,0:0:0:0:
192,192,11493,128,0,11596:0:0:0:0:
64,192,11596,128,0,11699:0:0:0:0:
448,192,11596,128,0,11801:0:0:0:0:
320,192,11699,128,0,11801:0:0:0:0:
64,192,11801,1,0,0:0:0:0:
192,192,11801,128,0,12007:0:0:0:0:
320,192,11904,128,0,12007:0:0:0:0:
448,192,12007,128,0,12110:0:0:0:0:
64,192,12007,128,0,12212:0:0:0:0:
192,192,12110,128,0,12212:0:0:0:0:
320,192,12212,128,0,12418:0:0:0:0:
64,192,12315,128,0,12418:0:0:0:0:
192,192,12418,128,0,12521:0:0:0:0:
448,192,12418,128,0,12623:0:0:0:0:
320,192,12521,128,0,12623:0:0:0:0:
64,192,12623,128,0,12726:0:0:0:0:
192,192,12623,128,0,12829:0:0:0:0:
320,192,12726,128,0,12829:0:0:0:0:
448,192,12829,128,0,12931:0:0:0:0:
192,192,12931,128,0,13034:0:0:0:0:
320,192,13034,1,0,0:0:0:0:
64,192,13137,128,0,13240:0:0:0:0:
192,192,13240,128,0,13342:0:0:0:0:
320,192,13342,128,0,13445:0:0:0:0:
448,192,13445,128,0,13856:0:0:0:0:
64,192,13445,1,0,0:0:0:0:
192,192,13548,128,0,13651:0:0:0:0:
64,192,13651,128,0,13753:0:0:0:0:
192,192,13753,128,0,13856:0:0:0:0:
320,192,13856,128,0,14062:0:0:0:0:
448,192,13959,128,0,14062:0:0:0:0:
192,192,14062,128,0,14164:0:0:0:0:
64,192,14062,128,0,14473:0:0:0:0:
320,192,14164,128,0,14267:0:0:0:0:
448,192,14267,128,0,14370:0:0:0:0:
320,192,14370,128,0,14473:0:0:0:0:
448,192,14473,128,0,14575:0:0:0:0:
192,192,14473,128,0,14678:0:0:0:0:
64,192,14575,128,0,14678:0:0:0:0:
320,192,14678,128,0,14884:0:0:0:0:
448,192,14678,1,0,0:0:0:0:
192,192,14781,128,0,14884:0:0:0:0:
64,192,14884,128,0,14986:0:0:0:0:
448,192,14884,128,0,15089:0:0:0:0:
320,192,14986,128,0,15089:0:0:0:0:
64,192,15089,1,0,0:0:0:0:
192,192,15089,128,0,15294:0:0:0:0:
320,192,15192,128,0,15294:0:0:0:0:
448,192,15294,128,0,15397:0:0:0:0:
64,192,15294,128,0,15500:0:0:0:0:
192,192,15397,128,0,15500:0:0:0:0:
320,192,15500,128,0,15705:0:0:0:0:
64,192,15603,128,0,15705:0:0:0:0:
192,192,15705,128,0,15808:0:0:0:0:
448,192,15705,128,0,15911:0:0:0:0:
320,192,15808,128,0,15911:0:0:0:0:
64,192,15911,128,0,16014:0:0:0:0:
192,192,15911,128,0,16116:0:0:0:0:
320,192,16014,128,0,16116:0:0:0:0:
448,192,16116,128,0,16219:0:0:0:0:
192,192,16219,128,0,16322:0:0:0:0:
448,192,16322,128,0,16527:0:0:0:0:
320,192,16322,1,0,0:0:0:0:
64,192,16425,128,0,16527:0:0:0:0:
192,192,16527,128,0,16630:0:0:0:0:
320,192,16527,128,0,16733:0:0:0:0:
448,192,16630,128,0,16733:0:0:0:0:
64,192,16733,128,0,17349:0:0:0:0:
192,192,16733,128,0,16836:0:0:0:0:
320,192,16836,128,0,16938:0:0:0:0:
448,192,16938,128,0,17041:0:0:0:0:
192,192,17041,128,0,17144:0:0:0:0:
448,192,17144,128,0,17760:0:0:0:0:
320,192,17144,128,0,17247:0:0:0:0:
192,192,17247,128,0,17349:0:0:0:0:
320,192,17349,128,0,17452:0:0:0:0:
64,192,17452,128,0,17555:0:0:0:0:
320,192,17555,128,0,17966:0:0:0:0:
192,192,17555,128,0,17658:0:0:0:0:
64,192,17658,128,0,17760:0:0:0:0:
192,192,17760,128,0,17863:0:0:0:0:
448,192,17863,128,0,18068:0:0:0:0:
192,192,17966,128,0,18068:0:0:0:0:
64,192,17966,128,0,18068:0:0:0:0:
320,192,18068,128,0,18582:0:0:0:0:
64,192,18171,128,0,18685:0:0:0:0:
448,192,18171,128,0,18479:0:0:0:0:
192,192,18171,128,0,18685:0:0:0:0:
448,192,18582,128,0,18890:0:0:0:0:
320,192,18685,128,0,18788:0:0:0:0:
192,192,18788,128,0,18890:0:0:0:0:
64,192,18788,128,0,18890:0:0:0:0:
320,192,18890,128,0,19301:0:0:0:0:
64,192,18993,128,0,19507:0:0:0:0:
192,192,18993,128,0,19404:0:0:0:0:
448,192,18993,128,0,19507:0:0:0:0:
320,192,19404,128,0,19507:0:0:0:0:
192,192,19507,128,0,19610:0:0:0:0:
320,192,19610,128,0,19712:0:0:0:0:
64,192,19610,128,0,19815:0:0:0:0:
448,192,19610,128,0,19712:0:0:0:0:
192,192,19712,128,0,19815:0:0:0:0:
320,192,19815,128,0,19918:0:0:0:0:
448,192,19815,128,0,19918:0:0:0:0:
64,192,19918,128,0,20021:0:0:0:0:
192,192,19918,128,0,20021:0:0:0:0:
448,192,20021,128,0,20431:0:0:0:0:
320,192,20021,128,0,20123:0:0:0:0:
64,192,20226,1,0,0:0:0:0:
320,192,20329,1,0,0:0:0:0:
192,192,20431,128,0,20637:0:0:0:0:
64,192,20431,128,0,20534:0:0:0:0:
320,192,20637,128,0,21048:0:0:0:0:
448,192,20637,1,0,0:0:0:0:
64,192,20740,1,0,0:0:0:0:
448,192,20842,128,0,20945:0:0:0:0:
64,192,21048,128,0,21253:0:0:0:0:
192,192,21048,1,0,0:0:0:0:
448,192,21151,1,0,0:0:0:0:
320,192,21253,128,0,21459:0:0:0:0:
192,192,21253,128,0,21356:0:0:0:0:
448,192,21459,128,0,21870:0:0:0:0:
64,192,21459,1,0,0:0:0:0:
192,192,21562,1,0,0:0:0:0:
64,192,21664,128,0,21767:0:0:0:0:
192,192,21870,128,0,22075:0:0:0:0:
320,192,21870,1,0,0:0:0:0:
448,192,21973,1,0,0:0:0:0:
64,192,22075,128,0,22281:0:0:0:0:
320,192,22075,128,0,22178:0:0:0:0:
448,192,22281,128,0,22486:0:0:0:0:
192,192,22281,128,0,22384:0:0:0:0:
320,192,22384,128,0,22486:0:0:0:0:
64,192,22486,128,0,22692:0:0:0:0:
192,192,22486,128,0,22589:0:0:0:0:
448,192,22589,128,0,22692:0:0:0:0:
192,192,22692,128,0,22897:0:0:0:0:
320,192,22692,128,0,22794:0:0:0:0:
64,192,22794,128,0,22897:0:0:0:0:
320,192,22897,128,0,23103:0:0:0:0:
448,192,22897,128,0,23000:0:0:0:0:
192,192,23000,128,0,23103:0:0:0:0:
448,192,23103,128,0,23205:0:0:0:0:
64,192,23103,128,0,23205:0:0:0:0:
320,192,23205,128,0,23308:0:0:0:0:
448,192,23308,128,0,23719:0:0:0:0:
64,192,23308,128,0,23411:0:0:0:0:
64,192,23514,1,0,0:0:0:0:
320,192,23616,1,0,0:0:0:0:
192,192,23719,128,0,23925:0:0:0:0:
64,192,23719,128,0,23822:0:0:0:0:
320,192,23925,128,0,24336:0:0:0:0:
448,192,23925,1,0,0:0:0:0:
64,192,24027,1,0,0:0:0:0:
448,192,24130,128,0,24233:0:0:0:0:
64,192,24336,128,0,24541:0:0:0:0:
192,192,24336,1,0,0:0:0:0:
448,192,24438,1,0,0:0:0:0:
320,192,24541,128,0,24747:0:0:0:0:
192,192,24541,128,0,24644:0:0:0:0:
64,192,24747,1,0,0:0:0:0:
448,192,24747,128,0,25158:0:0:0:0:
192,192,24849,1,0,0:0:0:0:
64,192,24952,128,0,25055:0:0:0:0:
192,192,25158,128,0,25363:0:0:0:0:
320,192,25158,1,0,0:0:0:0:
448,192,25260,1,0,0:0:0:0:
64,192,25363,128,0,25568:0:0:0:0:
320,192,25363,128,0,25466:0:0:0:0:
448,192,25568,128,0,25774:0:0:0:0:
192,192,25568,128,0,25671:0:0:0:0:
320,192,25671,128,0,25774:0:0:0:0:
64,192,25774,128,0,25979:0:0:0:0:
192,192,25774,128,0,25877:0:0:0:0:
448,192,25877,128,0,25979:0:0:0:0:
192,192,25979,128,0,26185:0:0:0:0:
320,192,25979,128,0,26082:0:0:0:0:
64,192,26082,128,0,26185:0:0:0:0:
320,192,26185,128,0,26390:0:0:0:0:
448,192,26185,128,0,26288:0:0:0:0:
192,192,26288,128,0,26390:0:0:0:0:
64,192,26390,128,0,26493:0:0:0:0:
448,192,26390,128,0,26493:0:0:0:0:
320,192,26493,128,0,26596:0:0:0:0:
448,192,26596,128,0,27007:0:0:0:0:
64,192,26596,128,0,26699:0:0:0:0:
192,192,26801,1,0,0:0:0:0:
320,192,26904,1,0,0:0:0:0:
64,192,27007,128,0,27212:0:0:0:0:
192,192,27007,128,0,27110:0:0:0:0:
320,192,27212,128,0,27623:0:0:0:0:
448,192,27212,1,0,0:0:0:0:
192,192,27315,1,0,0:0:0:0:
448,192,27418,128,0,27521:0:0:0:0:
64,192,27623,128,0,27829:0:0:0:0:
192,192,27623,1,0,0:0:0:0:
320,192,27726,1,0,0:0:0:0:
448,192,27829,128,0,28034:0:0:0:0:
192,192,27829,128,0,27931:0:0:0:0:
192,192,28034,128,0,28445:0:0:0:0:
320,192,28034,1,0,0:0:0:0:
64,192,28137,1,0,0:0:0:0:
320,192,28240,128,0,28342:0:0:0:0:
448,192,28445,128,0,28651:0:0:0:0:
64,192,28445,1,0,0:0:0:0:
320,192,28548,1,0,0:0:0:0:
64,192,28651,128,0,28856:0:0:0:0:
192,192,28651,128,0,28753:0:0:0:0:
320,192,28856,128,0,29062:0:0:0:0:
448,192,28856,128,0,28959:0:0:0:0:
192,192,28959,128,0,29062:0:0:0:0:
64,192,29062,128,0,29267:0:0:0:0:
448,192,29062,128,0,29164:0:0:0:0:
320,192,29164,128,0,29267:0:0:0:0:
192,192,29267,128,0,29473:0:0:0:0:
448,192,29267,128,0,29370:0:0:0:0:
64,192,29370,128,0,29473:0:0:0:0:
320,192,29473,128,0,29678:0:0:0:0:
448,192,29473,128,0,29575:0:0:0:0:
192,192,29575,128,0,29678:0:0:0:0:
64,192,29678,128,0,29781:0:0:0:0:
448,192,29678,128,0,29781:0:0:0:0:
320,192,29781,128,0,29884:0:0:0:0:
448,192,29884,128,0,30294:0:0:0:0:
64,192,29884,128,0,29986:0:0:0:0:
192,192,30089,1,0,0:0:0:0:
320,192,30192,1,0,0:0:0:0:
192,192,30294,128,0,30397:0:0:0:0:
64,192,30294,128,0,30500:0:0:0:0:
448,192,30500,1,0,0:0:0:0:
320,192,30500,128,0,30911:0:0:0:0:
192,192,30603,1,0,0:0:0:0:
448,192,30705,128,0,30808:0:0:0:0:
192,192,30911,1,0,0:0:0:0:
64,192,30911,128,0,31116:0:0:0:0:
320,192,31014,1,0,0:0:0:0:
448,192,31116,128,0,31322:0:0:0:0:
192,192,31116,128,0,31219:0:0:0:0:
320,192,31322,1,0,0:0:0:0:
64,192,31322,128,0,31425:0:0:0:0:
192,192,31425,128,0,31527:0:0:0:0:
320,192,31527,1,0,0:0:0:0:
448,192,31527,1,0,0:0:0:0:
64,192,31527,128,0,31630:0:0:0:0:
320,192,31733,128,0,31836:0:0:0:0:
64,192,31733,1,0,0:0:0:0:
448,192,31836,128,0,31938:0:0:0:0:
192,192,31836,1,0,0:0:0:0:
64,192,31938,128,0,32041:0:0:0:0:
320,192,31938,1,0,0:0:0:0:
192,192,32041,128,0,32144:0:0:0:0:
320,192,32144,128,0,32247:0:0:0:0:
64,192,32144,1,0,0:0:0:0:
448,192,32247,128,0,32349:0:0:0:0:
192,192,32247,1,0,0:0:0:0:
64,192,32349,128,0,32452:0:0:0:0:
320,192,32349,1,0,0:0:0:0:
192,192,32452,128,0,32555:0:0:0:0:
320,192,32555,128,0,32658:0:0:0:0:
64,192,32555,128,0,32658:0:0:0:0:
192,192,32658,128,0,32760:0:0:0:0:
448,192,32658,128,0,32966:0:0:0:0:
64,192,32760,128,0,33068:0:0:0:0:
320,192,32760,128,0,32863:0:0:0:0:
192,192,32863,128,0,33068:0:0:0:0:
320,192,32966,128,0,33068:0:0:0:0:
448,192,33068,128,0,33171:0:0:0:0:
64,192,33171,128,0,33582:0:0:0:0:
192,192,33171,128,0,33377:0:0:0:0:
320,192,33171,1,0,0:0:0:0:
448,192,33582,128,0,33788:0:0:0:0:
320,192,33582,1,0,0:0:0:0:
320,192,33788,128,0,33993:0:0:0:0:
64,192,33788,128,0,33993:0:0:0:0:
192,192,33788,1,0,0:0:0:0:
192,192,33993,128,0,34404:0:0:0:0:
320,192,34199,128,0,34301:0:0:0:0:
448,192,34199,1,0,0:0:0:0:
448,192,34404,128,0,34610:0:0:0:0:
64,192,34404,128,0,34610:0:0:0:0:
320,192,34404,1,0,0:0:0:0:
320,192,34610,128,0,34815:0:0:0:0:
192,192,34610,128,0,34815:0:0:0:0:
64,192,34815,128,0,35021:0:0:0:0:
448,192,34815,128,0,35021:0:0:0:0:
192,192,35021,128,0,35226:0:0:0:0:
448,192,35226,128,0,35431:0:0:0:0:
320,192,35226,1,0,0:0:0:0:
320,192,35431,128,0,35637:0:0:0:0:
64,192,35431,128,0,35637:0:0:0:0:
192,192,35431,1,0,0:0:0:0:
448,192,35842,128,0,36253:0:0:0:0:
192,192,35842,128,0,36048:0:0:0:0:
64,192,35842,1,0,0:0:0:0:
192,192,36253,128,0,36459:0:0:0:0:
320,192,36459,128,0,36664:0:0:0:0:
64,192,36459,128,0,36870:0:0:0:0:
448,192,36459,1,0,0:0:0:0:
448,192,36870,128,0,37075:0:0:0:0:
320,192,36870,1,0,0:0:0:0:
192,192,37075,1,0,0:0:0:0:
64,192,37075,128,0,37281:0:0:0:0:
320,192,37075,128,0,37281:0:0:0:0:
192,192,37281,128,0,37692:0:0:0:0:
320,192,37486,128,0,37589:0:0:0:0:
448,192,37486,1,0,0:0:0:0:
320,192,37692,1,0,0:0:0:0:
64,192,37692,128,0,37897:0:0:0:0:
448,192,37692,128,0,37897:0:0:0:0:
192,192,37897,128,0,38103:0:0:0:0:
320,192,37897,128,0,38103:0:0:0:0:
64,192,38103,128,0,38308:0:0:0:0:
448,192,38103,128,0,38308:0:0:0:0:
192,192,38308,128,0,38514:0:0:0:0:
448,192,38514,1,0,0:0:0:0:
320,192,38514,128,0,38719:0:0:0:0:
192,192,38719,1,0,0:0:0:0:
64,192,38719,128,0,38925:0:0:0:0:
448,192,38719,128,0,39233:0:0:0:0:
320,192,38925,128,0,39233:0:0:0:0:
192,192,39130,1,0,0:0:0:0:
64,192,39199,128,0,39644:0:0:0:0:
192,192,39267,128,0,39438:0:0:0:0:
320,192,39336,128,0,39747:0:0:0:0:
448,192,39336,128,0,39644:0:0:0:0:
192,192,39541,128,0,39644:0:0:0:0:
64,192,39747,128,0,40158:0:0:0:0:
192,192,39747,128,0,39952:0:0:0:0:
448,192,39747,1,0,0:0:0:0:
448,192,40158,128,0,40363:0:0:0:0:
320,192,40158,1,0,0:0:0:0:
320,192,40363,128,0,40568:0:0:0:0:
64,192,40363,128,0,40568:0:0:0:0:
192,192,40363,1,0,0:0:0:0:
192,192,40568,128,0,40979:0:0:0:0:
320,192,40774,128,0,40877:0:0:0:0:
448,192,40774,1,0,0:0:0:0:
448,192,40979,128,0,41185:0:0:0:0:
64,192,40979,128,0,41185:0:0:0:0:
320,192,40979,1,0,0:0:0:0:
320,192,41185,128,0,41390:0:0:0:0:
192,192,41185,128,0,41390:0:0:0:0:
64,192,41390,128,0,41596:0:0:0:0:
448,192,41390,128,0,41596:0:0:0:0:
192,192,41596,128,0,41801:0:0:0:0:
448,192,41801,128,0,42007:0:0:0:0:
320,192,41801,1,0,0:0:0:0:
320,192,42007,128,0,42212:0:0:0:0:
64,192,42007,128,0,42212:0:0:0:0:
192,192,42007,1,0,0:0:0:0:
448,192,42418,128,0,42829:0:0:0:0:
192,192,42418,128,0,42623:0:0:0:0:
64,192,42418,1,0,0:0:0:0:
192,192,42829,128,0,43034:0:0:0:0:
320,192,43034,128,0,43240:0:0:0:0:
64,192,43034,128,0,43445:0:0:0:0:
448,192,43034,1,0,0:0:0:0:
448,192,43445,128,0,43651:0:0:0:0:
320,192,43445,1,0,0:0:0:0:
192,192,43651,1,0,0:0:0:0:
64,192,43651,128,0,43856:0:0:0:0:
320,192,43651,128,0,44062:0:0:0:0:
192,192,44062,128,0,44267:0:0:0:0:
64,192,44062,1,0,0:0:0:0:
320,192,44267,128,0,44473:0:0:0:0:
448,192,44267,128,0,44473:0:0:0:0:
192,192,44473,128,0,44678:0:0:0:0:
64,192,44473,128,0,44884:0:0:0:0:
448,192,44678,1,0,0:0:0:0:
192,192,44884,128,0,45089:0:0:0:0:
320,192,44884,128,0,44986:0:0:0:0:
320,192,45089,128,0,45295:0:0:0:0:
64,192,45089,1,0,0:0:0:0:
448,192,45089,128,0,45192:0:0:0:0:
192,192,45295,1,0,0:0:0:0:
448,192,45295,128,0,45500:0:0:0:0:
64,192,45295,128,0,46116:0:0:0:0:
192,192,45500,128,0,45808:0:0:0:0:
448,192,45705,128,0,45808:0:0:0:0:
320,192,45808,128,0,45911:0:0:0:0:
192,192,45911,128,0,46014:0:0:0:0:
320,192,46014,128,0,46116:0:0:0:0:
192,192,46116,128,0,46219:0:0:0:0:
448,192,46116,128,0,46219:0:0:0:0:
64,192,46219,128,0,46322:0:0:0:0:
448,192,46322,128,0,46733:0:0:0:0:
192,192,46322,1,0,0:0:0:0:
320,192,46322,128,0,46527:0:0:0:0:
192,192,46733,128,0,46938:0:0:0:0:
64,192,46733,1,0,0:0:0:0:
64,192,46938,128,0,47144:0:0:0:0:
448,192,46938,128,0,47144:0:0:0:0:
320,192,46938,1,0,0:0:0:0:
320,192,47144,128,0,47555:0:0:0:0:
64,192,47349,1,0,0:0:0:0:
192,192,47349,128,0,47452:0:0:0:0:
192,192,47555,128,0,47760:0:0:0:0:
64,192,47555,128,0,47760:0:0:0:0:
448,192,47555,1,0,0:0:0:0:
320,192,47760,128,0,47966:0:0:0:0:
448,192,47760,128,0,47966:0:0:0:0:
64,192,47966,128,0,48171:0:0:0:0:
192,192,47966,128,0,48171:0:0:0:0:
320,192,48171,128,0,48377:0:0:0:0:
448,192,48377,128,0,48582:0:0:0:0:
64,192,48377,1,0,0:0:0:0:
64,192,48582,128,0,48788:0:0:0:0:
320,192,48582,128,0,48788:0:0:0:0:
192,192,48582,1,0,0:0:0:0:
448,192,48993,128,0,49404:0:0:0:0:
192,192,48993,128,0,49199:0:0:0:0:
320,192,48993,1,0,0:0:0:0:
64,192,49199,1,0,0:0:0:0:
320,192,49404,128,0,49610:0:0:0:0:
448,192,49610,128,0,50021:0:0:0:0:
192,192,49610,128,0,49815:0:0:0:0:
64,192,49610,1,0,0:0:0:0:
192,192,50021,128,0,50226:0:0:0:0:
64,192,50021,1,0,0:0:0:0:
448,192,50226,128,0,50431:0:0:0:0:
64,192,50226,128,0,50431:0:0:0:0:
320,192,50226,1,0,0:0:0:0:
320,192,50431,128,0,50842:0:0:0:0:
192,192,50637,128,0,50740:0:0:0:0:
64,192,50637,1,0,0:0:0:0:
64,192,50842,128,0,51048:0:0:0:0:
192,192,50842,128,0,51048:0:0:0:0:
448,192,50842,1,0,0:0:0:0:
448,192,51048,128,0,51253:0:0:0:0:
320,192,51048,128,0,51253:0:0:0:0:
192,192,51253,128,0,51459:0:0:0:0:
64,192,51253,128,0,51459:0:0:0:0:
320,192,51459,128,0,51664:0:0:0:0:
448,192,51664,128,0,51870:0:0:0:0:
64,192,51664,1,0,0:0:0:0:
320,192,51870,128,0,52075:0:0:0:0:
64,192,51870,128,0,52384:0:0:0:0:
192,192,51870,1,0,0:0:0:0:
192,192,52075,128,0,52384:0:0:0:0:
320,192,52281,1,0,0:0:0:0:
448,192,52349,128,0,52795:0:0:0:0:
320,192,52418,128,0,52589:0:0:0:0:
64,192,52486,128,0,52795:0:0:0:0:
192,192,52486,128,0,52795:0:0:0:0:
320,192,52692,128,0,52897:0:0:0:0:
448,192,52897,128,0,53308:0:0:0:0:
64,192,52897,1,0,0:0:0:0:
192,192,52897,128,0,53103:0:0:0:0:
192,192,53308,128,0,53514:0:0:0:0:
64,192,53308,1,0,0:0:0:0:
448,192,53514,128,0,53719:0:0:0:0:
64,192,53514,128,0,53719:0:0:0:0:
320,192,53514,1,0,0:0:0:0:
320,192,53719,128,0,54130:0:0:0:0:
64,192,53925,1,0,0:0:0:0:
192,192,53925,128,0,54027:0:0:0:0:
64,192,54130,128,0,54336:0:0:0:0:
192,192,54130,128,0,54336:0:0:0:0:
448,192,54130,1,0,0:0:0:0:
448,192,54336,128,0,54541:0:0:0:0:
320,192,54336,128,0,54541:0:0:0:0:
192,192,54541,128,0,54747:0:0:0:0:
64,192,54541,128,0,54747:0:0:0:0:
320,192,54747,128,0,54952:0:0:0:0:
448,192,54952,128,0,55158:0:0:0:0:
64,192,54952,1,0,0:0:0:0:
320,192,55158,128,0,55363:0:0:0:0:
64,192,55158,128,0,55363:0:0:0:0:
192,192,55158,1,0,0:0:0:0:
192,192,55568,128,0,55774:0:0:0:0:
448,192,55568,128,0,55979:0:0:0:0:
320,192,55568,1,0,0:0:0:0:
320,192,55979,128,0,56185:0:0:0:0:
448,192,56185,128,0,56596:0:0:0:0:
64,192,56185,1,0,0:0:0:0:
192,192,56185,128,0,56390:0:0:0:0:
192,192,56596,128,0,56801:0:0:0:0:
64,192,56596,1,0,0:0:0:0:
64,192,56801,128,0,57007:0:0:0:0:
448,192,56801,128,0,57007:0:0:0:0:
320,192,56801,1,0,0:0:0:0:
320,192,57007,128,0,57418:0:0:0:0:
192,192,57212,128,0,57315:0:0:0:0:
64,192,57212,1,0,0:0:0:0:
192,192,57418,128,0,57623:0:0:0:0:
64,192,57418,128,0,57623:0:0:0:0:
448,192,57418,1,0,0:0:0:0:
320,192,57623,128,0,57829:0:0:0:0:
448,192,57623,128,0,57829:0:0:0:0:
64,192,57829,128,0,58034:0:0:0:0:
192,192,57829,128,0,58034:0:0:0:0:
320,192,58034,128,0,58240:0:0:0:0:
448,192,58240,128,0,58445:0:0:0:0:
64,192,58240,1,0,0:0:0:0:
64,192,58445,128,0,59370:0:0:0:0:
320,192,58445,128,0,58651:0:0:0:0:
192,192,58445,1,0,0:0:0:0:
192,192,58651,128,0,59164:0:0:0:0:
448,192,58856,1,0,0:0:0:0:
448,192,59062,128,0,59370:0:0:0:0:
320,192,59062,128,0,59267:0:0:0:0:
192,192,59267,128,0,59370:0:0:0:0:
320,192,59370,128,0,59473:0:0:0:0:
448,192,59473,1,0,0:0:0:0:
192,192,59473,1,0,0:0:0:0:
64,192,59473,128,0,59986:0:0:0:0:
448,192,59678,128,0,59884:0:0:0:0:
320,192,59884,128,0,60089:0:0:0:0:
192,192,59884,1,0,0:0:0:0:
192,192,60089,128,0,60294:0:0:0:0:
64,192,60089,128,0,60397:0:0:0:0:
448,192,60294,128,0,60500:0:0:0:0:
320,192,60294,1,0,0:0:0:0:
320,192,60500,128,0,60705:0:0:0:0:
64,192,60500,128,0,60808:0:0:0:0:
192,192,60705,128,0,60911:0:0:0:0:
448,192,60705,1,0,0:0:0:0:
64,192,60911,128,0,61219:0:0:0:0:
320,192,60911,128,0,61322:0:0:0:0:
192,192,61116,1,0,0:0:0:0:
64,192,61322,128,0,61527:0:0:0:0:
448,192,61322,128,0,61630:0:0:0:0:
192,192,61527,128,0,61733:0:0:0:0:
320,192,61527,1,0,0:0:0:0:
320,192,61733,128,0,62041:0:0:0:0:
448,192,61733,128,0,61836:0:0:0:0:
64,192,61938,1,0,0:0:0:0:
448,192,61938,128,0,62247:0:0:0:0:
320,192,62144,128,0,62452:0:0:0:0:
192,192,62247,128,0,62349:0:0:0:0:
64,192,62349,128,0,62658:0:0:0:0:
448,192,62349,128,0,62555:0:0:0:0:
192,192,62452,128,0,62658:0:0:0:0:
320,192,62555,128,0,62760:0:0:0:0:
448,192,62658,128,0,62760:0:0:0:0:
192,192,62760,128,0,63274:0:0:0:0:
64,192,62760,128,0,63171:0:0:0:0:
320,192,63171,128,0,63377:0:0:0:0:
448,192,63171,1,0,0:0:0:0:
448,192,63377,128,0,63788:0:0:0:0:
192,192,63377,128,0,63685:0:0:0:0:
64,192,63582,1,0,0:0:0:0:
192,192,63788,128,0,64096:0:0:0:0:
320,192,63788,128,0,63993:0:0:0:0:
64,192,63993,128,0,64199:0:0:0:0:
448,192,63993,1,0,0:0:0:0:
320,192,64199,128,0,64404:0:0:0:0:
192,192,64199,128,0,64301:0:0:0:0:
448,192,64404,128,0,64610:0:0:0:0:
192,192,64404,128,0,64507:0:0:0:0:
64,192,64404,1,0,0:0:0:0:
320,192,64610,128,0,64815:0:0:0:0:
64,192,64610,128,0,64712:0:0:0:0:
192,192,64815,128,0,65021:0:0:0:0:
448,192,64815,128,0,64918:0:0:0:0:
64,192,64815,1,0,0:0:0:0:
64,192,65021,128,0,66048:0:0:0:0:
320,192,65021,128,0,65123:0:0:0:0:
192,192,65226,1,0,0:0:0:0:
448,192,65431,128,0,65637:0:0:0:0:
320,192,65637,128,0,65842:0:0:0:0:
192,192,65637,1,0,0:0:0:0:
192,192,65842,128,0,66048:0:0:0:0:
320,192,66048,128,0,66562:0:0:0:0:
448,192,66048,128,0,66459:0:0:0:0:
192,192,66459,128,0,66664:0:0:0:0:
64,192,66459,1,0,0:0:0:0:
320,192,66664,128,0,66973:0:0:0:0:
64,192,66664,128,0,67075:0:0:0:0:
448,192,66870,1,0,0:0:0:0:
320,192,67075,128,0,67384:0:0:0:0:
448,192,67075,128,0,67281:0:0:0:0:
192,192,67281,128,0,67486:0:0:0:0:
64,192,67281,1,0,0:0:0:0:
320,192,67486,128,0,68205:0:0:0:0:
64,192,67486,128,0,67795:0:0:0:0:
192,192,67692,128,0,68000:0:0:0:0:
448,192,67692,128,0,68411:0:0:0:0:
64,192,67897,128,0,68411:0:0:0:0:
192,192,68103,128,0,68411:0:0:0:0:
320,192,68308,128,0,68822:0:0:0:0:
64,192,68514,128,0,69233:0:0:0:0:
192,192,68514,128,0,68822:0:0:0:0:
448,192,68514,128,0,69233:0:0:0:0:
192,192,68925,128,0,69233:0:0:0:0:
320,192,68925,128,0,69233:0:0:0:0:
64,192,69336,1,0,0:0:0:0:
192,192,69336,1,0,0:0:0:0:
448,192,69336,128,0,69747:0:0:0:0:
320,192,69541,128,0,69644:0:0:0:0:
64,192,69644,128,0,69747:0:0:0:0:
192,192,69747,128,0,69952:0:0:0:0:
320,192,69747,1,0,0:0:0:0:
320,192,69952,128,0,70363:0:0:0:0:
448,192,69952,128,0,70055:0:0:0:0:
64,192,70055,128,0,70158:0:0:0:0:
448,192,70158,1,0,0:0:0:0:
64,192,70363,128,0,70568:0:0:0:0:
192,192,70363,128,0,70466:0:0:0:0:
448,192,70466,128,0,70568:0:0:0:0:
320,192,70568,128,0,70774:0:0:0:0:
192,192,70568,1,0,0:0:0:0:
64,192,70774,128,0,70842:0:0:0:0:
448,192,70774,1,0,0:0:0:0:
192,192,70842,128,0,70911:0:0:0:0:
320,192,70911,128,0,70979:0:0:0:0:
448,192,70979,128,0,71082:0:0:0:0:
64,192,70979,128,0,71185:0:0:0:0:
192,192,71082,128,0,71185:0:0:0:0:
320,192,71185,128,0,71390:0:0:0:0:
448,192,71185,128,0,71288:0:0:0:0:
448,192,71390,128,0,71596:0:0:0:0:
64,192,71390,1,0,0:0:0:0:
320,192,71596,128,0,71801:0:0:0:0:
192,192,71596,128,0,71801:0:0:0:0:
64,192,71801,128,0,72007:0:0:0:0:
448,192,71801,1,0,0:0:0:0:
448,192,72007,128,0,72075:0:0:0:0:
320,192,72075,128,0,72144:0:0:0:0:
192,192,72144,128,0,72212:0:0:0:0:
64,192,72212,1,0,0:0:0:0:
448,192,72212,128,0,72418:0:0:0:0:
64,192,72418,128,0,72486:0:0:0:0:
192,192,72486,128,0,72555:0:0:0:0:
320,192,72555,128,0,72623:0:0:0:0:
448,192,72623,128,0,73034:0:0:0:0:
64,192,72623,1,0,0:0:0:0:
320,192,72829,128,0,72931:0:0:0:0:
64,192,72931,128,0,73034:0:0:0:0:
320,192,73034,1,0,0:0:0:0:
192,192,73034,128,0,73240:0:0:0:0:
448,192,73240,128,0,73342:0:0:0:0:
320,192,73240,128,0,73651:0:0:0:0:
64,192,73342,128,0,73445:0:0:0:0:
448,192,73445,1,0,0:0:0:0:
192,192,73651,128,0,73753:0:0:0:0:
64,192,73651,128,0,73856:0:0:0:0:
448,192,73753,128,0,73856:0:0:0:0:
192,192,73856,1,0,0:0:0:0:
320,192,73856,128,0,74062:0:0:0:0:
64,192,74062,128,0,74130:0:0:0:0:
448,192,74062,1,0,0:0:0:0:
192,192,74130,128,0,74199:0:0:0:0:
320,192,74199,128,0,74267:0:0:0:0:
64,192,74267,128,0,74473:0:0:0:0:
448,192,74267,128,0,74370:0:0:0:0:
192,192,74370,128,0,74473:0:0:0:0:
448,192,74473,128,0,74575:0:0:0:0:
320,192,74473,128,0,74678:0:0:0:0:
64,192,74678,1,0,0:0:0:0:
448,192,74678,128,0,74884:0:0:0:0:
192,192,74884,128,0,75089:0:0:0:0:
320,192,74884,128,0,75089:0:0:0:0:
448,192,75089,1,0,0:0:0:0:
64,192,75089,128,0,75295:0:0:0:0:
192,192,75295,1,0,0:0:0:0:
448,192,75295,128,0,75397:0:0:0:0:
320,192,75363,128,0,75466:0:0:0:0:
192,192,75431,128,0,75534:0:0:0:0:
64,192,75500,128,0,75808:0:0:0:0:
448,192,75500,128,0,75808:0:0:0:0:
320,192,75705,128,0,75808:0:0:0:0:
64,192,75911,128,0,76322:0:0:0:0:
320,192,75911,1,0,0:0:0:0:
448,192,75911,1,0,0:0:0:0:
192,192,76116,128,0,76219:0:0:0:0:
448,192,76219,128,0,76322:0:0:0:0:
192,192,76322,1,0,0:0:0:0:
320,192,76322,128,0,76527:0:0:0:0:
64,192,76527,128,0,76630:0:0:0:0:
192,192,76527,128,0,76938:0:0:0:0:
448,192,76630,128,0,76733:0:0:0:0:
64,192,76733,1,0,0:0:0:0:
320,192,76938,128,0,77041:0:0:0:0:
448,192,76938,128,0,77144:0:0:0:0:
64,192,77041,128,0,77144:0:0:0:0:
320,192,77144,1,0,0:0:0:0:
192,192,77144,128,0,77349:0:0:0:0:
448,192,77349,128,0,77418:0:0:0:0:
64,192,77349,1,0,0:0:0:0:
320,192,77418,128,0,77486:0:0:0:0:
192,192,77486,128,0,77555:0:0:0:0:
448,192,77555,128,0,77760:0:0:0:0:
64,192,77555,128,0,77658:0:0:0:0:
320,192,77658,128,0,77760:0:0:0:0:
64,192,77760,128,0,77863:0:0:0:0:
192,192,77760,128,0,77966:0:0:0:0:
448,192,77966,1,0,0:0:0:0:
64,192,77966,128,0,78171:0:0:0:0:
320,192,78171,128,0,78377:0:0:0:0:
192,192,78171,128,0,78377:0:0:0:0:
64,192,78377,1,0,0:0:0:0:
448,192,78377,128,0,78582:0:0:0:0:
64,192,78582,128,0,78651:0:0:0:0:
192,192,78651,128,0,78719:0:0:0:0:
320,192,78719,128,0,78788:0:0:0:0:
448,192,78788,128,0,78993:0:0:0:0:
64,192,78788,1,0,0:0:0:0:
192,192,78993,128,0,79062:0:0:0:0:
64,192,78993,1,0,0:0:0:0:
320,192,79062,128,0,79130:0:0:0:0:
448,192,79130,128,0,79199:0:0:0:0:
64,192,79199,128,0,79610:0:0:0:0:
192,192,79199,128,0,79301:0:0:0:0:
448,192,79404,128,0,79507:0:0:0:0:
320,192,79507,128,0,79610:0:0:0:0:
448,192,79610,128,0,80021:0:0:0:0:
192,192,79610,1,0,0:0:0:0:
320,192,79815,128,0,79918:0:0:0:0:
192,192,79918,128,0,80021:0:0:0:0:
320,192,80021,128,0,80431:0:0:0:0:
64,192,80021,1,0,0:0:0:0:
448,192,80123,128,0,80226:0:0:0:0:
192,192,80226,128,0,80329:0:0:0:0:
64,192,80329,128,0,80431:0:0:0:0:
192,192,80431,128,0,80842:0:0:0:0:
448,192,80431,1,0,0:0:0:0:
448,192,80637,128,0,80740:0:0:0:0:
320,192,80740,128,0,80842:0:0:0:0:
64,192,80842,128,0,81253:0:0:0:0:
448,192,80842,1,0,0:0:0:0:
192,192,81048,128,0,81151:0:0:0:0:
320,192,81151,128,0,81253:0:0:0:0:
192,192,81253,128,0,81870:0:0:0:0:
448,192,81253,1,0,0:0:0:0:
64,192,81356,128,0,81459:0:0:0:0:
320,192,81459,128,0,81562:0:0:0:0:
448,192,81562,128,0,82075:0:0:0:0:
320,192,81664,128,0,81973:0:0:0:0:
64,192,81664,128,0,81767:0:0:0:0:
64,192,81870,1,0,0:0:0:0:
192,192,81973,1,0,0:0:0:0:
320,192,82075,1,0,0:0:0:0:
64,192,82075,128,0,82281:0:0:0:0:
192,192,82178,128,0,82384:0:0:0:0:
448,192,82281,128,0,82384:0:0:0:0:
320,192,82384,128,0,82486:0:0:0:0:
64,192,82486,1,0,0:0:0:0:
192,192,82486,1,0,0:0:0:0:
448,192,82486,128,0,82897:0:0:0:0:
320,192,82692,128,0,82795:0:0:0:0:
64,192,82795,128,0,82897:0:0:0:0:
320,192,82897,128,0,83103:0:0:0:0:
192,192,82897,1,0,0:0:0:0:
64,192,83103,128,0,83514:0:0:0:0:
192,192,83103,128,0,83205:0:0:0:0:
448,192,83205,128,0,83308:0:0:0:0:
192,192,83308,1,0,0:0:0:0:
448,192,83514,128,0,83719:0:0:0:0:
320,192,83514,128,0,83616:0:0:0:0:
64,192,83616,128,0,83719:0:0:0:0:
192,192,83719,128,0,83925:0:0:0:0:
320,192,83719,1,0,0:0:0:0:
448,192,83925,128,0,83993:0:0:0:0:
64,192,83925,1,0,0:0:0:0:
320,192,83993,128,0,84062:0:0:0:0:
192,192,84062,128,0,84130:0:0:0:0:
448,192,84130,128,0,84336:0:0:0:0:
64,192,84130,128,0,84233:0:0:0:0:
320,192,84233,128,0,84336:0:0:0:0:
192,192,84336,128,0,84541:0:0:0:0:
64,192,84336,128,0,84438:0:0:0:0:
320,192,84541,128,0,84747:0:0:0:0:
448,192,84541,1,0,0:0:0:0:
64,192,84747,128,0,84952:0:0:0:0:
192,192,84747,128,0,84952:0:0:0:0:
320,192,84952,1,0,0:0:0:0:
448,192,84952,128,0,85158:0:0:0:0:
64,192,85158,128,0,85226:0:0:0:0:
192,192,85226,128,0,85295:0:0:0:0:
320,192,85295,128,0,85363:0:0:0:0:
64,192,85363,1,0,0:0:0:0:
448,192,85363,128,0,85568:0:0:0:0:
320,192,85568,128,0,85637:0:0:0:0:
192,192,85637,128,0,85705:0:0:0:0:
64,192,85705,128,0,85774:0:0:0:0:
448,192,85774,128,0,86185:0:0:0:0:
320,192,85774,1,0,0:0:0:0:
320,192,85979,128,0,86082:0:0:0:0:
64,192,86082,128,0,86185:0:0:0:0:
320,192,86185,128,0,86390:0:0:0:0:
192,192,86185,1,0,0:0:0:0:
64,192,86390,128,0,86801:0:0:0:0:
192,192,86390,128,0,86493:0:0:0:0:
448,192,86493,128,0,86596:0:0:0:0:
192,192,86596,1,0,0:0:0:0:
448,192,86801,128,0,87007:0:0:0:0:
320,192,86801,128,0,86904:0:0:0:0:
64,192,86904,128,0,87007:0:0:0:0:
192,192,87007,128,0,87212:0:0:0:0:
320,192,87007,1,0,0:0:0:0:
448,192,87212,128,0,87281:0:0:0:0:
64,192,87212,1,0,0:0:0:0:
320,192,87281,128,0,87349:0:0:0:0:
192,192,87349,128,0,87418:0:0:0:0:
448,192,87418,128,0,87623:0:0:0:0:
64,192,87418,128,0,87521:0:0:0:0:
320,192,87521,128,0,87623:0:0:0:0:
192,192,87623,128,0,87829:0:0:0:0:
64,192,87623,128,0,87726:0:0:0:0:
320,192,87829,128,0,88034:0:0:0:0:
448,192,87829,1,0,0:0:0:0:
192,192,88034,128,0,88240:0:0:0:0:
64,192,88034,128,0,88240:0:0:0:0:
320,192,88240,1,0,0:0:0:0:
448,192,88240,128,0,88342:0:0:0:0:
64,192,88445,128,0,88548:0:0:0:0:
448,192,88445,1,0,0:0:0:0:
192,192,88514,128,0,88616:0:0:0:0:
320,192,88582,128,0,88685:0:0:0:0:
64,192,88651,128,0,88959:0:0:0:0:
448,192,88651,128,0,88959:0:0:0:0:
320,192,88856,128,0,88959:0:0:0:0:
448,192,89062,1,0,0:0:0:0:
320,192,89062,1,0,0:0:0:0:
64,192,89062,128,0,89473:0:0:0:0:
192,192,89267,128,0,89370:0:0:0:0:
448,192,89370,128,0,89473:0:0:0:0:
192,192,89473,128,0,89678:0:0:0:0:
320,192,89473,1,0,0:0:0:0:
448,192,89678,128,0,90089:0:0:0:0:
320,192,89678,128,0,89781:0:0:0:0:
64,192,89781,128,0,89884:0:0:0:0:
320,192,89884,1,0,0:0:0:0:
64,192,90089,128,0,90295:0:0:0:0:
192,192,90089,128,0,90192:0:0:0:0:
448,192,90192,128,0,90295:0:0:0:0:
320,192,90295,128,0,90500:0:0:0:0:
192,192,90295,1,0,0:0:0:0:
64,192,90500,128,0,90568:0:0:0:0:
448,192,90500,1,0,0:0:0:0:
192,192,90568,128,0,90637:0:0:0:0:
320,192,90637,128,0,90705:0:0:0:0:
64,192,90705,128,0,90911:0:0:0:0:
448,192,90705,128,0,90808:0:0:0:0:
192,192,90808,128,0,90911:0:0:0:0:
320,192,90911,128,0,91116:0:0:0:0:
448,192,90911,128,0,91014:0:0:0:0:
192,192,91116,128,0,91322:0:0:0:0:
64,192,91116,1,0,0:0:0:0:
448,192,91322,128,0,91527:0:0:0:0:
320,192,91322,128,0,91527:0:0:0:0:
192,192,91527,1,0,0:0:0:0:
64,192,91527,128,0,91733:0:0:0:0:
448,192,91733,128,0,91801:0:0:0:0:
320,192,91801,128,0,91870:0:0:0:0:
192,192,91870,128,0,91938:0:0:0:0:
448,192,91938,1,0,0:0:0:0:
64,192,91938,128,0,92144:0:0:0:0:
192,192,92144,128,0,92212:0:0:0:0:
448,192,92144,1,0,0:0:0:0:
320,192,92212,128,0,92281:0:0:0:0:
448,192,92281,128,0,92349:0:0:0:0:
64,192,92349,128,0,92760:0:0:0:0:
192,192,92349,1,0,0:0:0:0:
448,192,92555,128,0,92658:0:0:0:0:
320,192,92658,128,0,92760:0:0:0:0:
448,192,92760,128,0,93171:0:0:0:0:
192,192,92760,1,0,0:0:0:0:
320,192,92966,128,0,93068:0:0:0:0:
192,192,93068,128,0,93171:0:0:0:0:
320,192,93171,128,0,93377:0:0:0:0:
64,192,93171,1,0,0:0:0:0:
448,192,93274,128,0,93479:0:0:0:0:
64,192,93377,128,0,93479:0:0:0:0:
192,192,93479,128,0,93685:0:0:0:0:
448,192,93582,128,0,93685:0:0:0:0:
64,192,93582,128,0,93685:0:0:0:0:
320,192,93582,128,0,94199:0:0:0:0:
192,192,93788,128,0,94301:0:0:0:0:
448,192,93788,128,0,94096:0:0:0:0:
64,192,93788,128,0,94301:0:0:0:0:
448,192,94199,128,0,94507:0:0:0:0:
320,192,94301,128,0,94404:0:0:0:0:
64,192,94404,128,0,94507:0:0:0:0:
192,192,94404,128,0,94507:0:0:0:0:
320,192,94507,128,0,94918:0:0:0:0:
448,192,94610,128,0,95123:0:0:0:0:
192,192,94610,128,0,95021:0:0:0:0:
64,192,94610,128,0,95123:0:0:0:0:
320,192,95021,128,0,95123:0:0:0:0:
192,192,95123,128,0,95226:0:0:0:0:
448,192,95226,128,0,95329:0:0:0:0:
64,192,95226,128,0,95431:0:0:0:0:
320,192,95226,128,0,95329:0:0:0:0:
192,192,95329,128,0,95431:0:0:0:0:
448,192,95431,128,0,95534:0:0:0:0:
320,192,95431,128,0,95534:0:0:0:0:
192,192,95534,128,0,95637:0:0:0:0:
64,192,95534,128,0,95637:0:0:0:0:
320,192,95637,128,0,95740:0:0:0:0:
448,192,95637,128,0,96048:0:0:0:0:
320,192,95842,1,0,0:0:0:0:
64,192,95945,1,0,0:0:0:0:
192,192,96048,128,0,96253:0:0:0:0:
320,192,96048,128,0,96151:0:0:0:0:
64,192,96253,128,0,96459:0:0:0:0:
448,192,96253,1,0,0:0:0:0:
320,192,96356,1,0,0:0:0:0:
192,192,96459,128,0,96562:0:0:0:0:
448,192,96664,128,0,96870:0:0:0:0:
320,192,96664,1,0,0:0:0:0:
64,192,96767,1,0,0:0:0:0:
320,192,96870,128,0,97075:0:0:0:0:
192,192,96870,128,0,96973:0:0:0:0:
64,192,97075,128,0,97486:0:0:0:0:
448,192,97075,1,0,0:0:0:0:
320,192,97178,1,0,0:0:0:0:
192,192,97281,128,0,97384:0:0:0:0:
448,192,97486,128,0,97692:0:0:0:0:
320,192,97486,1,0,0:0:0:0:
192,192,97589,1,0,0:0:0:0:
320,192,97692,128,0,97897:0:0:0:0:
64,192,97692,128,0,97795:0:0:0:0:
192,192,97897,128,0,98103:0:0:0:0:
448,192,97897,128,0,98000:0:0:0:0:
64,192,98000,128,0,98103:0:0:0:0:
320,192,98103,128,0,98308:0:0:0:0:
448,192,98103,128,0,98205:0:0:0:0:
192,192,98205,128,0,98308:0:0:0:0:
448,192,98308,128,0,98514:0:0:0:0:
64,192,98308,128,0,98411:0:0:0:0:
320,192,98411,128,0,98514:0:0:0:0:
64,192,98514,128,0,98719:0:0:0:0:
192,192,98514,128,0,98616:0:0:0:0:
448,192,98616,128,0,98719:0:0:0:0:
192,192,98719,128,0,98925:0:0:0:0:
320,192,98719,128,0,98822:0:0:0:0:
64,192,98822,128,0,98925:0:0:0:0:
448,192,98925,128,0,99336:0:0:0:0:
320,192,98925,128,0,99027:0:0:0:0:
320,192,99130,1,0,0:0:0:0:
64,192,99233,1,0,0:0:0:0:
320,192,99336,128,0,99438:0:0:0:0:
192,192,99336,128,0,99541:0:0:0:0:
448,192,99541,1,0,0:0:0:0:
64,192,99541,128,0,99747:0:0:0:0:
320,192,99644,1,0,0:0:0:0:
192,192,99747,128,0,99849:0:0:0:0:
320,192,99952,1,0,0:0:0:0:
448,192,99952,128,0,100158:0:0:0:0:
64,192,100055,1,0,0:0:0:0:
192,192,100158,128,0,100260:0:0:0:0:
320,192,100158,128,0,100363:0:0:0:0:
448,192,100363,1,0,0:0:0:0:
64,192,100363,128,0,100774:0:0:0:0:
320,192,100466,1,0,0:0:0:0:
192,192,100568,128,0,100671:0:0:0:0:
320,192,100774,1,0,0:0:0:0:
448,192,100774,128,0,100979:0:0:0:0:
192,192,100877,1,0,0:0:0:0:
64,192,100979,128,0,101082:0:0:0:0:
320,192,100979,128,0,101185:0:0:0:0:
448,192,101185,128,0,101288:0:0:0:0:
192,192,101185,128,0,101390:0:0:0:0:
64,192,101288,128,0,101390:0:0:0:0:
448,192,101390,128,0,101493:0:0:0:0:
320,192,101390,128,0,101596:0:0:0:0:
192,192,101493,128,0,101596:0:0:0:0:
64,192,101596,128,0,101699:0:0:0:0:
448,192,101596,128,0,101801:0:0:0:0:
320,192,101699,128,0,101801:0:0:0:0:
192,192,101801,128,0,101904:0:0:0:0:
64,192,101801,128,0,102007:0:0:0:0:
448,192,101904,128,0,102007:0:0:0:0:
320,192,102007,128,0,102110:0:0:0:0:
192,192,102007,128,0,102212:0:0:0:0:
64,192,102110,128,0,102212:0:0:0:0:
320,192,102212,128,0,102315:0:0:0:0:
448,192,102212,128,0,102623:0:0:0:0:
320,192,102418,1,0,0:0:0:0:
64,192,102521,1,0,0:0:0:0:
192,192,102623,128,0,102829:0:0:0:0:
320,192,102623,128,0,102726:0:0:0:0:
64,192,102829,128,0,103034:0:0:0:0:
448,192,102829,1,0,0:0:0:0:
320,192,102931,1,0,0:0:0:0:
192,192,103034,128,0,103137:0:0:0:0:
448,192,103240,128,0,103445:0:0:0:0:
320,192,103240,1,0,0:0:0:0:
64,192,103342,1,0,0:0:0:0:
320,192,103445,128,0,103651:0:0:0:0:
192,192,103445,128,0,103548:0:0:0:0:
64,192,103651,128,0,104062:0:0:0:0:
448,192,103651,1,0,0:0:0:0:
320,192,103753,1,0,0:0:0:0:
192,192,103856,128,0,103959:0:0:0:0:
448,192,104062,128,0,104267:0:0:0:0:
320,192,104062,1,0,0:0:0:0:
192,192,104164,1,0,0:0:0:0:
320,192,104267,128,0,104473:0:0:0:0:
64,192,104267,128,0,104370:0:0:0:0:
192,192,104473,128,0,104678:0:0:0:0:
448,192,104473,128,0,104575:0:0:0:0:
64,192,104575,128,0,104678:0:0:0:0:
320,192,104678,128,0,104884:0:0:0:0:
448,192,104678,128,0,104781:0:0:0:0:
192,192,104781,128,0,104884:0:0:0:0:
448,192,104884,128,0,105089:0:0:0:0:
64,192,104884,128,0,104986:0:0:0:0:
320,192,104986,128,0,105089:0:0:0:0:
64,192,105089,128,0,105295:0:0:0:0:
192,192,105089,128,0,105192:0:0:0:0:
448,192,105192,128,0,105295:0:0:0:0:
192,192,105294,128,0,105397:0:0:0:0:
320,192,105295,128,0,105397:0:0:0:0:
64,192,105397,128,0,105500:0:0:0:0:
320,192,105500,128,0,105603:0:0:0:0:
448,192,105500,128,0,105911:0:0:0:0:
64,192,105705,1,0,0:0:0:0:
320,192,105808,1,0,0:0:0:0:
192,192,105911,128,0,106116:0:0:0:0:
64,192,105911,128,0,106014:0:0:0:0:
320,192,106116,128,0,106527:0:0:0:0:
448,192,106116,1,0,0:0:0:0:
64,192,106219,1,0,0:0:0:0:
192,192,106322,128,0,106425:0:0:0:0:
64,192,106527,128,0,106733:0:0:0:0:
448,192,106527,1,0,0:0:0:0:
192,192,106630,1,0,0:0:0:0:
448,192,106733,128,0,106938:0:0:0:0:
320,192,106733,128,0,106836:0:0:0:0:
192,192,106938,128,0,107041:0:0:0:0:
64,192,106938,1,0,0:0:0:0:
320,192,107041,128,0,107144:0:0:0:0:
64,192,107144,1,0,0:0:0:0:
192,192,107144,1,0,0:0:0:0:
448,192,107144,128,0,107247:0:0:0:0:
64,192,107349,128,0,107452:0:0:0:0:
192,192,107349,1,0,0:0:0:0:
448,192,107452,1,0,0:0:0:0:
320,192,107452,128,0,107555:0:0:0:0:
64,192,107555,1,0,0:0:0:0:
192,192,107555,128,0,107658:0:0:0:0:
448,192,107658,128,0,107760:0:0:0:0:
192,192,107760,128,0,107863:0:0:0:0:
64,192,107760,1,0,0:0:0:0:
320,192,107863,128,0,107966:0:0:0:0:
448,192,107863,1,0,0:0:0:0:
192,192,107966,1,0,0:0:0:0:
64,192,107966,128,0,108068:0:0:0:0:
320,192,108068,128,0,108171:0:0:0:0:
192,192,108171,128,0,108274:0:0:0:0:
64,192,108171,128,0,108274:0:0:0:0:
448,192,108274,128,0,108479:0:0:0:0:
320,192,108274,128,0,108377:0:0:0:0:
64,192,108377,128,0,108685:0:0:0:0:
192,192,108377,128,0,108685:0:0:0:0:
320,192,108479,128,0,108582:0:0:0:0:
448,192,108582,128,0,108685:0:0:0:0:
320,192,108685,128,0,108788:0:0:0:0:
192,192,108788,128,0,108993:0:0:0:0:
64,192,108788,128,0,109199:0:0:0:0:
448,192,108788,1,0,0:0:0:0:
320,192,108993,128,0,109096:0:0:0:0:
448,192,109096,128,0,109199:0:0:0:0:
320,192,109199,128,0,109404:0:0:0:0:
192,192,109199,128,0,109301:0:0:0:0:
448,192,109301,128,0,109404:0:0:0:0:
192,192,109404,128,0,109610:0:0:0:0:
64,192,109404,128,0,109610:0:0:0:0:
448,192,109610,128,0,110021:0:0:0:0:
320,192,109815,128,0,109918:0:0:0:0:
192,192,109815,1,0,0:0:0:0:
64,192,110021,128,0,110226:0:0:0:0:
192,192,110021,128,0,110226:0:0:0:0:
320,192,110226,128,0,110431:0:0:0:0:
448,192,110226,128,0,110431:0:0:0:0:
64,192,110431,128,0,110637:0:0:0:0:
192,192,110431,128,0,110637:0:0:0:0:
448,192,110637,128,0,110842:0:0:0:0:
320,192,110637,128,0,110740:0:0:0:0:
192,192,110740,128,0,110842:0:0:0:0:
320,192,110842,128,0,111048:0:0:0:0:
64,192,110842,128,0,110945:0:0:0:0:
448,192,110945,128,0,111048:0:0:0:0:
192,192,111048,128,0,111253:0:0:0:0:
64,192,111048,128,0,111253:0:0:0:0:
64,192,111459,128,0,111870:0:0:0:0:
192,192,111459,128,0,111664:0:0:0:0:
448,192,111459,1,0,0:0:0:0:
320,192,111664,128,0,111767:0:0:0:0:
448,192,111767,128,0,111870:0:0:0:0:
320,192,111870,128,0,112075:0:0:0:0:
192,192,111870,128,0,112075:0:0:0:0:
448,192,112075,128,0,112486:0:0:0:0:
64,192,112075,128,0,112281:0:0:0:0:
192,192,112281,128,0,112384:0:0:0:0:
64,192,112384,128,0,112486:0:0:0:0:
192,192,112486,128,0,112692:0:0:0:0:
320,192,112486,128,0,112589:0:0:0:0:
64,192,112589,128,0,112692:0:0:0:0:
320,192,112692,128,0,112897:0:0:0:0:
448,192,112692,128,0,112897:0:0:0:0:
64,192,112897,128,0,113308:0:0:0:0:
192,192,113103,128,0,113205:0:0:0:0:
320,192,113103,1,0,0:0:0:0:
448,192,113308,128,0,113514:0:0:0:0:
320,192,113308,128,0,113411:0:0:0:0:
64,192,113411,1,0,0:0:0:0:
192,192,113514,128,0,113719:0:0:0:0:
320,192,113514,1,0,0:0:0:0:
64,192,113616,1,0,0:0:0:0:
320,192,113719,128,0,113925:0:0:0:0:
192,192,113822,1,0,0:0:0:0:
64,192,113925,128,0,114130:0:0:0:0:
448,192,113925,1,0,0:0:0:0:
192,192,114027,1,0,0:0:0:0:
320,192,114130,128,0,114336:0:0:0:0:
448,192,114130,1,0,0:0:0:0:
64,192,114233,1,0,0:0:0:0:
192,192,114336,128,0,114541:0:0:0:0:
448,192,114336,1,0,0:0:0:0:
320,192,114438,1,0,0:0:0:0:
64,192,114541,128,0,114849:0:0:0:0:
448,192,114541,1,0,0:0:0:0:
320,192,114644,128,0,114781:0:0:0:0:
192,192,114747,128,0,114849:0:0:0:0:
448,192,114815,128,0,115260:0:0:0:0:
320,192,114884,128,0,115055:0:0:0:0:
192,192,114952,128,0,115260:0:0:0:0:
64,192,114952,128,0,115260:0:0:0:0:
320,192,115158,128,0,115363:0:0:0:0:
448,192,115363,1,0,0:0:0:0:
64,192,115363,128,0,115774:0:0:0:0:
192,192,115363,128,0,115568:0:0:0:0:
320,192,115568,128,0,115671:0:0:0:0:
448,192,115671,128,0,115774:0:0:0:0:
192,192,115774,128,0,115877:0:0:0:0:
320,192,115774,128,0,115979:0:0:0:0:
448,192,115877,128,0,115979:0:0:0:0:
64,192,115979,128,0,116185:0:0:0:0:
192,192,115979,128,0,116185:0:0:0:0:
448,192,116185,128,0,116596:0:0:0:0:
320,192,116390,128,0,116493:0:0:0:0:
192,192,116390,1,0,0:0:0:0:
192,192,116596,128,0,116801:0:0:0:0:
64,192,116596,128,0,116801:0:0:0:0:
448,192,116801,128,0,117007:0:0:0:0:
320,192,116801,128,0,117007:0:0:0:0:
192,192,117007,128,0,117212:0:0:0:0:
64,192,117007,128,0,117212:0:0:0:0:
320,192,117212,128,0,117315:0:0:0:0:
448,192,117212,128,0,117418:0:0:0:0:
192,192,117315,128,0,117418:0:0:0:0:
64,192,117418,128,0,117521:0:0:0:0:
320,192,117418,128,0,117623:0:0:0:0:
448,192,117521,128,0,117623:0:0:0:0:
64,192,117623,128,0,117829:0:0:0:0:
192,192,117623,128,0,117829:0:0:0:0:
192,192,118034,128,0,118240:0:0:0:0:
64,192,118034,128,0,118445:0:0:0:0:
448,192,118034,1,0,0:0:0:0:
320,192,118240,128,0,118342:0:0:0:0:
448,192,118342,128,0,118445:0:0:0:0:
192,192,118445,128,0,118651:0:0:0:0:
320,192,118445,128,0,118651:0:0:0:0:
64,192,118651,128,0,118856:0:0:0:0:
448,192,118651,128,0,119062:0:0:0:0:
192,192,119062,128,0,119267:0:0:0:0:
320,192,119062,1,0,0:0:0:0:
448,192,119267,128,0,119678:0:0:0:0:
320,192,119267,128,0,119473:0:0:0:0:
64,192,119267,1,0,0:0:0:0:
320,192,119678,128,0,119884:0:0:0:0:
192,192,119678,1,0,0:0:0:0:
64,192,119884,128,0,120089:0:0:0:0:
192,192,119884,128,0,120089:0:0:0:0:
448,192,119884,1,0,0:0:0:0:
320,192,120089,128,0,120294:0:0:0:0:
448,192,120089,128,0,120500:0:0:0:0:
64,192,120294,1,0,0:0:0:0:
320,192,120500,128,0,120705:0:0:0:0:
192,192,120500,128,0,120603:0:0:0:0:
192,192,120705,128,0,120911:0:0:0:0:
64,192,120705,128,0,120808:0:0:0:0:
448,192,120705,1,0,0:0:0:0:
64,192,120911,128,0,121116:0:0:0:0:
448,192,120911,128,0,121836:0:0:0:0:
320,192,120911,1,0,0:0:0:0:
320,192,121116,128,0,121836:0:0:0:0:
192,192,121322,1,0,0:0:0:0:
192,192,121527,128,0,121733:0:0:0:0:
64,192,121527,1,0,0:0:0:0:
64,192,121733,128,0,121836:0:0:0:0:
192,192,121836,128,0,121938:0:0:0:0:
448,192,121938,1,0,0:0:0:0:
320,192,121938,1,0,0:0:0:0:
64,192,121938,128,0,122452:0:0:0:0:
192,192,122144,128,0,122349:0:0:0:0:
320,192,122349,128,0,122555:0:0:0:0:
448,192,122349,1,0,0:0:0:0:
64,192,122555,128,0,122863:0:0:0:0:
448,192,122555,128,0,122760:0:0:0:0:
192,192,122760,128,0,122966:0:0:0:0:
320,192,122760,1,0,0:0:0:0:
64,192,122966,128,0,123274:0:0:0:0:
320,192,122966,128,0,123171:0:0:0:0:
448,192,123171,128,0,123377:0:0:0:0:
192,192,123171,1,0,0:0:0:0:
64,192,123377,128,0,123685:0:0:0:0:
192,192,123377,128,0,123788:0:0:0:0:
320,192,123582,1,0,0:0:0:0:
320,192,123788,128,0,124096:0:0:0:0:
448,192,123788,128,0,123993:0:0:0:0:
192,192,123993,128,0,124199:0:0:0:0:
64,192,123993,1,0,0:0:0:0:
320,192,124199,128,0,124301:0:0:0:0:
64,192,124199,128,0,124610:0:0:0:0:
448,192,124404,1,0,0:0:0:0:
320,192,124404,128,0,124712:0:0:0:0:
192,192,124610,128,0,124815:0:0:0:0:
64,192,124712,128,0,124918:0:0:0:0:
320,192,124815,128,0,125021:0:0:0:0:
448,192,124815,128,0,125123:0:0:0:0:
192,192,124918,128,0,125226:0:0:0:0:
64,192,125021,128,0,125123:0:0:0:0:
320,192,125123,128,0,125226:0:0:0:0:
448,192,125226,128,0,125740:0:0:0:0:
64,192,125226,128,0,125637:0:0:0:0:
192,192,125637,128,0,125842:0:0:0:0:
320,192,125637,1,0,0:0:0:0:
448,192,125842,128,0,126151:0:0:0:0:
320,192,125842,128,0,126253:0:0:0:0:
64,192,126048,1,0,0:0:0:0:
448,192,126253,128,0,126562:0:0:0:0:
192,192,126253,128,0,126459:0:0:0:0:
64,192,126459,128,0,126664:0:0:0:0:
320,192,126459,1,0,0:0:0:0:
448,192,126664,128,0,126767:0:0:0:0:
320,192,126664,128,0,126870:0:0:0:0:
192,192,126870,128,0,127075:0:0:0:0:
448,192,126870,128,0,126973:0:0:0:0:
64,192,126870,1,0,0:0:0:0:
64,192,127075,128,0,127281:0:0:0:0:
320,192,127075,128,0,127178:0:0:0:0:
448,192,127281,128,0,127486:0:0:0:0:
192,192,127281,128,0,127384:0:0:0:0:
320,192,127281,1,0,0:0:0:0:
320,192,127486,128,0,128514:0:0:0:0:
64,192,127486,128,0,127589:0:0:0:0:
192,192,127692,1,0,0:0:0:0:
64,192,127897,128,0,128103:0:0:0:0:
192,192,128103,128,0,128308:0:0:0:0:
448,192,128103,1,0,0:0:0:0:
448,192,128308,128,0,128514:0:0:0:0:
192,192,128514,128,0,129027:0:0:0:0:
64,192,128514,128,0,128925:0:0:0:0:
320,192,128925,128,0,129130:0:0:0:0:
448,192,128925,1,0,0:0:0:0:
192,192,129130,128,0,129438:0:0:0:0:
448,192,129130,128,0,129541:0:0:0:0:
64,192,129336,1,0,0:0:0:0:
192,192,129541,128,0,129849:0:0:0:0:
320,192,129541,128,0,129644:0:0:0:0:
64,192,129747,128,0,130055:0:0:0:0:
320,192,129747,128,0,129952:0:0:0:0:
192,192,129952,128,0,130055:0:0:0:0:
448,192,129952,128,0,130466:0:0:0:0:
320,192,130055,128,0,130466:0:0:0:0:
64,192,130158,128,0,130260:0:0:0:0:
192,192,130158,128,0,130363:0:0:0:0:
64,192,130363,128,0,130877:0:0:0:0:
192,192,130466,128,0,130877:0:0:0:0:
320,192,130568,128,0,130774:0:0:0:0:
448,192,130568,128,0,130671:0:0:0:0:
448,192,130774,128,0,131288:0:0:0:0:
320,192,130877,128,0,131288:0:0:0:0:
192,192,130979,128,0,131185:0:0:0:0:
64,192,130979,128,0,131082:0:0:0:0:
64,192,131185,128,0,131699:0:0:0:0:
192,192,131288,128,0,131596:0:0:0:0:
320,192,131390,128,0,131493:0:0:0:0:
448,192,131390,128,0,131699:0:0:0:0:
320,192,131596,128,0,131699:0:0:0:0:
192,192,131699,128,0,131801:0:0:0:0:
448,192,131801,128,0,132212:0:0:0:0:
64,192,131801,1,0,0:0:0:0:
320,192,131801,1,0,0:0:0:0:
320,192,132007,128,0,132110:0:0:0:0:
64,192,132110,128,0,132212:0:0:0:0:
192,192,132212,128,0,132418:0:0:0:0:
320,192,132212,1,0,0:0:0:0:
64,192,132418,128,0,132829:0:0:0:0:
448,192,132418,128,0,132521:0:0:0:0:
192,192,132521,128,0,132623:0:0:0:0:
448,192,132623,1,0,0:0:0:0:
320,192,132829,128,0,133034:0:0:0:0:
448,192,132829,128,0,132931:0:0:0:0:
192,192,132931,128,0,133034:0:0:0:0:
448,192,133034,128,0,133240:0:0:0:0:
64,192,133034,1,0,0:0:0:0:
192,192,133240,128,0,133308:0:0:0:0:
64,192,133240,1,0,0:0:0:0:
320,192,133308,128,0,133377:0:0:0:0:
448,192,133377,128,0,133445:0:0:0:0:
192,192,133445,128,0,133651:0:0:0:0:
64,192,133445,128,0,133548:0:0:0:0:
320,192,133548,128,0,133651:0:0:0:0:
448,192,133651,128,0,133856:0:0:0:0:
64,192,133651,128,0,133753:0:0:0:0:
320,192,133856,128,0,134062:0:0:0:0:
192,192,133856,1,0,0:0:0:0:
64,192,134062,128,0,134267:0:0:0:0:
448,192,134062,128,0,134267:0:0:0:0:
192,192,134267,128,0,134473:0:0:0:0:
320,192,134267,1,0,0:0:0:0:
448,192,134473,128,0,134541:0:0:0:0:
320,192,134541,128,0,134610:0:0:0:0:
64,192,134610,128,0,134678:0:0:0:0:
448,192,134678,1,0,0:0:0:0:
192,192,134678,128,0,134884:0:0:0:0:
448,192,134884,128,0,134952:0:0:0:0:
320,192,134952,128,0,135021:0:0:0:0:
64,192,135021,128,0,135089:0:0:0:0:
448,192,135089,128,0,135500:0:0:0:0:
192,192,135089,1,0,0:0:0:0:
320,192,135295,128,0,135397:0:0:0:0:
64,192,135397,128,0,135500:0:0:0:0:
192,192,135500,128,0,135705:0:0:0:0:
320,192,135500,1,0,0:0:0:0:
64,192,135705,128,0,136116:0:0:0:0:
448,192,135705,128,0,135808:0:0:0:0:
192,192,135808,128,0,135911:0:0:0:0:
448,192,135911,1,0,0:0:0:0:
320,192,136116,128,0,136322:0:0:0:0:
448,192,136116,128,0,136219:0:0:0:0:
192,192,136219,128,0,136322:0:0:0:0:
448,192,136322,128,0,136527:0:0:0:0:
64,192,136322,1,0,0:0:0:0:
192,192,136527,128,0,136596:0:0:0:0:
64,192,136527,1,0,0:0:0:0:
320,192,136596,128,0,136664:0:0:0:0:
448,192,136664,128,0,136733:0:0:0:0:
192,192,136733,128,0,136938:0:0:0:0:
64,192,136733,128,0,136836:0:0:0:0:
320,192,136836,128,0,136938:0:0:0:0:
448,192,136938,128,0,137144:0:0:0:0:
64,192,136938,128,0,137041:0:0:0:0:
320,192,137144,128,0,137349:0:0:0:0:
192,192,137144,1,0,0:0:0:0:
448,192,137349,128,0,137555:0:0:0:0:
64,192,137349,128,0,137555:0:0:0:0:
192,192,137555,128,0,137760:0:0:0:0:
320,192,137555,1,0,0:0:0:0:
64,192,137760,1,0,0:0:0:0:
448,192,137760,128,0,137863:0:0:0:0:
320,192,137829,128,0,137931:0:0:0:0:
192,192,137897,128,0,138000:0:0:0:0:
64,192,137966,128,0,138274:0:0:0:0:
448,192,137966,128,0,138274:0:0:0:0:
192,192,138171,128,0,138274:0:0:0:0:
192,192,138377,1,0,0:0:0:0:
448,192,138377,1,0,0:0:0:0:
64,192,138377,128,0,138788:0:0:0:0:
192,192,138582,128,0,138685:0:0:0:0:
448,192,138685,128,0,138788:0:0:0:0:
192,192,138788,1,0,0:0:0:0:
320,192,138788,128,0,138993:0:0:0:0:
64,192,138993,128,0,139096:0:0:0:0:
448,192,138993,128,0,139404:0:0:0:0:
320,192,139096,128,0,139199:0:0:0:0:
64,192,139199,1,0,0:0:0:0:
64,192,139404,128,0,139507:0:0:0:0:
192,192,139404,128,0,139610:0:0:0:0:
320,192,139507,128,0,139610:0:0:0:0:
448,192,139610,1,0,0:0:0:0:
64,192,139610,128,0,139815:0:0:0:0:
320,192,139815,128,0,139884:0:0:0:0:
448,192,139815,1,0,0:0:0:0:
192,192,139884,128,0,139952:0:0:0:0:
64,192,139952,128,0,140021:0:0:0:0:
448,192,140021,128,0,140123:0:0:0:0:
320,192,140021,128,0,140226:0:0:0:0:
192,192,140123,128,0,140226:0:0:0:0:
448,192,140226,128,0,140329:0:0:0:0:
64,192,140226,128,0,140431:0:0:0:0:
320,192,140431,1,0,0:0:0:0:
192,192,140431,128,0,140637:0:0:0:0:
64,192,140637,128,0,140842:0:0:0:0:
448,192,140637,128,0,140842:0:0:0:0:
192,192,140842,1,0,0:0:0:0:
320,192,140842,128,0,141048:0:0:0:0:
64,192,141048,128,0,141116:0:0:0:0:
192,192,141116,128,0,141185:0:0:0:0:
448,192,141185,128,0,141253:0:0:0:0:
320,192,141253,128,0,141459:0:0:0:0:
64,192,141253,1,0,0:0:0:0:
64,192,141459,128,0,141527:0:0:0:0:
192,192,141527,128,0,141596:0:0:0:0:
448,192,141596,128,0,141664:0:0:0:0:
64,192,141664,128,0,142075:0:0:0:0:
320,192,141664,128,0,141767:0:0:0:0:
448,192,141870,128,0,141973:0:0:0:0:
192,192,141973,128,0,142075:0:0:0:0:
320,192,142075,128,0,142486:0:0:0:0:
448,192,142075,1,0,0:0:0:0:
64,192,142281,128,0,142384:0:0:0:0:
448,192,142384,128,0,142486:0:0:0:0:
192,192,142486,128,0,142897:0:0:0:0:
64,192,142486,1,0,0:0:0:0:
448,192,142589,128,0,142692:0:0:0:0:
320,192,142692,128,0,142795:0:0:0:0:
64,192,142795,128,0,142897:0:0:0:0:
448,192,142897,128,0,143308:0:0:0:0:
320,192,142897,1,0,0:0:0:0:
64,192,143103,128,0,143205:0:0:0:0:
192,192,143205,128,0,143308:0:0:0:0:
64,192,143308,128,0,143719:0:0:0:0:
320,192,143308,1,0,0:0:0:0:
192,192,143514,128,0,143616:0:0:0:0:
320,192,143616,128,0,143719:0:0:0:0:
192,192,143719,128,0,144336:0:0:0:0:
448,192,143719,1,0,0:0:0:0:
64,192,143822,128,0,143925:0:0:0:0:
320,192,143925,128,0,144027:0:0:0:0:
448,192,144027,128,0,144541:0:0:0:0:
320,192,144130,128,0,144438:0:0:0:0:
64,192,144130,128,0,144233:0:0:0:0:
64,192,144336,1,0,0:0:0:0:
192,192,144438,1,0,0:0:0:0:
320,192,144541,1,0,0:0:0:0:
64,192,144541,128,0,144747:0:0:0:0:
192,192,144644,128,0,144849:0:0:0:0:
448,192,144747,128,0,144849:0:0:0:0:
320,192,144849,128,0,144952:0:0:0:0:
64,192,144952,1,0,0:0:0:0:
192,192,144952,1,0,0:0:0:0:
448,192,144952,128,0,145363:0:0:0:0:
320,192,145158,128,0,145260:0:0:0:0:
64,192,145260,128,0,145363:0:0:0:0:
320,192,145363,128,0,145568:0:0:0:0:
192,192,145363,1,0,0:0:0:0:
64,192,145568,128,0,145979:0:0:0:0:
192,192,145568,128,0,145671:0:0:0:0:
448,192,145671,128,0,145774:0:0:0:0:
192,192,145774,1,0,0:0:0:0:
192,192,145979,128,0,146185:0:0:0:0:
448,192,145979,128,0,146082:0:0:0:0:
64,192,146082,128,0,146185:0:0:0:0:
320,192,146185,128,0,146390:0:0:0:0:
448,192,146185,1,0,0:0:0:0:
192,192,146390,128,0,146459:0:0:0:0:
448,192,146390,1,0,0:0:0:0:
64,192,146390,1,0,0:0:0:0:
320,192,146459,128,0,146527:0:0:0:0:
448,192,146527,128,0,146596:0:0:0:0:
192,192,146596,128,0,146801:0:0:0:0:
64,192,146596,128,0,146699:0:0:0:0:
320,192,146699,128,0,146801:0:0:0:0:
64,192,146801,128,0,147007:0:0:0:0:
448,192,146801,128,0,146904:0:0:0:0:
192,192,146904,128,0,147007:0:0:0:0:
320,192,147007,128,0,147212:0:0:0:0:
448,192,147007,1,0,0:0:0:0:
192,192,147212,128,0,147418:0:0:0:0:
64,192,147212,128,0,147418:0:0:0:0:
448,192,147418,128,0,147623:0:0:0:0:
320,192,147418,1,0,0:0:0:0:
64,192,147623,128,0,147692:0:0:0:0:
192,192,147692,128,0,147760:0:0:0:0:
320,192,147760,128,0,147829:0:0:0:0:
448,192,147829,128,0,148034:0:0:0:0:
64,192,147829,1,0,0:0:0:0:
320,192,148034,128,0,148103:0:0:0:0:
192,192,148103,128,0,148171:0:0:0:0:
64,192,148171,128,0,148240:0:0:0:0:
320,192,148240,1,0,0:0:0:0:
448,192,148240,128,0,148651:0:0:0:0:
320,192,148445,128,0,148548:0:0:0:0:
64,192,148548,128,0,148651:0:0:0:0:
192,192,148651,1,0,0:0:0:0:
320,192,148651,128,0,148856:0:0:0:0:
192,192,148856,128,0,148959:0:0:0:0:
64,192,148856,128,0,149267:0:0:0:0:
448,192,148959,128,0,149062:0:0:0:0:
192,192,149062,1,0,0:0:0:0:
448,192,149267,128,0,149370:0:0:0:0:
192,192,149267,128,0,149473:0:0:0:0:
64,192,149370,128,0,149473:0:0:0:0:
448,192,149473,1,0,0:0:0:0:
320,192,149473,128,0,149678:0:0:0:0:
448,192,149678,1,0,0:0:0:0:
192,192,149678,128,0,149747:0:0:0:0:
64,192,149678,1,0,0:0:0:0:
320,192,149747,128,0,149815:0:0:0:0:
448,192,149815,128,0,149884:0:0:0:0:
64,192,149884,128,0,149986:0:0:0:0:
192,192,149884,128,0,150089:0:0:0:0:
320,192,149986,128,0,150089:0:0:0:0:
448,192,150089,128,0,150192:0:0:0:0:
64,192,150089,128,0,150295:0:0:0:0:
192,192,150192,128,0,150295:0:0:0:0:
448,192,150295,1,0,0:0:0:0:
320,192,150295,128,0,150500:0:0:0:0:
64,192,150500,128,0,150705:0:0:0:0:
192,192,150500,128,0,150705:0:0:0:0:
320,192,150705,1,0,0:0:0:0:
448,192,150705,128,0,150808:0:0:0:0:
64,192,150911,128,0,151014:0:0:0:0:
448,192,150911,1,0,0:0:0:0:
192,192,150979,128,0,151082:0:0:0:0:
320,192,151048,128,0,151151:0:0:0:0:
64,192,151116,128,0,151425:0:0:0:0:
448,192,151116,128,0,151425:0:0:0:0:
320,192,151322,128,0,151425:0:0:0:0:
448,192,151527,1,0,0:0:0:0:
320,192,151527,1,0,0:0:0:0:
64,192,151527,128,0,151938:0:0:0:0:
192,192,151733,128,0,151836:0:0:0:0:
448,192,151836,128,0,151938:0:0:0:0:
192,192,151938,128,0,152144:0:0:0:0:
320,192,151938,1,0,0:0:0:0:
448,192,152144,128,0,152555:0:0:0:0:
320,192,152144,128,0,152247:0:0:0:0:
64,192,152247,128,0,152349:0:0:0:0:
320,192,152349,1,0,0:0:0:0:
320,192,152555,128,0,152760:0:0:0:0:
64,192,152555,128,0,152658:0:0:0:0:
448,192,152658,128,0,152760:0:0:0:0:
192,192,152760,128,0,152966:0:0:0:0:
64,192,152760,1,0,0:0:0:0:
320,192,152966,128,0,153034:0:0:0:0:
64,192,152966,1,0,0:0:0:0:
448,192,152966,1,0,0:0:0:0:
192,192,153034,128,0,153103:0:0:0:0:
64,192,153103,128,0,153171:0:0:0:0:
320,192,153171,128,0,153377:0:0:0:0:
448,192,153171,128,0,153274:0:0:0:0:
192,192,153274,128,0,153377:0:0:0:0:
448,192,153377,128,0,153582:0:0:0:0:
64,192,153377,128,0,153479:0:0:0:0:
320,192,153479,128,0,153582:0:0:0:0:
192,192,153582,128,0,153788:0:0:0:0:
64,192,153582,1,0,0:0:0:0:
320,192,153788,128,0,153993:0:0:0:0:
448,192,153788,128,0,153993:0:0:0:0:
64,192,153993,128,0,154199:0:0:0:0:
192,192,153993,1,0,0:0:0:0:
448,192,154199,128,0,154267:0:0:0:0:
320,192,154267,128,0,154336:0:0:0:0:
192,192,154336,128,0,154404:0:0:0:0:
64,192,154404,128,0,154610:0:0:0:0:
448,192,154404,1,0,0:0:0:0:
192,192,154610,128,0,154678:0:0:0:0:
448,192,154610,1,0,0:0:0:0:
320,192,154678,128,0,154747:0:0:0:0:
448,192,154747,128,0,154815:0:0:0:0:
192,192,154815,1,0,0:0:0:0:
64,192,154815,128,0,155226:0:0:0:0:
448,192,155021,128,0,155123:0:0:0:0:
320,192,155123,128,0,155226:0:0:0:0:
448,192,155226,128,0,155637:0:0:0:0:
192,192,155226,1,0,0:0:0:0:
320,192,155431,128,0,155534:0:0:0:0:
192,192,155534,128,0,155637:0:0:0:0:
320,192,155637,128,0,155842:0:0:0:0:
64,192,155637,1,0,0:0:0:0:
448,192,155740,128,0,155945:0:0:0:0:
64,192,155842,128,0,155945:0:0:0:0:
192,192,155945,128,0,156151:0:0:0:0:
64,192,156048,128,0,156151:0:0:0:0:
448,192,156048,128,0,156151:0:0:0:0:
320,192,156048,128,0,156664:0:0:0:0:
64,192,156253,128,0,156767:0:0:0:0:
192,192,156253,128,0,156767:0:0:0:0:
448,192,156253,128,0,156562:0:0:0:0:
448,192,156664,128,0,156973:0:0:0:0:
320,192,156767,128,0,156870:0:0:0:0:
192,192,156870,128,0,156973:0:0:0:0:
64,192,156870,128,0,156973:0:0:0:0:
320,192,156973,128,0,157384:0:0:0:0:
448,192,157075,128,0,157589:0:0:0:0:
192,192,157075,128,0,157486:0:0:0:0:
64,192,157075,128,0,157589:0:0:0:0:
320,192,157486,128,0,157589:0:0:0:0:
192,192,157589,128,0,157692:0:0:0:0:
320,192,157692,128,0,157795:0:0:0:0:
448,192,157692,128,0,157795:0:0:0:0:
64,192,157692,128,0,157897:0:0:0:0:
192,192,157795,128,0,157897:0:0:0:0:
320,192,157897,128,0,158000:0:0:0:0:
448,192,157897,128,0,158000:0:0:0:0:
192,192,158000,128,0,158103:0:0:0:0:
64,192,158103,1,0,0:0:0:0:
320,192,158103,1,0,0:0:0:0:
448,192,158103,128,0,158514:0:0:0:0:
320,192,158308,128,0,158411:0:0:0:0:
64,192,158411,128,0,158514:0:0:0:0:
192,192,158514,128,0,158719:0:0:0:0:
320,192,158514,1,0,0:0:0:0:
64,192,158719,128,0,159130:0:0:0:0:
448,192,158719,128,0,158822:0:0:0:0:
192,192,158822,128,0,158925:0:0:0:0:
448,192,158925,1,0,0:0:0:0:
448,192,159130,128,0,159336:0:0:0:0:
192,192,159130,128,0,159233:0:0:0:0:
320,192,159336,128,0,159541:0:0:0:0:
64,192,159336,1,0,0:0:0:0:
192,192,159541,128,0,159610:0:0:0:0:
64,192,159541,1,0,0:0:0:0:
320,192,159610,128,0,159678:0:0:0:0:
448,192,159678,128,0,159747:0:0:0:0:
64,192,159747,128,0,159952:0:0:0:0:
192,192,159747,128,0,159849:0:0:0:0:
192,192,159952,128,0,160158:0:0:0:0:
320,192,159952,128,0,160055:0:0:0:0:
320,192,160158,128,0,160363:0:0:0:0:
64,192,160158,128,0,160260:0:0:0:0:
448,192,160158,1,0,0:0:0:0:
192,192,160363,128,0,160466:0:0:0:0:
448,192,160363,128,0,160568:0:0:0:0:
64,192,160568,128,0,160774:0:0:0:0:
192,192,160568,1,0,0:0:0:0:
320,192,160568,128,0,160671:0:0:0:0:
448,192,160774,128,0,160842:0:0:0:0:
320,192,160842,128,0,160911:0:0:0:0:
192,192,160911,128,0,160979:0:0:0:0:
64,192,160979,128,0,161185:0:0:0:0:
448,192,160979,128,0,161082:0:0:0:0:
448,192,161185,128,0,161288:0:0:0:0:
192,192,161185,128,0,161390:0:0:0:0:
448,192,161390,128,0,162007:0:0:0:0:
320,192,161390,1,0,0:0:0:0:
64,192,161596,128,0,161699:0:0:0:0:
192,192,161596,128,0,161699:0:0:0:0:
320,192,161699,128,0,161801:0:0:0:0:
64,192,161801,128,0,161904:0:0:0:0:
192,192,161801,1,0,0:0:0:0:
192,192,162007,128,0,162418:0:0:0:0:
320,192,162007,128,0,162110:0:0:0:0:
64,192,162110,128,0,162212:0:0:0:0:
448,192,162212,128,0,162315:0:0:0:0:
320,192,162212,1,0,0:0:0:0:
320,192,162418,128,0,162829:0:0:0:0:
448,192,162418,128,0,162521:0:0:0:0:
448,192,162623,128,0,162726:0:0:0:0:
64,192,162623,1,0,0:0:0:0:
64,192,162829,128,0,162897:0:0:0:0:
448,192,162829,1,0,0:0:0:0:
192,192,162897,128,0,162966:0:0:0:0:
320,192,162966,128,0,163034:0:0:0:0:
448,192,163034,128,0,163240:0:0:0:0:
64,192,163034,1,0,0:0:0:0:
320,192,163137,128,0,163240:0:0:0:0:
192,192,163240,128,0,163445:0:0:0:0:
64,192,163240,128,0,163342:0:0:0:0:
448,192,163445,128,0,163548:0:0:0:0:
64,192,163445,128,0,163651:0:0:0:0:
320,192,163445,1,0,0:0:0:0:
192,192,163548,128,0,163651:0:0:0:0:
448,192,163651,128,0,163753:0:0:0:0:
320,192,163651,128,0,163856:0:0:0:0:
64,192,163753,128,0,163856:0:0:0:0:
192,192,163856,128,0,163959:0:0:0:0:
448,192,163856,1,0,0:0:0:0:
320,192,163959,128,0,164062:0:0:0:0:
64,192,164062,128,0,164164:0:0:0:0:
448,192,164062,1,0,0:0:0:0:
192,192,164130,128,0,164233:0:0:0:0:
320,192,164199,128,0,164301:0:0:0:0:
448,192,164267,128,0,164575:0:0:0:0:
64,192,164267,128,0,164575:0:0:0:0:
192,192,164473,128,0,164575:0:0:0:0:
320,192,164575,128,0,164678:0:0:0:0:
448,192,164678,1,0,0:0:0:0:
192,192,164678,1,0,0:0:0:0:
64,192,164678,128,0,165089:0:0:0:0:
192,192,164884,128,0,164986:0:0:0:0:
448,192,164986,128,0,165089:0:0:0:0:
320,192,165089,128,0,165295:0:0:0:0:
192,192,165089,1,0,0:0:0:0:
448,192,165295,128,0,165705:0:0:0:0:
64,192,165295,128,0,165397:0:0:0:0:
320,192,165397,128,0,165500:0:0:0:0:
64,192,165500,1,0,0:0:0:0:
64,192,165705,128,0,165911:0:0:0:0:
320,192,165705,128,0,165808:0:0:0:0:
192,192,165911,128,0,166116:0:0:0:0:
448,192,165911,1,0,0:0:0:0:
320,192,166116,128,0,166185:0:0:0:0:
448,192,166116,1,0,0:0:0:0:
192,192,166185,128,0,166253:0:0:0:0:
64,192,166253,128,0,166322:0:0:0:0:
448,192,166322,128,0,166527:0:0:0:0:
320,192,166322,128,0,166425:0:0:0:0:
320,192,166527,128,0,166733:0:0:0:0:
192,192,166527,128,0,166630:0:0:0:0:
192,192,166733,128,0,166938:0:0:0:0:
448,192,166733,128,0,166836:0:0:0:0:
64,192,166733,1,0,0:0:0:0:
320,192,166938,128,0,167041:0:0:0:0:
64,192,166938,128,0,167144:0:0:0:0:
448,192,167144,128,0,167349:0:0:0:0:
320,192,167144,1,0,0:0:0:0:
192,192,167144,128,0,167247:0:0:0:0:
64,192,167349,128,0,167418:0:0:0:0:
192,192,167418,128,0,167486:0:0:0:0:
320,192,167486,128,0,167555:0:0:0:0:
448,192,167555,128,0,167760:0:0:0:0:
64,192,167555,128,0,167658:0:0:0:0:
64,192,167760,128,0,167863:0:0:0:0:
320,192,167760,128,0,167966:0:0:0:0:
64,192,167966,128,0,168582:0:0:0:0:
192,192,167966,1,0,0:0:0:0:
448,192,168171,128,0,168274:0:0:0:0:
320,192,168171,128,0,168274:0:0:0:0:
192,192,168274,128,0,168377:0:0:0:0:
448,192,168377,128,0,168479:0:0:0:0:
320,192,168377,1,0,0:0:0:0:
320,192,168582,128,0,168993:0:0:0:0:
192,192,168582,128,0,168685:0:0:0:0:
448,192,168685,128,0,168788:0:0:0:0:
64,192,168788,128,0,168890:0:0:0:0:
192,192,168788,1,0,0:0:0:0:
192,192,168993,128,0,169404:0:0:0:0:
64,192,168993,128,0,169096:0:0:0:0:
64,192,169199,128,0,169301:0:0:0:0:
448,192,169199,1,0,0:0:0:0:
448,192,169404,128,0,169473:0:0:0:0:
64,192,169404,1,0,0:0:0:0:
320,192,169473,128,0,169541:0:0:0:0:
192,192,169541,128,0,169610:0:0:0:0:
64,192,169610,128,0,169815:0:0:0:0:
448,192,169610,1,0,0:0:0:0:
192,192,169712,128,0,169815:0:0:0:0:
320,192,169815,128,0,169918:0:0:0:0:
448,192,169815,1,0,0:0:0:0:
64,192,169918,128,0,170021:0:0:0:0:
192,192,169918,1,0,0:0:0:0:
320,192,170021,128,0,170123:0:0:0:0:
448,192,170021,1,0,0:0:0:0:
192,192,170123,128,0,170226:0:0:0:0:
64,192,170123,1,0,0:0:0:0:
448,192,170226,128,0,170329:0:0:0:0:
320,192,170226,1,0,0:0:0:0:
192,192,170329,128,0,170431:0:0:0:0:
64,192,170329,1,0,0:0:0:0:
320,192,170431,128,0,170534:0:0:0:0:
448,192,170431,1,0,0:0:0:0:
64,192,170534,128,0,170637:0:0:0:0:
192,192,170534,1,0,0:0:0:0:
320,192,170637,128,0,170740:0:0:0:0:
448,192,170637,128,0,170740:0:0:0:0:
192,192,170740,128,0,170842:0:0:0:0:
64,192,170740,128,0,170945:0:0:0:0:
320,192,170842,128,0,171048:0:0:0:0:
448,192,170842,128,0,171151:0:0:0:0:
192,192,170945,128,0,171151:0:0:0:0:
64,192,171048,128,0,171151:0:0:0:0:
320,192,171151,128,0,171253:0:0:0:0:
64,192,171253,128,0,171664:0:0:0:0:
192,192,171253,1,0,0:0:0:0:
448,192,171253,1,0,0:0:0:0:
192,192,171459,128,0,171562:0:0:0:0:
448,192,171562,128,0,171664:0:0:0:0:
192,192,171664,1,0,0:0:0:0:
320,192,171664,128,0,171870:0:0:0:0:
64,192,171870,128,0,171973:0:0:0:0:
448,192,171870,128,0,172281:0:0:0:0:
320,192,171973,128,0,172075:0:0:0:0:
64,192,172075,1,0,0:0:0:0:
320,192,172281,128,0,172384:0:0:0:0:
64,192,172281,128,0,172486:0:0:0:0:
448,192,172486,1,0,0:0:0:0:
192,192,172486,128,0,172692:0:0:0:0:
320,192,172692,128,0,172760:0:0:0:0:
448,192,172692,1,0,0:0:0:0:
192,192,172760,128,0,172829:0:0:0:0:
64,192,172829,128,0,172897:0:0:0:0:
320,192,172897,128,0,173000:0:0:0:0:
448,192,172897,128,0,173103:0:0:0:0:
192,192,173103,128,0,173205:0:0:0:0:
320,192,173103,128,0,173308:0:0:0:0:
64,192,173308,1,0,0:0:0:0:
448,192,173308,128,0,173411:0:0:0:0:
192,192,173308,128,0,173514:0:0:0:0:
64,192,173514,128,0,173719:0:0:0:0:
320,192,173514,128,0,173616:0:0:0:0:
192,192,173719,128,0,173822:0:0:0:0:
320,192,173719,1,0,0:0:0:0:
448,192,173719,128,0,173925:0:0:0:0:
64,192,173925,128,0,173993:0:0:0:0:
192,192,173993,128,0,174062:0:0:0:0:
320,192,174062,128,0,174130:0:0:0:0:
64,192,174130,128,0,174233:0:0:0:0:
448,192,174130,128,0,174336:0:0:0:0:
320,192,174336,128,0,174541:0:0:0:0:
64,192,174336,128,0,174438:0:0:0:0:
192,192,174541,1,0,0:0:0:0:
64,192,174541,128,0,175158:0:0:0:0:
320,192,174747,128,0,174849:0:0:0:0:
448,192,174747,128,0,174849:0:0:0:0:
192,192,174849,128,0,174952:0:0:0:0:
320,192,174952,1,0,0:0:0:0:
448,192,174952,128,0,175055:0:0:0:0:
192,192,175158,128,0,175260:0:0:0:0:
320,192,175158,128,0,175568:0:0:0:0:
448,192,175260,128,0,175363:0:0:0:0:
192,192,175363,1,0,0:0:0:0:
64,192,175363,128,0,175466:0:0:0:0:
64,192,175568,128,0,175671:0:0:0:0:
192,192,175568,128,0,175979:0:0:0:0:
448,192,175774,1,0,0:0:0:0:
64,192,175774,128,0,175877:0:0:0:0:
448,192,175979,128,0,176048:0:0:0:0:
64,192,175979,1,0,0:0:0:0:
320,192,176048,128,0,176116:0:0:0:0:
192,192,176116,128,0,176185:0:0:0:0:
448,192,176185,1,0,0:0:0:0:
64,192,176185,128,0,176390:0:0:0:0:
192,192,176288,128,0,176390:0:0:0:0:
448,192,176390,128,0,176493:0:0:0:0:
320,192,176390,128,0,176596:0:0:0:0:
192,192,176596,1,0,0:0:0:0:
448,192,176596,128,0,176801:0:0:0:0:
64,192,176596,128,0,176699:0:0:0:0:
320,192,176699,128,0,176801:0:0:0:0:
192,192,176801,128,0,177007:0:0:0:0:
64,192,176801,128,0,176904:0:0:0:0:
448,192,176904,128,0,177007:0:0:0:0:
64,192,177007,1,0,0:0:0:0:
320,192,177007,128,0,177110:0:0:0:0:
192,192,177110,128,0,177212:0:0:0:0:
448,192,177212,128,0,177315:0:0:0:0:
64,192,177212,1,0,0:0:0:0:
320,192,177281,128,0,177384:0:0:0:0:
192,192,177349,128,0,177452:0:0:0:0:
448,192,177418,128,0,177726:0:0:0:0:
64,192,177418,128,0,177726:0:0:0:0:
320,192,177623,128,0,177726:0:0:0:0:
192,192,177726,128,0,177829:0:0:0:0:
448,192,177829,128,0,178240:0:0:0:0:
320,192,177829,1,0,0:0:0:0:
64,192,177829,1,0,0:0:0:0:
320,192,178034,128,0,178137:0:0:0:0:
64,192,178137,128,0,178240:0:0:0:0:
320,192,178240,1,0,0:0:0:0:
192,192,178240,128,0,178445:0:0:0:0:
448,192,178445,128,0,178548:0:0:0:0:
64,192,178445,128,0,178856:0:0:0:0:
192,192,178548,128,0,178651:0:0:0:0:
448,192,178651,1,0,0:0:0:0:
192,192,178856,128,0,178959:0:0:0:0:
448,192,178856,128,0,179062:0:0:0:0:
64,192,179062,1,0,0:0:0:0:
320,192,179062,128,0,179267:0:0:0:0:
192,192,179267,128,0,179336:0:0:0:0:
64,192,179267,1,0,0:0:0:0:
320,192,179336,128,0,179404:0:0:0:0:
448,192,179404,128,0,179473:0:0:0:0:
192,192,179473,128,0,179575:0:0:0:0:
64,192,179473,128,0,179678:0:0:0:0:
320,192,179678,128,0,179781:0:0:0:0:
192,192,179678,128,0,179884:0:0:0:0:
448,192,179884,1,0,0:0:0:0:
64,192,179884,128,0,179986:0:0:0:0:
320,192,179884,128,0,180089:0:0:0:0:
448,192,180089,128,0,180295:0:0:0:0:
192,192,180089,128,0,180192:0:0:0:0:
320,192,180295,128,0,180397:0:0:0:0:
192,192,180295,1,0,0:0:0:0:
64,192,180295,128,0,180500:0:0:0:0:
448,192,180500,128,0,180568:0:0:0:0:
320,192,180568,128,0,180637:0:0:0:0:
192,192,180637,128,0,180705:0:0:0:0:
448,192,180705,128,0,180808:0:0:0:0:
64,192,180705,128,0,180911:0:0:0:0:
192,192,180911,128,0,181116:0:0:0:0:
448,192,180911,128,0,181014:0:0:0:0:
320,192,181116,1,0,0:0:0:0:
448,192,181116,128,0,181733:0:0:0:0:
192,192,181322,128,0,181425:0:0:0:0:
64,192,181322,128,0,181425:0:0:0:0:
320,192,181425,128,0,181527:0:0:0:0:
192,192,181527,1,0,0:0:0:0:
64,192,181527,128,0,181630:0:0:0:0:
320,192,181733,128,0,181836:0:0:0:0:
192,192,181733,128,0,182144:0:0:0:0:
64,192,181836,128,0,181938:0:0:0:0:
320,192,181938,1,0,0:0:0:0:
448,192,181938,128,0,182041:0:0:0:0:
448,192,182144,128,0,182247:0:0:0:0:
320,192,182144,128,0,182555:0:0:0:0:
64,192,182349,1,0,0:0:0:0:
448,192,182349,128,0,182452:0:0:0:0:
64,192,182555,128,0,182623:0:0:0:0:
448,192,182555,1,0,0:0:0:0:
192,192,182623,128,0,182692:0:0:0:0:
320,192,182692,128,0,182760:0:0:0:0:
64,192,182760,1,0,0:0:0:0:
448,192,182760,128,0,182966:0:0:0:0:
320,192,182863,128,0,182966:0:0:0:0:
64,192,182966,1,0,0:0:0:0:
192,192,182966,128,0,183068:0:0:0:0:
320,192,183068,1,0,0:0:0:0:
448,192,183068,128,0,183171:0:0:0:0:
64,192,183171,1,0,0:0:0:0:
192,192,183171,128,0,183274:0:0:0:0:
448,192,183274,1,0,0:0:0:0:
320,192,183274,128,0,183377:0:0:0:0:
192,192,183377,1,0,0:0:0:0:
64,192,183377,128,0,183479:0:0:0:0:
448,192,183479,1,0,0:0:0:0:
320,192,183479,128,0,183582:0:0:0:0:
64,192,183582,128,0,183685:0:0:0:0:
192,192,183582,128,0,183685:0:0:0:0:
320,192,183685,128,0,183788:0:0:0:0:
448,192,183685,128,0,183788:0:0:0:0:
192,192,183788,128,0,183890:0:0:0:0:
64,192,183788,128,0,183890:0:0:0:0:
320,192,183890,128,0,183993:0:0:0:0:
448,192,183890,128,0,183993:0:0:0:0:
192,192,183993,128,0,184096:0:0:0:0:
64,192,183993,128,0,184096:0:0:0:0:
320,192,184096,128,0,184199:0:0:0:0:
448,192,184096,128,0,184199:0:0:0:0:
192,192,184199,128,0,184301:0:0:0:0:
64,192,184199,128,0,184301:0:0:0:0:
320,192,184301,128,0,184404:0:0:0:0:
192,192,184404,1,0,0:0:0:0:
448,192,184404,128,0,186048:0:0:0:0:
64,192,184404,128,0,184815:0:0:0:0:
320,192,184815,128,0,185021:0:0:0:0:
192,192,184815,1,0,0:0:0:0:
64,192,185021,128,0,185226:0:0:0:0:
192,192,185021,1,0,0:0:0:0:
192,192,185226,128,0,185637:0:0:0:0:
320,192,185431,1,0,0:0:0:0:
320,192,185637,128,0,185842:0:0:0:0:
64,192,185637,1,0,0:0:0:0:
192,192,185842,128,0,186048:0:0:0:0:
64,192,186048,128,0,187692:0:0:0:0:
320,192,186048,128,0,186253:0:0:0:0:
448,192,186253,128,0,186459:0:0:0:0:
192,192,186459,128,0,186664:0:0:0:0:
320,192,186459,1,0,0:0:0:0:
320,192,186664,128,0,187075:0:0:0:0:
448,192,186664,1,0,0:0:0:0:
448,192,187075,1,0,0:0:0:0:
192,192,187075,128,0,187486:0:0:0:0:
320,192,187281,1,0,0:0:0:0:
448,192,187486,128,0,187692:0:0:0:0:
320,192,187692,128,0,189336:0:0:0:0:
192,192,187692,128,0,188103:0:0:0:0:
448,192,188103,128,0,188308:0:0:0:0:
64,192,188103,1,0,0:0:0:0:
64,192,188308,128,0,188514:0:0:0:0:
192,192,188308,1,0,0:0:0:0:
192,192,188514,128,0,188925:0:0:0:0:
448,192,188719,1,0,0:0:0:0:
448,192,188925,128,0,189130:0:0:0:0:
64,192,188925,1,0,0:0:0:0:
192,192,189130,128,0,189336:0:0:0:0:
448,192,189336,128,0,190877:0:0:0:0:
64,192,189336,128,0,189541:0:0:0:0:
192,192,189541,128,0,189747:0:0:0:0:
320,192,189747,128,0,189952:0:0:0:0:
64,192,189747,1,0,0:0:0:0:
192,192,189952,128,0,190158:0:0:0:0:
64,192,189952,1,0,0:0:0:0:
64,192,190158,128,0,190671:0:0:0:0:
192,192,190363,128,0,190671:0:0:0:0:
320,192,190568,128,0,190774:0:0:0:0:
192,192,190774,128,0,190979:0:0:0:0:
64,192,190774,128,0,190877:0:0:0:0:
320,192,190877,128,0,190979:0:0:0:0:
64,192,190979,128,0,192623:0:0:0:0:
448,192,190979,128,0,191390:0:0:0:0:
192,192,191390,128,0,191596:0:0:0:0:
448,192,191596,128,0,191801:0:0:0:0:
320,192,191801,128,0,192212:0:0:0:0:
192,192,192212,128,0,192418:0:0:0:0:
320,192,192418,128,0,192623:0:0:0:0:
448,192,192623,128,0,194267:0:0:0:0:
192,192,192623,128,0,192829:0:0:0:0:
64,192,192829,128,0,193034:0:0:0:0:
320,192,193034,128,0,193240:0:0:0:0:
192,192,193240,128,0,193651:0:0:0:0:
320,192,193651,128,0,194062:0:0:0:0:
64,192,194062,128,0,194267:0:0:0:0:
192,192,194267,128,0,194884:0:0:0:0:
320,192,194267,128,0,194678:0:0:0:0:
64,192,194678,128,0,194884:0:0:0:0:
320,192,194884,128,0,195705:0:0:0:0:
448,192,194884,128,0,195295:0:0:0:0:
64,192,195295,128,0,195500:0:0:0:0:
192,192,195500,128,0,195705:0:0:0:0:
448,192,195705,128,0,197041:0:0:0:0:
64,192,195705,128,0,196116:0:0:0:0:
192,192,196116,128,0,196322:0:0:0:0:
64,192,196322,128,0,196527:0:0:0:0:
192,192,196527,128,0,197349:0:0:0:0:
320,192,196733,128,0,197041:0:0:0:0:
320,192,197144,128,0,197452:0:0:0:0:
448,192,197144,128,0,197452:0:0:0:0:
64,192,197349,128,0,197555:0:0:0:0:
192,192,197452,128,0,197555:0:0:0:0:
320,192,197555,1,0,0:0:0:0:
448,192,197555,1,0,0:0:0:0:
