osu file format v14

[General]
AudioFilename: audio.ogg
AudioLeadIn: 0
PreviewTime: 39131
Countdown: 1
SampleSet: Soft
StackLeniency: 0.4
Mode: 0
LetterboxInBreaks: 0
WidescreenStoryboard: 1

[Editor]
DistanceSpacing: 1.2
BeatDivisor: 4
GridSize: 16
TimelineZoom: 1.2

[Metadata]
Title:S.I.M.P. (Squirrels In My Pants)
TitleUnicode:S.I.M.P. (Squirrels In My Pants)
Artist:2 Guys N the Parque
ArtistUnicode:2 Guys N the Parque
Creator:Kingling
Version:Xahlt's Normal
Source:Phineas and Ferb
Tags:hip hop english simp cartoon guyz comet kermillian michael culross, jr. jeff swampy marsh martin olson dan povenmire candace apollo apo11o ajt nega woey yokespai vespirit plaudible mkguh xahlt paradogi shii shiitsuin aistre alphabet venax hydrocannon13
BeatmapID:2541560
BeatmapSetID:1185064

[Difficulty]
HPDrainRate:3.5
CircleSize:3.3
OverallDifficulty:5
ApproachRate:5.5
SliderMultiplier:1.4
SliderTickRate:1

[Events]
//Background and Video events
0,0,"bg.jpg",0,0
Video,-2900,"simpfinal.mp4"
//Break Periods
//Storyboard Layer 0 (Background)
//Storyboard Layer 1 (Fail)
//Storyboard Layer 2 (Pass)
//Storyboard Layer 3 (Foreground)
//Storyboard Layer 4 (Overlay)
//Storyboard Sound Samples

[TimingPoints]
1194,500,4,2,1,50,1,0
1444,500,4,2,1,50,1,0
1444,-111.111111111111,4,2,1,50,0,0
5444,-100,4,2,1,50,0,0
13444,-100,4,2,1,70,0,0
17444,-100,4,2,1,80,0,1
23444,-100,4,2,1,80,0,0
25444,-100,4,2,1,55,0,0
41444,-100,4,2,1,80,0,1
47444,-100,4,2,1,80,0,0
49444,-100,4,2,1,55,0,0
65444,-100,4,2,1,80,0,1
73444,-100,4,2,1,80,0,0
74694,-100,4,2,1,5,0,0
75194,-100,4,2,1,40,0,0
75444,-100,4,2,1,45,0,0
75694,-100,4,2,1,55,0,0
75944,-100,4,2,1,50,0,0
76194,-100,4,2,1,45,0,0
76444,500,4,2,1,80,1,0
76444,-90.9090909090909,4,2,1,80,0,1
84444,-90.9090909090909,4,2,1,80,0,1
90444,-90.9090909090909,4,2,1,75,0,1
92944,-90.9090909090909,4,2,1,75,0,0

[Colours]
Combo1 : 237,96,61
Combo2 : 106,182,31
Combo3 : 247,147,72
Combo4 : 159,154,138

[HitObjects]
37,87,1444,6,0,P|77:45|159:53,1,125.999996154785,6|8,1:0|0:0,0:0:0:0:
210,76,2194,1,0,1:0:0:0:
348,14,2694,1,0,1:0:0:0:
396,71,2944,2,0,L|382:136,1,62.9999980773926,8|0,0:0|0:0,0:0:0:0:
319,174,3444,6,0,B|346:200|346:200|367:291,1,125.999996154785,0|8,1:0|0:0,0:0:0:0:
377,361,4194,1,0,1:0:0:0:
243,290,4694,1,0,1:0:0:0:
211,358,4944,2,0,P|185:340|150:328,1,62.9999980773926,8|0,0:0|0:0,0:0:0:0:
78,361,5444,6,0,B|96:327|96:327|57:208,1,140,2|8,1:0|0:0,0:0:0:0:
32,152,6194,1,0,1:0:0:0:
36,68,6444,2,0,L|112:80,1,70,0|0,0:0|1:0,0:0:0:0:
187,94,6944,1,8,0:0:0:0:
331,8,7444,6,0,P|320:42|312:85,1,70,2|0,1:0|0:0,0:0:0:0:
375,132,7944,2,0,P|386:166|394:209,1,70,8|0,0:0|1:0,0:0:0:0:
356,275,8444,2,0,P|315:248|288:233,1,70,0|0,0:0|1:0,0:0:0:0:
215,215,8944,1,8,0:0:0:0:
107,343,9444,6,0,B|145:366|145:366|246:346,1,140,2|8,1:0|0:0,0:0:0:0:
312,307,10194,1,0,1:0:0:0:
395,317,10444,2,0,P|385:349|377:397,2,70,0|0|8,0:0|1:0|0:0,0:0:0:0:
511,195,11444,6,0,L|494:114,1,70,2|0,1:0|0:0,0:0:0:0:
447,58,11944,2,0,L|378:73,1,70,8|2,0:0|1:0,0:0:0:0:
324,137,12444,2,0,L|246:128,1,70,0|2,0:0|1:0,0:0:0:0:
172,113,12944,1,8,0:0:0:0:
44,4,13444,5,6,1:0:0:0:
3,77,13694,2,0,L|15:149,1,70,0|8,0:0|0:0,0:0:0:0:
86,189,14194,2,0,L|67:271,1,70,2|0,1:0|0:0,0:0:0:0:
56,340,14694,2,0,L|130:329,1,70,0|8,0:0|0:0,0:0:0:0:
180,266,15194,1,0,0:0:0:0:
222,338,15444,6,0,P|271:378|366:368,1,140,2|8,1:0|0:0,0:0:0:0:
405,319,16194,1,2,1:0:0:0:
348,256,16444,2,0,P|354:222|368:188,1,70,0|2,0:0|1:0,0:0:0:0:
451,188,16944,1,8,0:0:0:0:
497,26,17444,6,0,L|351:47,1,140,2|8,1:0|0:0,0:0:0:0:
298,104,18194,1,2,1:0:0:0:
214,91,18444,2,0,L|201:6,1,70,0|2,0:0|1:0,0:0:0:0:
120,32,18944,2,0,L|74:24,1,35,8|0,0:0|0:0,0:0:0:0:
12,129,19444,6,0,P|6:195|64:243,1,140,2|8,1:0|0:0,0:0:0:0:
139,256,20194,1,2,1:0:0:0:
204,202,20444,2,0,B|243:176|243:176|344:212,1,140,0|8,0:0|0:0,0:0:0:0:
432,341,21444,6,0,L|276:376,1,140,2|8,1:0|0:0,0:0:0:0:
211,368,22194,1,2,1:0:0:0:
139,323,22444,2,0,L|149:225,1,70,0|2,0:0|1:0,0:0:0:0:
209,197,22944,2,0,L|201:140,1,35,8|2,0:0|1:0,0:0:0:0:
129,60,23444,5,6,1:0:0:0:
475,30,25444,6,0,P|426:71|337:71,1,140,2|8,1:0|0:0,0:0:0:0:
271,55,26194,1,2,1:0:0:0:
205,107,26444,2,0,P|223:137|231:179,1,70
243,254,26944,1,8,0:0:0:0:
122,371,27444,6,0,L|41:356,1,70,2|0,1:0|0:0,0:0:0:0:
3,290,27944,2,0,L|21:211,1,70,8|2,0:0|1:0,0:0:0:0:
83,168,28444,2,0,L|65:89,1,70,0|2,0:0|1:0,0:0:0:0:
131,44,28944,1,8,0:0:0:0:
243,168,29444,6,0,P|231:253|231:253,2,70,2|0|8,1:0|0:0|0:0,0:0:0:0:
253,84,30194,1,2,1:0:0:0:
319,32,30444,2,0,P|350:34|387:69,1,70,0|0,0:0|1:0,0:0:0:0:
432,123,30944,1,8,0:0:0:0:
490,280,31444,6,0,L|396:268,1,70,2|0,1:0|0:0,0:0:0:0:
336,266,31944,2,0,L|342:346,1,70,8|2,0:0|1:0,0:0:0:0:
262,365,32444,2,0,L|171:345,1,70,0|2,0:0|1:0,0:0:0:0:
110,333,32944,1,8,0:0:0:0:
11,188,33444,6,0,L|29:46,1,140,2|8,1:0|0:0,0:0:0:0:
102,8,34194,2,0,P|118:49|213:57,1,140,2|0,1:0|1:0,0:0:0:0:
271,11,34944,2,0,P|312:0|352:2,1,70,8|0,0:0|0:0,0:0:0:0:
410,44,35444,6,0,L|396:138,1,70,2|0,1:0|0:0,0:0:0:0:
340,172,35944,2,0,L|354:266,1,70,8|2,0:0|1:0,0:0:0:0:
367,323,36444,2,0,L|448:314,1,70,0|2,0:0|1:0,0:0:0:0:
506,268,36944,1,8,0:0:0:0:
478,102,37444,6,0,L|476:53,2,35,2|0|0,1:0|0:0|0:0,0:0:0:0:
396,125,37944,2,0,L|396:41,1,70,8|2,0:0|1:0,0:0:0:0:
318,23,38444,2,0,P|288:44|243:54,1,70
178,20,38944,1,8,0:0:0:0:
60,140,39444,6,0,P|78:176|93:222,1,70,6|2,1:0|0:0,0:0:0:0:
38,271,39944,2,0,P|20:307|5:353,1,70,2|2,0:0|0:0,0:0:0:0:
83,376,40444,1,2,0:0:0:0:
421,375,41444,6,0,L|429:214,1,140,0|8,1:0|0:0,0:0:0:0:
481,170,42194,1,0,1:0:0:0:
420,112,42444,2,0,L|324:92,1,70,0|0,0:0|1:0,0:0:0:0:
291,38,42944,1,8,0:0:0:0:
291,38,43069,1,0,0:0:0:0:
197,122,43444,6,0,B|198:177|198:177|219:196|219:196|225:279,1,140,2|8,1:0|0:0,0:0:0:0:
175,321,44194,1,2,1:0:0:0:
99,358,44444,2,0,P|37:343|11:254,1,140,0|8,0:0|0:0,0:0:0:0:
7,110,45444,6,0,L|148:122,1,140,0|8,1:0|0:0,0:0:0:0:
210,66,46194,1,0,1:0:0:0:
274,119,46444,2,0,P|256:152|246:202,1,70,0|0,0:0|1:0,0:0:0:0:
301,247,46944,1,8,0:0:0:0:
301,247,47069,1,0,1:0:0:0:
399,168,47444,5,6,1:0:0:0:
501,348,49444,6,0,L|359:331,1,140,2|8,1:0|0:0,0:0:0:0:
287,369,50194,1,2,1:0:0:0:
218,320,50444,2,0,L|230:237,1,70
243,167,50944,1,8,0:0:0:0:
149,27,51444,6,0,P|112:26|74:38,1,70,2|0,1:0|0:0,0:0:0:0:
6,75,51944,2,0,L|24:152,1,70,8|2,0:0|1:0,0:0:0:0:
91,190,52444,2,0,L|75:268,1,70,0|2,0:0|1:0,0:0:0:0:
56,339,52944,1,8,0:0:0:0:
218,297,53444,6,0,L|203:219,2,70,2|0|8,1:0|0:0|0:0,0:0:0:0:
300,278,54194,1,2,1:0:0:0:
358,338,54444,2,0,P|398:358|427:353,1,70
498,320,54944,1,8,0:0:0:0:
508,152,55444,6,0,L|437:145,1,70,2|0,1:0|0:0,0:0:0:0:
354,141,55944,2,0,L|361:60,1,70,8|2,0:0|1:0,0:0:0:0:
287,29,56444,2,0,L|199:18,1,70,0|2,0:0|1:0,0:0:0:0:
133,14,56944,1,8,0:0:0:0:
7,125,57444,6,0,L|14:209,1,70,2|0,1:0|0:0,0:0:0:0:
59,264,57944,2,0,P|98:248|135:246,1,70,8|2,0:0|1:0,0:0:0:0:
192,296,58444,2,0,P|231:312|268:314,2,70,0|0|8,0:0|0:0|0:0,0:0:0:0:
204,128,59444,6,0,L|194:62,2,35,2|0|0,1:0|0:0|0:0,0:0:0:0:
264,185,59944,2,0,P|296:199|334:192,1,70,8|2,0:0|1:0,0:0:0:0:
411,172,60444,2,0,L|423:228,2,35,0|0|2,0:0|0:0|1:0,0:0:0:0:
353,110,60944,2,0,L|370:19,1,70,8|0,0:0|0:0,0:0:0:0:
442,7,61444,6,0,L|462:88,1,70,2|0,1:0|0:0,0:0:0:0:
504,145,61944,2,0,L|499:225,1,70,8|2,0:0|1:0,0:0:0:0:
493,298,62444,2,0,L|406:309,1,70
355,356,62944,2,0,P|346:322|328:292,1,70,8|0,0:0|0:0,0:0:0:0:
246,275,63444,1,6,1:0:0:0:
30,83,65444,6,0,B|95:68|91:143|179:112,1,140,0|8,1:0|0:0,0:0:0:0:
217,56,66194,1,0,1:0:0:0:
277,114,66444,2,0,P|296:143|303:185,1,70,0|0,0:0|1:0,0:0:0:0:
317,264,66944,1,8,0:0:0:0:
317,264,67069,1,0,0:0:0:0:
231,356,67444,6,0,P|193:370|119:283,1,140,2|8,1:0|0:0,0:0:0:0:
45,275,68194,1,2,1:0:0:0:
79,198,68444,2,0,B|65:141|65:141|71:121|71:121|55:47,1,140,0|8,0:0|0:0,0:0:0:0:
216,5,69444,6,0,L|207:154,1,140,0|8,1:0|0:0,0:0:0:0:
145,201,70194,1,0,1:0:0:0:
154,284,70444,2,0,L|236:291,1,70,0|0,0:0|1:0,0:0:0:0:
287,352,70944,1,8,0:0:0:0:
287,352,71069,1,0,1:0:0:0:
412,341,71444,6,0,P|433:292|403:194,1,140,2|8,1:0|0:0,0:0:0:0:
337,178,72194,2,0,P|328:146|336:95,1,70,2|0,1:0|0:0,0:0:0:0:
360,30,72694,2,0,L|255:21,1,105,2|2,1:0|1:0,0:0:0:0:
164,109,73444,6,0,B|71:136|31:52|31:52|60:143|4:149|3:245,1,350,6|0,1:0|0:0,0:0:0:0:
154,309,75194,2,0,L|141:374,2,35,2|2|2,0:0|0:0|0:0,0:0:0:0:
238,310,75694,1,2,0:0:0:0:
252,227,75944,2,0,L|245:192,2,35,2|2|2,0:0|0:0|0:0,0:0:0:0:
328,278,76444,6,0,L|411:264,1,77.0000023498536,6|0,1:0|0:0,0:0:0:0:
450,184,76944,2,0,L|367:170,1,77.0000023498536,8|2,0:0|1:0,0:0:0:0:
326,91,77444,2,0,P|303:124|260:149,1,77.0000023498536,0|2,0:0|1:0,0:0:0:0:
204,82,77944,1,8,0:0:0:0:
19,86,78444,6,0,P|35:121|38:161,1,77.0000023498536,2|0,1:0|0:0,0:0:0:0:
23,250,78944,2,0,P|7:285|4:325,1,77.0000023498536,8|2,0:0|1:0,0:0:0:0:
86,364,79444,1,0,0:0:0:0:
149,297,79694,1,2,1:0:0:0:
219,356,79944,1,8,0:0:0:0:
398,312,80444,6,0,P|414:277|413:238,1,77.0000023498536,2|0,1:0|0:0,0:0:0:0:
330,198,80944,2,0,L|261:207,2,38.5000011749268,8|0|2,0:0|0:0|1:0,0:0:0:0:
361,111,81444,2,0,L|348:28,1,77.0000023498536,0|2,0:0|1:0,0:0:0:0:
438,10,81944,1,8,0:0:0:0:
487,188,82444,6,0,B|475:252|475:252|490:271|490:271|477:355,1,154.000004699707,2|8,1:0|0:0,0:0:0:0:
392,362,83194,1,2,1:0:0:0:
310,318,83444,2,0,B|218:328|267:244|143:258,1,154.000004699707,0|8,0:0|0:0,0:0:0:0:
102,312,84194,1,0,0:0:0:0:
30,253,84444,6,0,P|31:215|53:164,1,77.0000023498536,2|0,1:0|0:0,0:0:0:0:
120,124,84944,2,0,L|204:109,1,77.0000023498536,8|2,0:0|1:0,0:0:0:0:
285,89,85444,2,0,L|265:7,2,77.0000023498536,0|2|8,0:0|1:0|0:0,0:0:0:0:
255,176,86194,1,0,0:0:0:0:
306,252,86444,6,0,L|298:306,2,38.5000011749268,2|0|0,1:0|0:0|0:0,0:0:0:0:
373,189,86944,2,0,P|409:176|470:196,1,77.0000023498536,8|2,0:0|1:0,0:0:0:0:
511,247,87444,1,0,0:0:0:0:
485,335,87694,1,2,1:0:0:0:
397,305,87944,1,8,0:0:0:0:
213,325,88444,6,0,P|182:350|119:359,1,77.0000023498536,2|0,1:0|0:0,0:0:0:0:
69,309,88944,2,0,L|55:359,2,38.5000011749268,8|0|2,0:0|0:0|1:0,0:0:0:0:
34,223,89444,2,0,L|-11:248,2,38.5000011749268,0|0|2,0:0|0:0|1:0,0:0:0:0:
93,152,89944,2,0,L|72:63,1,77.0000023498536,8|0,0:0|0:0,0:0:0:0:
137,8,90444,5,2,1:0:0:0:
194,80,90694,2,0,P|226:62|279:49,1,77.0000023498536,0|8,0:0|0:0,0:0:0:0:
353,25,91194,1,2,1:0:0:0:
420,87,91444,2,0,P|452:105|505:118,2,77.0000023498536,0|2|8,0:0|1:0|0:0,0:0:0:0:
333,120,92194,1,0,0:0:0:0:
380,199,92444,5,2,1:0:0:0:
311,261,92694,2,0,L|323:310,1,38.5000011749268,2|2,1:0|1:0,0:0:0:0:
304,338,92944,1,6,1:0:0:0:
