osu file format v14

[General]
AudioFilename: audio.ogg
AudioLeadIn: 0
PreviewTime: 39131
Countdown: 1
SampleSet: Soft
StackLeniency: 0.4
Mode: 0
LetterboxInBreaks: 0
WidescreenStoryboard: 1

[Editor]
Bookmarks: 8140,25390,41390,49390,57390,65390,76390,84390
DistanceSpacing: 0.1
BeatDivisor: 4
GridSize: 8
TimelineZoom: 0.8000002

[Metadata]
Title:S.I.M.P. (Squirrels In My Pants)
TitleUnicode:S.I.M.P. (Squirrels In My Pants)
Artist:2 Guys N the Parque
ArtistUnicode:2 Guys N the Parque
Creator:Kingling
Version:Shii's Expert
Source:Phineas and Ferb
Tags:hip hop english simp cartoon guyz comet kermillian michael culross, jr. jeff swampy marsh martin olson dan povenmire candace apollo apo11o ajt nega woey yokespai vespirit plaudible mkguh xahlt paradogi shii shiitsuin aistre alphabet venax hydrocannon13
BeatmapID:2604607
BeatmapSetID:1185064

[Difficulty]
HPDrainRate:5
CircleSize:4.2
OverallDifficulty:8.5
ApproachRate:9.2
SliderMultiplier:3.2
SliderTickRate:1

[Events]
//Background and Video events
0,0,"bg.jpg"
Video,-2900,"simpfinal.mp4"
//Break Periods
//Storyboard Layer 0 (Background)
//Storyboard Layer 1 (Fail)
//Storyboard Layer 2 (Pass)
//Storyboard Layer 3 (Foreground)
//Storyboard Layer 4 (Overlay)
//Storyboard Sound Samples

[TimingPoints]
1194,500,4,2,1,50,1,0
1444,500,4,2,1,50,1,0
1444,-133.333333333333,4,2,1,50,0,0
5444,-111.111111111111,4,2,1,50,0,0
13444,-80,4,2,1,70,0,0
13944,-74.0740740740741,4,2,1,70,0,0
14444,-68.9655172413793,4,2,1,70,0,0
14944,-64.5161290322581,4,2,1,70,0,0
15444,-80,4,2,1,70,0,0
16944,-133.333333333333,4,2,1,70,0,0
17444,-100,4,2,1,80,0,1
19944,-111.111111111111,4,2,1,80,0,1
20444,-125,4,2,1,80,0,1
20944,-142.857142857143,4,2,1,80,0,1
21444,-100,4,2,1,80,0,1
23444,-125,4,2,1,80,0,0
23944,-142.857142857143,4,2,1,80,0,0
24444,-166.666666666667,4,2,1,80,0,0
24944,-200,4,2,1,80,0,0
25444,-111.111111111111,4,2,1,55,0,0
41444,-90.9090909090909,4,2,1,80,0,1
43944,-100,4,2,1,80,0,1
44444,-111.111111111111,4,2,1,80,0,1
44944,-125,4,2,1,80,0,1
45444,-90.9090909090909,4,2,1,80,0,1
47444,-111.111111111111,4,2,1,80,0,0
47944,-125,4,2,1,80,0,0
48444,-142.857142857143,4,2,1,80,0,0
48944,-166.666666666667,4,2,1,80,0,0
49444,-111.111111111111,4,2,1,55,0,0
63444,-125,4,2,1,55,0,0
63944,-142.857142857143,4,2,1,55,0,0
64444,-166.666666666667,4,2,1,55,0,0
64944,-200,4,2,1,55,0,0
65444,-80,4,2,1,80,0,1
67944,-90.9090909090909,4,2,1,80,0,1
68444,-105.263157894737,4,2,1,80,0,1
68944,-125,4,2,1,80,0,1
69444,-80,4,2,1,80,0,1
71444,-83.3333333333333,4,2,1,80,0,1
72194,-71.4285714285714,4,2,1,80,0,1
72694,-55.5555555555556,4,2,1,80,0,1
73069,-50,4,2,1,80,0,1
73444,-50,4,2,1,80,0,0
75194,-50,4,2,1,40,0,0
75444,-50,4,2,1,45,0,0
75694,-50,4,2,1,55,0,0
75944,-50,4,2,1,50,0,0
76194,-50,4,2,1,45,0,0
76444,500,4,2,1,80,1,0
76444,-66.6666666666667,4,2,1,80,0,1
76944,-62.5,4,2,1,80,0,1
77444,-58.8235294117647,4,2,1,80,0,1
77944,-55.5555555555556,4,2,1,80,0,1
78444,-66.6666666666667,4,2,1,80,0,1
78944,-62.5,4,2,1,80,0,1
79444,-58.8235294117647,4,2,1,80,0,1
79944,-55.5555555555556,4,2,1,80,0,1
80444,-66.6666666666667,4,2,1,80,0,1
82944,-62.5,4,2,1,80,0,1
83444,-58.8235294117647,4,2,1,80,0,1
83944,-55.5555555555556,4,2,1,80,0,1
84444,-66.6666666666667,4,2,1,80,0,1
90444,-66.6666666666667,4,2,1,75,0,1
92944,-66.6666666666667,4,2,1,75,0,0

[Colours]
Combo1 : 237,96,61
Combo2 : 106,182,31
Combo3 : 247,147,72
Combo4 : 159,154,138

[HitObjects]
122,174,1194,5,0,0:0:0:0:
0,4,1444,6,0,B|49:22|49:22|78:160|78:160|137:179,1,240.000009155274,6|8,1:0|0:0,0:0:0:0:
187,128,2194,1,0,1:0:0:0:
187,128,2694,5,0,1:0:0:0:
355,232,2944,1,8,0:0:0:0:
279,215,3194,1,0,0:0:0:0:
356,202,3444,1,0,1:0:0:0:
356,202,3944,5,8,0:0:0:0:
427,234,4194,2,0,L|441:56,1,120.000004577637,0|0,1:0|0:0,0:0:0:0:
383,33,4694,2,0,L|446:38,1,60.0000022888184,0|0,1:0|0:0,0:0:0:0:
502,42,4944,2,0,L|439:37,1,60.0000022888184,8|0,0:0|0:0,0:0:0:0:
308,28,5194,1,0,0:0:0:0:
308,28,5319,1,0,0:0:0:0:
341,102,5444,6,0,P|344:157|350:177,1,71.9999978027344,2|0,1:0|0:0,0:0:0:0:
393,230,5694,1,0,0:0:0:0:
393,230,5944,2,0,P|390:285|384:305,1,71.9999978027344,8|0,0:0|0:0,0:0:0:0:
341,358,6194,1,0,1:0:0:0:
341,358,6444,2,0,L|162:342,1,143.999995605469,0|0,0:0|1:0,0:0:0:0:
50,242,6944,2,0,L|286:221,1,215.999993408203,8|0,0:0|0:0,0:0:0:0:
308,282,7444,5,2,1:0:0:0:
287,108,7694,1,0,0:0:0:0:
461,87,7944,1,8,0:0:0:0:
482,261,8194,1,0,1:0:0:0:
277,196,8444,2,0,P|360:193|446:182,1,143.999995605469,0|0,0:0|1:0,0:0:0:0:
490,157,8819,1,0,0:0:0:0:
417,194,8944,2,0,P|372:182|312:152,1,71.9999978027344,8|0,0:0|0:0,0:0:0:0:
287,125,9194,2,0,P|259:88|233:26,1,71.9999978027344,2|0,1:0|0:0,0:0:0:0:
296,5,9444,6,0,L|466:-2,1,143.999995605469,2|0,1:0|0:0,0:0:0:0:
218,69,9944,2,0,L|125:59,1,71.9999978027344,8|0,0:0|0:0,0:0:0:0:
74,53,10194,1,0,1:0:0:0:
74,53,10444,2,0,L|232:70,1,143.999995605469,0|0,0:0|1:0,0:0:0:0:
381,150,10944,2,0,L|126:181,1,215.999993408203,8|0,0:0|0:0,0:0:0:0:
106,133,11444,5,2,1:0:0:0:
135,356,11694,1,0,0:0:0:0:
232,230,11944,1,8,0:0:0:0:
9,259,12194,1,2,1:0:0:0:
209,318,12444,2,0,P|300:329|374:350,1,143.999995605469,0|2,0:0|1:0,0:0:0:0:
411,384,12819,1,0,0:0:0:0:
345,346,12944,2,0,P|335:324|341:235,1,71.9999978027344,8|2,0:0|1:0,0:0:0:0:
350,197,13194,2,0,P|358:174|427:112,1,71.9999978027344
494,156,13444,6,0,B|451:179|451:179|435:292|435:292|393:311,1,200,6|0,1:0|0:0,0:0:0:0:
324,293,13819,1,0,0:0:0:0:
511,234,13944,6,0,B|459:232|459:232|385:326|385:326|337:321,1,216.000000823975,8|2,0:0|1:0,0:0:0:0:
293,264,14319,1,0,0:0:0:0:
490,313,14444,6,0,B|443:284|443:284|325:331|325:331|284:301,1,232.000007080078
267,227,14819,1,0,0:0:0:0:
433,372,14944,6,0,B|404:318|404:318|264:298|264:298|240:246,1,248.00000189209,8|0,0:0|0:0,0:0:0:0:
30,362,15444,5,2,1:0:0:0:
49,293,15569,1,0,0:0:0:0:
38,224,15694,1,0,0:0:0:0:
152,379,15944,2,0,P|158:343|155:242,1,100,8|0,0:0|0:0,0:0:0:0:
127,206,16194,2,0,P|121:170|124:69,1,100,2|0,1:0|0:0,0:0:0:0:
164,43,16444,1,0,0:0:0:0:
112,99,16569,1,0,0:0:0:0:
55,50,16694,1,2,1:0:0:0:
393,182,16944,2,0,B|465:185|457:69|519:69,1,180.000006866455,8|0,0:0|0:0,0:0:0:0:
499,38,17444,6,0,B|434:36|463:151|379:151,1,160,2|0,1:0|0:0,0:0:0:0:
131,105,17944,1,8,0:0:0:0:
57,129,18069,1,0,0:0:0:0:
134,141,18194,1,2,1:0:0:0:
366,15,18444,2,0,P|347:40|324:101,1,80
313,164,18694,2,0,P|317:195|344:254,1,80,2|0,1:0|0:0,0:0:0:0:
406,288,18944,1,8,0:0:0:0:
406,288,19069,1,0,0:0:0:0:
229,17,19319,5,0,0:0:0:0:
229,17,19444,2,0,L|216:202,1,160,2|0,1:0|0:0,0:0:0:0:
212,257,19819,1,0,0:0:0:0:
187,37,19944,6,0,L|262:191,1,143.999995605469,8|2,0:0|1:0,0:0:0:0:
287,238,20319,1,0,0:0:0:0:
160,64,20444,6,0,L|291:152,1,128,0|2,0:0|1:0,0:0:0:0:
332,182,20819,1,0,0:0:0:0:
156,97,20944,6,0,L|330:109,1,167.999994873047,8|0,0:0|0:0,0:0:0:0:
370,43,21444,6,0,B|412:22|457:41|439:129|489:145,1,160,2|0,1:0|0:0,0:0:0:0:
223,0,21944,1,8,0:0:0:0:
301,17,22069,1,0,0:0:0:0:
222,33,22194,1,2,1:0:0:0:
4,91,22444,2,0,P|53:98|93:129,1,80
141,165,22694,2,0,P|190:158|230:127,1,80,2|0,1:0|0:0,0:0:0:0:
249,71,22944,1,8,0:0:0:0:
249,71,23069,2,0,P|238:158|237:264,1,160,2|0,1:0|0:0,0:0:0:0:
277,309,23444,6,0,L|417:291,1,128,6|2,1:0|0:0,0:0:0:0:
475,281,23819,1,2,0:0:0:0:
295,261,23944,6,0,L|414:310,1,111.999996582031,2|2,0:0|0:0,0:0:0:0:
467,329,24319,1,2,0:0:0:0:
337,239,24444,6,0,L|408:332,1,95.9999970703126,2|2,0:0|0:0,0:0:0:0:
440,374,24819,1,2,0:0:0:0:
375,207,24944,6,0,L|391:334,1,120,2|0,0:0|0:0,0:0:0:0:
333,382,25444,6,0,L|241:378,1,71.9999978027344,2|0,1:0|0:0,0:0:0:0:
185,375,25694,1,0,0:0:0:0:
184,375,25944,2,0,P|190:314|146:247,1,143.999995605469,8|2,0:0|1:0,0:0:0:0:
8,145,26444,2,0,L|2:228,1,71.9999978027344
82,150,26694,2,0,L|75:232,1,71.9999978027344
147,110,26944,2,0,B|249:109|214:228|316:225,1,215.999993408203,8|0,0:0|0:0,0:0:0:0:
378,180,27444,5,2,1:0:0:0:
136,212,27694,1,0,0:0:0:0:
271,315,27944,1,8,0:0:0:0:
239,76,28194,1,2,1:0:0:0:
186,275,28444,2,0,P|109:294|23:293,1,143.999995605469,0|2,0:0|1:0,0:0:0:0:
0,232,28819,1,0,0:0:0:0:
43,301,28944,2,0,P|64:321|121:342,1,71.9999978027344,8|0,0:0|0:0,0:0:0:0:
178,352,29194,2,0,P|205:345|255:310,1,71.9999978027344,2|0,1:0|0:0,0:0:0:0:
285,251,29444,6,0,L|271:38,1,143.999995605469,2|0,1:0|0:0,0:0:0:0:
209,53,29819,1,0,0:0:0:0:
209,53,29944,2,0,L|123:60,1,71.9999978027344,8|0,0:0|0:0,0:0:0:0:
130,49,30194,2,0,L|201:54,1,71.9999978027344,2|0,1:0|0:0,0:0:0:0:
212,162,30444,2,0,L|118:170,1,71.9999978027344
67,177,30694,1,0,1:0:0:0:
265,98,30944,2,0,L|506:111,1,215.999993408203,8|0,0:0|0:0,0:0:0:0:
500,39,31444,5,2,1:0:0:0:
321,23,31694,1,0,0:0:0:0:
305,202,31944,1,8,0:0:0:0:
484,218,32194,1,2,1:0:0:0:
241,119,32444,2,0,P|153:117|73:129,1,143.999995605469,0|2,0:0|1:0,0:0:0:0:
34,162,32819,1,0,0:0:0:0:
100,117,32944,2,0,P|135:133|168:168,1,71.9999978027344,8|2,0:0|1:0,0:0:0:0:
188,223,33194,2,0,P|190:260|177:307,1,71.9999978027344
145,360,33444,6,0,L|-40:343,1,143.999995605469,2|0,1:0|0:0,0:0:0:0:
145,360,33944,2,0,L|-40:343,1,143.999995605469,8|2,0:0|1:0,0:0:0:0:
202,303,34444,2,0,L|296:294,1,71.9999978027344
192,228,34694,2,0,L|286:219,1,71.9999978027344,0|0,1:0|0:0,0:0:0:0:
157,160,34944,2,0,B|65:153|123:314|28:303,1,215.999993408203,8|0,0:0|0:0,0:0:0:0:
0,238,35444,5,2,1:0:0:0:
170,305,35694,1,0,0:0:0:0:
75,66,35944,1,8,0:0:0:0:
242,138,36194,1,2,1:0:0:0:
79,273,36444,2,0,P|155:245|243:240,1,143.999995605469,0|2,0:0|1:0,0:0:0:0:
284,277,36819,1,0,0:0:0:0:
341,225,36944,2,0,P|385:230|422:262,1,71.9999978027344,8|2,0:0|1:0,0:0:0:0:
448,305,37194,2,0,P|453:349|432:393,1,71.9999978027344
363,377,37444,6,0,L|354:291,1,71.9999978027344,2|0,1:0|0:0,0:0:0:0:
347,233,37694,1,0,0:0:0:0:
363,377,37944,2,0,L|344:197,1,143.999995605469,8|2,0:0|1:0,0:0:0:0:
283,96,38444,2,0,L|275:170,1,71.9999978027344
269,238,38694,1,0,0:0:0:0:
291,23,38944,2,0,L|267:244,1,215.999993408203,8|0,0:0|1:0,0:0:0:0:
256,318,39444,5,6,1:0:0:0:
189,293,39694,1,2,0:0:0:0:
135,345,39944,1,2,0:0:0:0:
65,322,40194,1,2,0:0:0:0:
493,223,41444,6,0,B|468:231|468:231|445:356|445:356|466:377,1,176.000005371094,0|0,1:0|0:0,0:0:0:0:
489,146,41944,1,8,0:0:0:0:
416,112,42069,1,0,0:0:0:0:
436,34,42194,1,0,1:0:0:0:
296,347,42444,2,0,L|184:339,1,88.000002685547
151,286,42694,2,0,L|39:294,1,88.000002685547,0|0,1:0|0:0,0:0:0:0:
7,349,42944,1,8,0:0:0:0:
7,349,43069,1,0,0:0:0:0:
417,110,43319,5,0,0:0:0:0:
417,110,43444,6,0,L|386:292,1,176.000005371094,2|0,1:0|0:0,0:0:0:0:
370,361,43819,1,0,0:0:0:0:
468,136,43944,6,0,L|352:266,1,160,8|2,0:0|1:0,0:0:0:0:
308,315,44319,1,0,0:0:0:0:
505,169,44444,6,0,L|349:221,1,143.999995605469,0|2,0:0|1:0,0:0:0:0:
293,239,44819,1,0,0:0:0:0:
510,206,44944,6,0,L|316:166,1,192,8|0,0:0|0:0,0:0:0:0:
261,114,45444,6,0,B|235:120|235:120|195:231|195:231|165:240,1,176.000005371094,0|0,1:0|0:0,0:0:0:0:
6,15,45944,1,8,0:0:0:0:
28,91,46069,1,0,0:0:0:0:
38,11,46194,1,0,1:0:0:0:
113,321,46444,2,0,P|183:337|243:309,1,88.000002685547
251,275,46694,2,0,P|321:259|381:287,1,88.000002685547,0|0,1:0|0:0,0:0:0:0:
398,320,46944,1,8,0:0:0:0:
398,320,47069,2,0,P|371:221|375:134,1,176.000005371094,0|0,1:0|0:0,0:0:0:0:
403,69,47444,6,0,L|249:50,1,143.999995605469,6|2,1:0|0:0,0:0:0:0:
189,40,47819,1,2,0:0:0:0:
388,39,47944,6,0,L|254:95,1,128,2|2,0:0|0:0,0:0:0:0:
203,115,48319,1,2,0:0:0:0:
374,15,48444,6,0,L|294:120,1,111.999996582031,2|2,0:0|0:0,0:0:0:0:
261,163,48819,1,2,0:0:0:0:
361,5,48944,6,0,L|339:163,1,143.999995605469,2|0,0:0|0:0,0:0:0:0:
390,208,49444,6,0,P|429:200|483:221,1,71.9999978027344,2|0,1:0|0:0,0:0:0:0:
511,261,49694,2,0,P|519:300|498:354,1,71.9999978027344
455,381,49944,1,8,0:0:0:0:
343,269,50194,1,2,1:0:0:0:
343,269,50319,1,0,0:0:0:0:
298,327,50444,2,0,L|220:318,1,71.9999978027344
181,260,50694,2,0,L|105:267,1,71.9999978027344
47,306,50944,2,0,P|86:256|75:69,1,215.999993408203,8|0,0:0|0:0,0:0:0:0:
30,70,51444,5,2,1:0:0:0:
204,41,51694,1,0,0:0:0:0:
233,215,51944,1,8,0:0:0:0:
59,244,52194,1,2,1:0:0:0:
220,115,52444,2,0,P|290:119|377:144,1,143.999995605469,0|2,0:0|1:0,0:0:0:0:
432,166,52819,1,0,0:0:0:0:
366,133,52944,2,0,P|327:158|306:194,1,71.9999978027344,8|0,0:0|0:0,0:0:0:0:
289,254,53194,2,0,P|291:300|312:335,1,71.9999978027344,2|0,1:0|0:0,0:0:0:0:
358,377,53444,6,0,L|446:370,1,71.9999978027344,2|0,1:0|0:0,0:0:0:0:
430,384,53694,2,0,L|342:377,1,71.9999978027344
278,384,53944,2,0,B|217:387|238:290|165:296,1,143.999995605469,8|2,0:0|1:0,0:0:0:0:
116,342,54319,1,0,0:0:0:0:
116,342,54444,2,0,P|81:334|41:285,1,71.9999978027344
15,244,54694,2,0,P|4:210|25:150,1,71.9999978027344
64,120,54944,2,0,L|323:109,1,215.999993408203,8|0,0:0|0:0,0:0:0:0:
321,50,55444,5,2,1:0:0:0:
146,24,55694,1,0,0:0:0:0:
295,224,55944,1,8,0:0:0:0:
120,199,56194,1,2,1:0:0:0:
332,155,56444,2,0,P|416:174|444:236,1,143.999995605469,0|2,0:0|1:0,0:0:0:0:
415,289,56819,1,0,0:0:0:0:
358,240,56944,2,0,P|329:234|284:250,1,71.9999978027344,8|2,0:0|1:0,0:0:0:0:
240,306,57194,2,0,P|234:334|250:379,1,71.9999978027344
167,384,57444,6,0,B|141:381|141:381|119:284|119:284|73:281,1,143.999995605469,2|0,1:0|0:0,0:0:0:0:
246,374,57944,2,0,L|270:277,1,71.9999978027344,8|0,0:0|0:0,0:0:0:0:
285,233,58194,1,2,1:0:0:0:
285,233,58444,2,0,P|317:250|374:239,1,71.9999978027344
416,209,58694,2,0,P|433:176|422:119,1,71.9999978027344
380,87,58944,2,0,B|247:82|296:127|166:125,1,215.999993408203,8|0,0:0|0:0,0:0:0:0:
131,64,59444,6,0,L|121:154,1,71.9999978027344,2|0,1:0|0:0,0:0:0:0:
78,194,59694,2,0,L|87:284,1,71.9999978027344
28,320,59944,1,8,0:0:0:0:
28,320,60069,1,0,0:0:0:0:
78,383,60194,1,2,1:0:0:0:
78,383,60319,1,0,0:0:0:0:
140,338,60444,2,0,P|173:327|217:328,1,71.9999978027344
266,374,60694,2,0,P|299:384|343:383,1,71.9999978027344,2|0,1:0|0:0,0:0:0:0:
396,338,60944,2,0,L|421:93,1,215.999993408203,8|0,0:0|0:0,0:0:0:0:
472,71,61444,5,2,1:0:0:0:
472,71,61569,1,0,0:0:0:0:
398,51,61694,1,0,0:0:0:0:
398,51,61819,1,0,0:0:0:0:
346,105,61944,2,0,L|250:94,1,71.9999978027344,8|0,0:0|0:0,0:0:0:0:
203,87,62194,1,2,1:0:0:0:
203,87,62444,2,0,L|357:107,1,143.999995605469
403,279,62944,1,8,0:0:0:0:
418,199,63069,1,0,0:0:0:0:
495,217,63194,1,0,0:0:0:0:
479,293,63319,1,0,0:0:0:0:
330,268,63444,6,0,L|191:254,1,128,6|2,1:0|0:0,0:0:0:0:
130,246,63819,1,2,0:0:0:0:
293,321,63944,6,0,L|195:250,1,111.999996582031,2|2,0:0|0:0,0:0:0:0:
145,212,64319,1,2,0:0:0:0:
241,342,64444,6,0,L|193:235,1,95.9999970703126,2|2,0:0|0:0,0:0:0:0:
174,187,64819,1,2,0:0:0:0:
189,373,64944,6,0,L|201:249,1,120,2|0,0:0|0:0,0:0:0:0:
123,109,65444,6,0,B|87:143|77:191|77:191|66:139|32:98,1,200,0|0,1:0|0:0,0:0:0:0:
282,14,65944,5,8,0:0:0:0:
362,7,66069,1,0,0:0:0:0:
402,77,66194,1,0,1:0:0:0:
103,384,66444,2,0,P|142:377|190:316,1,100
183,255,66694,2,0,P|157:224|80:213,1,100,0|0,1:0|0:0,0:0:0:0:
47,268,66944,1,8,0:0:0:0:
47,268,67069,1,0,0:0:0:0:
464,117,67319,5,0,0:0:0:0:
464,117,67444,2,0,L|413:310,1,200,2|0,1:0|0:0,0:0:0:0:
384,384,67819,1,0,0:0:0:0:
389,127,67944,6,0,L|436:305,1,176.000005371094,8|2,0:0|1:0,0:0:0:0:
462,373,68319,1,0,0:0:0:0:
507,170,68444,6,0,L|390:287,1,151.999995941162,0|2,0:0|1:0,0:0:0:0:
340,330,68819,1,0,0:0:0:0:
342,170,68944,6,0,L|483:312,1,192,8|0,0:0|0:0,0:0:0:0:
436,372,69444,6,0,B|387:366|387:366|322:271|322:271|264:262,1,200,0|0,1:0|0:0,0:0:0:0:
7,374,69944,1,8,0:0:0:0:
84,353,70069,1,0,0:0:0:0:
8,344,70194,1,0,1:0:0:0:
148,40,70444,2,0,L|162:139,1,100
214,201,70694,2,0,L|199:300,1,100,0|0,1:0|0:0,0:0:0:0:
188,383,70944,1,8,0:0:0:0:
188,383,71069,1,0,1:0:0:0:
335,102,71444,6,0,B|270:111|270:111|183:361|183:361|129:369,1,383.99998828125,2|8,1:0|0:0,0:0:0:0:
0,208,72194,6,0,B|63:198|63:198|186:361|186:361|253:352,1,335.999989746094,2|0,1:0|0:0,0:0:0:0:
512,172,72694,6,0,B|401:161|450:370|327:360,1,287.999991210938,2|8,1:0|0:0,0:0:0:0:
380,76,73069,6,0,P|429:263|448:395,1,320,2|0,1:0|0:0,0:0:0:0:
491,85,73444,5,6,1:0:0:0:
392,116,75194,5,2,0:0:0:0:
388,127,75319,1,2,0:0:0:0:
321,87,75444,5,2,0:0:0:0:
313,125,75569,1,2,0:0:0:0:
251,52,75694,5,2,0:0:0:0:
237,124,75819,1,2,0:0:0:0:
175,54,75944,5,2,0:0:0:0:
167,92,76069,1,2,0:0:0:0:
98,58,76194,5,2,0:0:0:0:
346,326,76444,6,0,B|305:321|305:321|232:178|232:178|189:169,1,240.000009155274,6|0,1:0|0:0,0:0:0:0:
119,157,76819,1,0,0:0:0:0:
183,329,76944,6,0,B|226:323|226:323|302:171|302:171|348:162,1,256,8|2,0:0|1:0,0:0:0:0:
420,151,77319,1,0,0:0:0:0:
357,335,77444,6,0,B|311:329|311:329|230:170|230:170|183:161,1,272.000005187988,0|2,0:0|1:0,0:0:0:0:
108,150,77819,1,0,0:0:0:0:
144,335,77944,6,0,B|216:325|216:325|346:71|346:71|421:56,1,431.999986816407,8|0,0:0|0:0,0:0:0:0:
350,316,78444,6,0,B|337:261|337:261|215:209|215:209|206:156,1,240.000009155274,2|0,1:0|0:0,0:0:0:0:
202,81,78819,1,0,0:0:0:0:
273,312,78944,6,0,B|290:253|290:253|207:142|207:142|227:90,1,256,8|2,0:0|1:0,0:0:0:0:
260,22,79319,1,0,0:0:0:0:
203,269,79444,6,0,B|250:224|250:224|233:77|233:77|279:39,1,272.000005187988,0|2,0:0|1:0,0:0:0:0:
347,0,79819,1,0,0:0:0:0:
161,198,79944,6,0,B|227:183|227:183|289:37|289:37|353:26,1,287.999991210938,8|0,0:0|0:0,0:0:0:0:
429,11,80319,1,0,0:0:0:0:
503,97,80444,5,2,1:0:0:0:
425,146,80569,1,0,0:0:0:0:
512,171,80694,1,0,0:0:0:0:
73,1,80944,5,8,0:0:0:0:
162,32,81069,1,0,0:0:0:0:
91,103,81194,1,2,1:0:0:0:
160,168,81319,1,0,0:0:0:0:
118,257,81444,6,0,L|129:386,1,120.000004577637
122,384,81694,2,0,L|132:264,1,120.000004577637,2|0,1:0|0:0,0:0:0:0:
216,109,81944,2,0,B|352:75|317:367|468:328,1,360.000013732911,8|0,0:0|0:0,0:0:0:0:
425,143,82444,6,0,B|384:148|384:148|311:291|311:291|268:300,1,240.000009155274,2|0,1:0|0:0,0:0:0:0:
197,313,82819,1,0,0:0:0:0:
262,140,82944,6,0,B|305:146|305:146|381:298|381:298|427:307,1,256,8|2,0:0|1:0,0:0:0:0:
501,320,83319,1,0,0:0:0:0:
436,134,83444,6,0,B|390:140|390:140|309:299|309:299|262:308,1,272.000005187988,0|2,0:0|1:0,0:0:0:0:
183,320,83819,1,0,0:0:0:0:
249,133,83944,6,0,B|296:139|296:139|380:307|380:307|431:317,1,287.999991210938,8|0,0:0|0:0,0:0:0:0:
510,332,84319,1,0,0:0:0:0:
426,208,84444,5,2,1:0:0:0:
497,155,84569,1,0,0:0:0:0:
509,240,84694,1,0,0:0:0:0:
36,208,84944,5,8,0:0:0:0:
385,313,85194,5,2,1:0:0:0:
300,318,85319,1,0,0:0:0:0:
269,239,85444,1,0,0:0:0:0:
398,49,85694,5,2,1:0:0:0:
269,239,85944,5,8,0:0:0:0:
27,102,86194,5,0,0:0:0:0:
60,28,86319,1,0,0:0:0:0:
36,112,86444,2,0,L|51:231,1,120.000004577637,2|0,1:0|0:0,0:0:0:0:
67,318,86694,1,0,0:0:0:0:
148,297,86819,1,0,0:0:0:0:
205,359,86944,1,8,0:0:0:0:
404,52,87194,5,2,1:0:0:0:
484,83,87319,1,0,0:0:0:0:
507,162,87444,1,0,0:0:0:0:
286,0,87694,5,2,1:0:0:0:
205,33,87819,1,0,0:0:0:0:
185,115,87944,1,8,0:0:0:0:
478,241,88444,6,0,P|426:233|359:233,1,120.000004577637,2|0,1:0|0:0,0:0:0:0:
289,285,88694,1,0,0:0:0:0:
250,208,88819,1,0,0:0:0:0:
188,262,88944,1,8,0:0:0:0:
123,212,89069,1,0,0:0:0:0:
51,251,89194,1,2,1:0:0:0:
363,379,89444,5,0,0:0:0:0:
446,337,89569,1,0,0:0:0:0:
361,308,89694,1,2,1:0:0:0:
73,379,89944,5,8,0:0:0:0:
361,308,90194,5,0,0:0:0:0:
316,230,90319,1,0,0:0:0:0:
391,184,90444,2,0,P|407:145|352:43,1,120.000004577637,2|0,1:0|0:0,0:0:0:0:
228,73,90694,2,0,P|253:106|369:109,1,120.000004577637
259,0,90944,1,8,0:0:0:0:
27,108,91194,5,2,1:0:0:0:
39,27,91319,1,0,0:0:0:0:
38,112,91444,2,0,L|53:249,1,120.000004577637
246,143,91694,2,0,L|109:158,1,120.000004577637,2|0,1:0|0:0,0:0:0:0:
56,236,91944,1,8,0:0:0:0:
125,293,92069,1,2,1:0:0:0:
60,354,92194,1,0,0:0:0:0:
393,250,92444,5,2,1:0:0:0:
75,350,92694,5,2,1:0:0:0:
202,331,92819,1,2,1:0:0:0:
214,194,92944,1,6,1:0:0:0:
