osu file format v14

[General]
AudioFilename: audio.ogg
AudioLeadIn: 0
PreviewTime: 39131
Countdown: 1
SampleSet: Soft
StackLeniency: 0.2
Mode: 0
LetterboxInBreaks: 0
WidescreenStoryboard: 1

[Editor]
Bookmarks: 13390,25390,37390,49390,65390,76390,84390
DistanceSpacing: 1.2
BeatDivisor: 8
GridSize: 8
TimelineZoom: 1.6

[Metadata]
Title:S.I.M.P. (Squirrels In My Pants)
TitleUnicode:S.I.M.P. (Squirrels In My Pants)
Artist:2 Guys N the Parque
ArtistUnicode:2 Guys N the Parque
Creator:Kingling
Version:8 Guys N the Collab
Source:Phineas and Ferb
Tags:hip hop english simp cartoon guyz comet kermillian michael culross, jr. jeff swampy marsh martin olson dan povenmire candace apollo apo11o ajt nega woey yokespai vespirit plaudible mkguh xahlt paradogi shii shiitsuin aistre alphabet venax hydrocannon13
BeatmapID:2635559
BeatmapSetID:1185064

[Difficulty]
HPDrainRate:5
CircleSize:5
OverallDifficulty:8.6
ApproachRate:9
SliderMultiplier:1.6
SliderTickRate:1

[Events]
//Background and Video events
0,0,"bg.jpg",0,0
Video,-2900,"simpfinal.mp4"
//Break Periods
//Storyboard Layer 0 (Background)
//Storyboard Layer 1 (Fail)
//Storyboard Layer 2 (Pass)
//Storyboard Layer 3 (Foreground)
//Storyboard Layer 4 (Overlay)
//Storyboard Sound Samples

[TimingPoints]
1194,500,4,2,1,50,1,0
1194,-33.3333333333333,4,2,1,50,0,0
1235,-33.3333333333333,4,2,1,5,0,0
1444,500,4,2,1,50,1,0
4944,-66.6666666666667,4,2,1,50,0,0
5006,-66.6666666666667,4,2,1,5,0,0
5069,-66.6666666666667,4,2,1,50,0,0
5131,-66.6666666666667,4,2,1,5,0,0
5194,-66.6666666666667,4,2,1,50,0,0
5256,-66.6666666666667,4,2,1,5,0,0
5319,-66.6666666666667,4,2,1,50,0,0
5381,-66.6666666666667,4,2,1,5,0,0
5444,-75.187969924812,4,2,1,50,0,0
7444,-50.251256281407,4,2,1,50,0,0
9444,-75.187969924812,4,2,1,50,0,0
11444,-50.251256281407,4,2,1,50,0,0
12444,-42.9184549356223,4,2,1,50,0,0
13444,-42.9184549356223,4,2,1,70,0,0
15944,-60.2409638554217,4,2,1,70,0,0
17444,-42.9184549356223,4,2,1,80,0,1
23444,-42.9184549356223,4,2,1,80,0,0
25444,-75.187969924812,4,2,1,55,0,0
33069,-50,4,2,1,55,0,0
33444,-75.187969924812,4,2,1,55,0,0
37069,-50,4,2,1,55,0,0
37944,-100,4,2,1,55,0,0
38006,-100,4,2,1,5,0,0
38194,-75.187969924812,4,2,1,55,0,0
40944,-66.6666666666667,4,2,1,55,0,0
41444,-42.9184549356223,4,2,1,80,0,1
47444,-42.9184549356223,4,2,1,80,0,0
48944,-151.515151515152,4,2,1,80,0,0
49444,-151.515151515152,4,2,1,55,0,0
51444,-50,4,2,1,55,0,0
55194,-133.333333333333,4,2,1,55,0,0
55444,-50,4,2,1,55,0,0
65194,-133.333333333333,4,2,1,55,0,0
65319,-133.333333333333,4,2,1,5,0,0
65444,-66.6666666666667,4,2,1,80,0,1
67444,-33.3333333333333,4,2,1,80,0,1
69444,-66.6666666666667,4,2,1,80,0,1
71444,-40,4,2,1,80,0,1
72194,-28.5714285714286,4,2,1,80,0,1
72694,-33.3333333333333,4,2,1,80,0,1
73444,-400,4,2,1,80,0,0
75194,-400,4,2,1,40,0,0
75444,-400,4,2,1,45,0,0
75694,-400,4,2,1,55,0,0
75944,-400,4,2,1,50,0,0
76194,-400,4,2,1,45,0,0
76444,500,4,2,1,80,1,0
76444,-50,4,2,1,80,0,1
76694,-62.5,4,2,1,80,0,1
78444,-50,4,2,1,80,0,1
78694,-62.5,4,2,1,80,0,1
82444,-50,4,2,1,80,0,1
82694,-62.5,4,2,1,80,0,1
83444,-50,4,2,1,80,0,1
83694,-62.5,4,2,1,80,0,1
84444,-57.1428571428571,4,2,1,80,0,1
85944,-100,4,2,1,80,0,1
86944,-80,4,2,1,80,0,1
87944,-66.6666666666667,4,2,1,80,0,1
88444,-41.6666666666667,4,2,1,80,0,1
90444,-66.6666666666667,4,2,1,75,0,1
92444,-83.3333333333333,4,2,1,75,0,1
92694,-35.7142857142857,4,2,1,75,0,1
92756,-35.7142857142857,4,2,1,5,0,1
92819,-35.7142857142857,4,2,1,75,0,1
92881,-35.7142857142857,4,2,1,5,0,1
92944,-35.7142857142857,4,2,1,75,0,1
93006,-35.7142857142857,4,2,1,5,0,0
93319,-33.3333333333333,4,2,1,75,0,0

[Colours]
Combo1 : 237,96,61
Combo2 : 106,182,31
Combo3 : 247,147,72
Combo4 : 159,154,138

[HitObjects]
504,340,1194,6,0,L|509:389,1,40.000001525879
500,328,1444,6,0,B|422:303|422:356|345:340,1,160,6|8,1:0|0:0,0:0:0:0:
256,384,2194,1,0,1:0:0:0:
167,339,2444,2,0,P|158:301|169:263,1,80,0|0,0:0|1:0,0:0:0:0:
256,192,2944,1,8,0:0:0:0:
229,302,3194,1,0,0:0:0:0:
185,111,3444,1,0,1:0:0:0:
185,111,3944,5,8,0:0:0:0:
81,141,4194,1,0,1:0:0:0:
174,33,4444,1,0,0:0:0:0:
289,81,4694,1,0,1:0:0:0:
296,92,4819,1,0,0:0:0:0:
303,103,4944,6,0,L|352:95,1,30.0000011444092,8|0,0:0|0:0,0:0:0:0:
325,166,5069,2,0,L|374:174,1,30.0000011444092
398,119,5194,2,0,L|447:111,1,30.0000011444092
420,182,5319,2,0,L|469:190,1,30.0000011444092
500,142,5444,6,0,P|513:166|519:192,1,53.1999978082276,2|0,1:0|0:0,0:0:0:0:
498,318,5694,2,0,P|509:294|512:267,1,53.1999978082276
420,182,5944,1,8,0:0:0:0:
379,242,6069,1,0,0:0:0:0:
452,249,6194,1,0,1:0:0:0:
157,44,6444,6,0,L|167:-8,1,53.1999978082276
198,101,6694,2,0,L|250:111,1,53.1999978082276,0|0,1:0|0:0,0:0:0:0:
141,142,6944,2,0,L|131:194,1,53.1999978082276,8|0,0:0|0:0,0:0:0:0:
100,85,7194,1,0,0:0:0:0:
283,276,7444,6,0,P|307:251|276:237,1,79.6000019737244,2|0,1:0|0:0,0:0:0:0:
148,266,7694,2,0,P|126:292|158:303,1,79.6000019737244
379,272,7944,2,0,P|379:232|361:197,1,79.6000019737244,8|0,0:0|0:0,0:0:0:0:
53,269,8194,2,0,P|53:308|70:343,1,79.6000019737244,0|0,1:0|0:0,0:0:0:0:
371,310,8444,6,0,P|382:253|328:163,1,159.200003947449,0|0,0:0|1:0,0:0:0:0:
265,114,8819,1,0,0:0:0:0:
292,34,8944,2,0,P|338:23|377:32,1,79.6000019737244,8|0,0:0|0:0,0:0:0:0:
265,114,9194,1,2,1:0:0:0:
209,50,9319,1,0,0:0:0:0:
128,22,9444,6,0,L|48:14,1,53.1999978082276,2|0,1:0|0:0,0:0:0:0:
19,140,9694,2,0,L|71:134,1,53.1999978082276
265,114,9944,1,8,0:0:0:0:
209,50,10069,1,0,0:0:0:0:
181,130,10194,1,0,1:0:0:0:
283,378,10444,6,0,P|321:383|341:378,1,53.1999978082276
414,348,10694,1,0,1:0:0:0:
496,369,10819,1,0,0:0:0:0:
474,288,10944,1,8,0:0:0:0:
495,206,11069,1,0,0:0:0:0:
414,229,11194,1,0,0:0:0:0:
130,306,11444,6,0,B|126:268|126:268|147:233,1,79.6000019737244,2|0,1:0|0:0,0:0:0:0:
299,258,11694,2,0,B|308:298|308:298|290:332,1,79.6000019737244
81,259,11944,2,0,L|0:245,1,79.6000019737244,8|0,0:0|0:0,0:0:0:0:
346,308,12194,2,0,L|424:322,1,79.6000019737244,2|0,1:0|0:0,0:0:0:0:
221,363,12444,6,0,B|243:318|226:279|213:262|203:226|225:181,1,186.400007466126,0|2,0:0|1:0,0:0:0:0:
271,130,12819,1,0,0:0:0:0:
324,90,12944,1,8,0:0:0:0:
286,36,13069,1,2,1:0:0:0:
219,25,13194,1,0,0:0:0:0:
166,63,13319,1,0,0:0:0:0:
188,125,13444,6,0,P|203:169|193:217,1,93.2000037330629,6|0,1:0|0:0,0:0:0:0:
122,260,13694,1,0,0:0:0:0:
124,176,13819,1,0,0:0:0:0:
196,297,13944,6,0,P|231:326|280:334,1,93.2000037330629,8|0,0:0|0:0,0:0:0:0:
345,283,14194,1,2,1:0:0:0:
265,255,14319,1,0,0:0:0:0:
126,342,14444,6,0,P|81:328|48:291,1,93.2000037330629
55,209,14694,1,0,0:0:0:0:
122,260,14819,1,0,0:0:0:0:
58,119,14944,2,0,P|60:74|85:22,1,93.2000037330629,8|0,0:0|0:0,0:0:0:0:
142,171,15194,2,0,P|140:216|115:268,1,93.2000037330629
270,111,15444,5,2,1:0:0:0:
348,81,15569,1,0,0:0:0:0:
264,81,15694,1,0,0:0:0:0:
436,286,15944,6,0,L|413:376,1,66.4000009625244,8|0,0:0|0:0,0:0:0:0:
335,186,16194,2,0,L|358:276,1,66.4000009625244,2|0,1:0|0:0,0:0:0:0:
446,99,16444,5,0,0:0:0:0:
438,138,16569,1,0,0:0:0:0:
430,177,16694,1,2,1:0:0:0:
378,37,16944,5,8,0:0:0:0:
370,76,17069,1,0,1:0:0:0:
309,102,17194,1,0,0:0:0:0:
243,90,17319,1,0,0:0:0:0:
189,50,17444,6,0,B|136:78|136:78|156:138|156:138|146:205,1,186.400007466126,2|0,1:0|0:0,0:0:0:0:
95,357,17944,1,8,0:0:0:0:
75,265,18069,1,0,0:0:0:0:
223,352,18194,2,0,P|177:354|135:335,1,93.2000037330629,2|0,1:0|0:0,0:0:0:0:
42,197,18444,2,0,P|88:195|130:214,1,93.2000037330629
283,284,18694,2,0,P|236:285|194:266,1,93.2000037330629,2|0,1:0|0:0,0:0:0:0:
100,128,18944,1,8,0:0:0:0:
85,64,19069,1,0,0:0:0:0:
132,19,19194,1,0,0:0:0:0:
197,17,19319,1,0,0:0:0:0:
235,69,19444,6,0,P|188:143|102:129,1,186.400007466126,2|0,1:0|0:0,0:0:0:0:
156,79,19819,1,0,0:0:0:0:
252,183,19944,2,0,L|232:301,1,93.2000037330629,8|0,0:0|0:0,0:0:0:0:
175,363,20194,1,2,1:0:0:0:
169,249,20319,1,0,0:0:0:0:
322,344,20444,2,0,P|410:330|424:240,1,186.400007466126,0|2,0:0|1:0,0:0:0:0:
383,196,20819,1,0,0:0:0:0:
477,356,20944,1,8,0:0:0:0:
481,340,21194,1,0,0:0:0:0:
476,34,21444,6,0,P|414:108|336:83,1,186.400007466126,2|0,1:0|0:0,0:0:0:0:
230,10,21944,1,8,0:0:0:0:
270,117,22069,1,0,0:0:0:0:
99,57,22194,2,0,P|146:53|188:71,1,93.2000037330629,2|0,1:0|0:0,0:0:0:0:
306,190,22444,2,0,P|259:193|217:175,1,93.2000037330629
46,127,22694,2,0,P|92:123|134:141,1,93.2000037330629,2|0,1:0|0:0,0:0:0:0:
248,268,22944,1,8,0:0:0:0:
182,333,23069,1,2,1:0:0:0:
92,307,23194,1,0,0:0:0:0:
86,213,23319,1,0,0:0:0:0:
287,192,23444,6,0,P|326:285|264:353,1,186.400007466126,6|2,1:0|0:0,0:0:0:0:
248,268,23819,1,2,0:0:0:0:
394,230,23944,2,0,L|422:136,1,93.2000037330629,2|0,0:0|0:0,0:0:0:0:
472,74,24194,1,2,0:0:0:0:
498,153,24319,1,2,0:0:0:0:
347,31,24444,2,0,P|249:37|199:112,1,186.400007466126,2|2,0:0|0:0,0:0:0:0:
216,168,24819,1,2,0:0:0:0:
162,18,24944,1,2,0:0:0:0:
155,34,25194,1,0,0:0:0:0:
456,192,25444,5,2,1:0:0:0:
389,145,25569,1,0,0:0:0:0:
379,221,25694,1,0,0:0:0:0:
25,350,25944,6,0,P|50:359|76:354,1,53.1999978082276,8|0,0:0|0:0,0:0:0:0:
145,285,26194,2,0,P|122:274|98:284,1,53.1999978082276,2|0,1:0|0:0,0:0:0:0:
30,241,26444,5,0,0:0:0:0:
0,163,26569,1,0,0:0:0:0:
27,86,26694,1,0,0:0:0:0:
97,43,26819,1,0,0:0:0:0:
179,56,26944,2,0,P|199:98|184:156,1,106.399995616455,8|0,0:0|0:0,0:0:0:0:
470,352,27444,6,0,L|482:294,1,53.1999978082276,2|0,1:0|0:0,0:0:0:0:
401,278,27694,2,0,L|389:220,1,53.1999978082276
476,185,27944,2,0,L|488:127,1,53.1999978082276,8|0,0:0|0:0,0:0:0:0:
407,111,28194,2,0,L|395:53,1,53.1999978082276,2|0,1:0|0:0,0:0:0:0:
287,65,28444,5,0,0:0:0:0:
208,29,28569,1,0,0:0:0:0:
151,93,28694,1,2,1:0:0:0:
193,167,28819,1,0,0:0:0:0:
277,149,28944,2,0,P|286:186|278:212,1,53.1999978082276,8|0,0:0|0:0,0:0:0:0:
352,256,29194,2,0,P|346:290|354:314,1,53.1999978082276,2|0,1:0|0:0,0:0:0:0:
284,370,29444,1,2,1:0:0:0:
126,244,29694,5,0,0:0:0:0:
55,243,29819,1,0,0:0:0:0:
33,175,29944,1,8,0:0:0:0:
90,133,30069,1,0,0:0:0:0:
148,175,30194,1,2,1:0:0:0:
126,244,30319,5,0,0:0:0:0:
191,298,30444,1,0,0:0:0:0:
275,300,30569,1,0,0:0:0:0:
341,247,30694,2,0,P|342:219|361:189,1,53.1999978082276,0|0,1:0|0:0,0:0:0:0:
436,159,30944,2,0,P|436:192|416:216,1,53.1999978082276,8|0,0:0|1:0,0:0:0:0:
416,304,31194,1,0,0:0:0:0:
440,14,31444,6,0,L|493:25,1,53.1999978082276,2|0,1:0|0:0,0:0:0:0:
390,74,31694,2,0,L|338:85,1,53.1999978082276
268,28,31944,2,0,L|215:17,1,53.1999978082276,8|0,0:0|0:0,0:0:0:0:
165,87,32194,2,0,L|107:99,1,53.1999978082276,2|0,1:0|0:0,0:0:0:0:
44,13,32444,5,0,0:0:0:0:
6,85,32569,1,0,0:0:0:0:
22,165,32694,1,2,1:0:0:0:
87,217,32819,1,0,0:0:0:0:
47,294,32944,1,8,0:0:0:0:
87,217,33069,2,0,B|146:237|146:237|182:219|182:219|240:234,1,160,2|0,1:0|0:0,0:0:0:0:
257,328,33444,6,0,L|302:363,1,53.1999978082276,2|0,1:0|0:0,0:0:0:0:
352,287,33694,2,0,L|409:280,1,53.1999978082276
392,191,33944,2,0,L|427:146,1,53.1999978082276,8|0,0:0|0:0,0:0:0:0:
351,95,34194,2,0,L|344:38,1,53.1999978082276,2|0,1:0|0:0,0:0:0:0:
237,27,34444,5,0,0:0:0:0:
149,43,34569,1,0,0:0:0:0:
100,118,34694,1,0,1:0:0:0:
117,204,34819,1,0,0:0:0:0:
170,284,34944,2,0,L|149:332,1,53.1999978082276,8|0,0:0|1:0,0:0:0:0:
263,299,35194,1,0,0:0:0:0:
263,299,35319,1,0,0:0:0:0:
344,232,35444,6,0,L|396:238,1,53.1999978082276,2|0,1:0|0:0,0:0:0:0:
411,163,35694,2,0,L|463:169,1,53.1999978082276
212,177,35944,2,0,L|160:171,1,53.1999978082276,8|0,0:0|0:0,0:0:0:0:
278,108,36194,2,0,L|226:102,1,53.1999978082276,2|0,1:0|0:0,0:0:0:0:
161,7,36444,5,0,0:0:0:0:
71,40,36569,1,0,0:0:0:0:
72,135,36694,1,2,1:0:0:0:
160,171,36819,1,0,0:0:0:0:
225,101,36944,1,8,0:0:0:0:
313,191,37069,2,0,B|298:246|298:246|316:282|316:282|296:341,1,160,2|0,1:0|0:0,0:0:0:0:
216,350,37444,5,2,1:0:0:0:
149,306,37569,1,0,0:0:0:0:
13,373,37694,1,0,0:0:0:0:
46,236,37944,6,0,L|47:216,1,20,8|0,0:0|0:0,0:0:0:0:
69,315,38194,2,0,L|121:320,1,53.1999978082276,2|0,1:0|0:0,0:0:0:0:
216,350,38444,5,0,0:0:0:0:
289,318,38569,1,0,0:0:0:0:
433,373,38694,1,0,0:0:0:0:
336,254,38944,5,8,0:0:0:0:
368,326,39069,1,0,0:0:0:0:
500,329,39194,1,0,1:0:0:0:
500,329,39319,1,0,1:0:0:0:
435,282,39444,6,0,P|435:239|441:213,1,53.1999978082276,6|0,1:0|0:0,0:0:0:0:
469,204,39694,2,0,B|468:196|461:191|461:191|447:207|444:243,1,53.1999978082276,2|0,0:0|0:0,0:0:0:0:
374,183,39944,2,0,P|374:140|368:114,1,53.1999978082276,2|0,0:0|0:0,0:0:0:0:
339,105,40194,2,0,B|340:96|346:92|346:92|361:108|364:143,1,53.1999978082276,2|0,0:0|0:0,0:0:0:0:
446,111,40444,5,2,0:0:0:0:
478,22,40694,5,2,0:0:0:0:
450,119,40819,1,2,0:0:0:0:
484,15,40944,2,0,B|434:46|375:24|411:13|352:-10|292:20,1,180.000006866455,2|0,0:0|0:0,0:0:0:0:
269,78,41444,6,0,B|255:139|255:139|300:178|300:178|284:246,1,186.400007466126,0|0,1:0|0:0,0:0:0:0:
215,269,41944,1,8,0:0:0:0:
350,285,42069,1,0,0:0:0:0:
200,293,42194,2,0,L|104:299,1,93.2000037330629,0|0,1:0|0:0,0:0:0:0:
279,147,42444,2,0,L|285:243,1,93.2000037330629
133,68,42694,2,0,L|229:62,1,93.2000037330629,0|0,1:0|0:0,0:0:0:0:
54,214,42944,1,8,0:0:0:0:
48,120,43069,1,0,0:0:0:0:
115,162,43194,1,0,1:0:0:0:
115,162,43319,1,0,0:0:0:0:
44,219,43444,6,0,P|29:258|129:331,1,186.400007466126,2|0,1:0|0:0,0:0:0:0:
170,222,43819,1,0,0:0:0:0:
284,299,43944,2,0,P|239:283|194:296,1,93.2000037330629,8|0,0:0|0:0,0:0:0:0:
237,363,44194,1,2,1:0:0:0:
331,235,44319,1,0,0:0:0:0:
329,380,44444,6,0,P|360:344|405:332,1,93.2000037330629
473,378,44694,1,2,1:0:0:0:
422,260,44819,1,0,0:0:0:0:
482,381,44944,2,0,L|493:271,2,93.2000037330629,8|0|0,0:0|0:0|0:0,0:0:0:0:
430,95,45444,5,0,1:0:0:0:
481,213,45694,1,0,0:0:0:0:
499,66,45944,1,8,0:0:0:0:
421,169,46069,1,0,0:0:0:0:
507,71,46194,2,0,L|400:67,1,93.2000037330629,0|0,1:0|0:0,0:0:0:0:
326,109,46444,2,0,P|337:58|323:7,1,93.2000037330629
70,121,46694,2,0,L|177:117,1,93.2000037330629,0|0,1:0|0:0,0:0:0:0:
251,159,46944,1,8,0:0:0:0:
248,68,47069,1,0,1:0:0:0:
174,116,47194,1,0,0:0:0:0:
174,116,47319,1,0,0:0:0:0:
326,110,47444,6,0,B|359:153|338:211|327:178|308:240|341:286,1,186.400007466126,6|2,1:0|0:0,0:0:0:0:
407,235,47819,1,2,0:0:0:0:
256,294,47944,1,2,0:0:0:0:
105,235,48194,5,2,0:0:0:0:
256,294,48319,1,2,0:0:0:0:
171,286,48444,2,0,B|204:240|185:178|174:211|153:153|185:110,1,186.400007466126,2|2,0:0|0:0,0:0:0:0:
256,160,48819,1,2,0:0:0:0:
256,160,48944,2,0,L|256:221,1,52.7999998388672,2|0,0:0|0:0,0:0:0:0:
255,21,49444,5,2,1:0:0:0:
295,51,49569,1,0,0:0:0:0:
346,61,49694,1,0,0:0:0:0:
395,41,49819,1,0,0:0:0:0:
253,4,49944,1,8,0:0:0:0:
512,157,50194,5,2,1:0:0:0:
473,127,50319,1,0,0:0:0:0:
425,118,50444,1,0,0:0:0:0:
379,136,50569,1,0,0:0:0:0:
357,179,50694,1,0,0:0:0:0:
512,175,50944,5,8,0:0:0:0:
357,198,51069,1,0,0:0:0:0:
170,65,51444,6,0,L|156:165,1,80,2|0,1:0|0:0,0:0:0:0:
248,329,51694,2,0,L|237:250,1,80
79,326,51944,2,0,L|65:226,1,80,8|0,0:0|0:0,0:0:0:0:
157,61,52194,2,0,L|146:141,1,80,2|0,1:0|0:0,0:0:0:0:
2,264,52444,6,0,P|6:216|60:179,1,80
204,335,52694,1,2,1:0:0:0:
159,268,52819,1,0,0:0:0:0:
192,195,52944,2,0,P|238:182|291:220,1,80,8|0,0:0|0:0,0:0:0:0:
377,369,53194,2,0,B|371:326|371:326|393:287,1,80,2|0,1:0|0:0,0:0:0:0:
472,203,53444,5,2,1:0:0:0:
440,178,53569,1,0,0:0:0:0:
430,139,53694,1,0,0:0:0:0:
447,104,53819,1,0,0:0:0:0:
486,209,53944,1,8,0:0:0:0:
512,49,54194,5,2,1:0:0:0:
480,19,54319,1,0,0:0:0:0:
439,28,54444,1,0,0:0:0:0:
397,37,54569,1,0,0:0:0:0:
320,138,54694,2,0,P|342:159|328:129,1,80
198,24,54944,1,8,0:0:0:0:
244,68,55069,1,0,0:0:0:0:
243,133,55194,2,0,L|232:167,1,30.0000011444092
33,91,55444,6,0,P|77:76|120:109,1,80,2|0,1:0|0:0,0:0:0:0:
293,256,55694,2,0,P|337:271|380:238,1,80
416,155,55944,2,0,P|372:140|329:173,1,80,8|0,0:0|0:0,0:0:0:0:
156,320,56194,2,0,P|112:335|69:302,1,80,2|0,1:0|0:0,0:0:0:0:
252,174,56444,5,0,0:0:0:0:
221,248,56569,1,0,0:0:0:0:
250,322,56694,2,0,P|276:340|342:332,1,80,2|0,1:0|0:0,0:0:0:0:
258,168,56944,5,8,0:0:0:0:
107,351,57069,2,0,L|95:173,1,160,2|0,1:0|0:0,0:0:0:0:
42,104,57444,6,0,P|89:114|134:89,1,80,2|0,1:0|0:0,0:0:0:0:
253,15,57694,2,0,L|242:109,1,80
211,303,57944,1,8,0:0:0:0:
264,243,58069,1,0,0:0:0:0:
242,166,58194,2,0,P|197:158|154:183,1,80,2|0,1:0|0:0,0:0:0:0:
294,348,58444,6,0,L|283:254,1,80
434,204,58694,2,0,L|443:124,1,80
246,88,58944,2,0,B|225:134|263:172|317:177|341:123|336:36|260:11,1,240,8|0,0:0|0:0,0:0:0:0:
129,18,59444,5,2,1:0:0:0:
120,97,59569,1,0,0:0:0:0:
181,149,59694,1,0,0:0:0:0:
172,228,59819,1,0,0:0:0:0:
43,295,59944,5,8,0:0:0:0:
122,304,60069,1,0,0:0:0:0:
174,243,60194,1,2,1:0:0:0:
253,252,60319,1,0,0:0:0:0:
310,344,60444,5,0,0:0:0:0:
269,256,60569,1,0,0:0:0:0:
332,184,60694,2,0,P|335:178|337:201,1,80,2|0,1:0|0:0,0:0:0:0:
266,156,60944,1,8,0:0:0:0:
403,384,61069,2,0,L|428:206,1,160,2|0,1:0|0:0,0:0:0:0:
502,123,61444,5,2,1:0:0:0:
494,201,61569,1,0,0:0:0:0:
429,154,61694,1,0,0:0:0:0:
437,75,61819,1,0,0:0:0:0:
508,133,61944,5,8,0:0:0:0:
435,164,62069,1,0,0:0:0:0:
366,122,62194,2,0,P|323:111|272:135,1,80,2|0,1:0|0:0,0:0:0:0:
214,244,62444,2,0,P|226:201|204:149,1,80
220,0,62694,2,0,P|207:42|229:94,1,80
377,154,62944,1,8,0:0:0:0:
297,160,63069,1,0,0:0:0:0:
217,167,63194,1,0,0:0:0:0:
137,174,63319,1,0,0:0:0:0:
57,182,63444,5,6,1:0:0:0:
121,80,63694,1,2,0:0:0:0:
121,99,63819,1,2,0:0:0:0:
57,182,63944,5,2,0:0:0:0:
14,94,64194,1,2,0:0:0:0:
14,113,64319,1,2,0:0:0:0:
57,182,64444,5,2,0:0:0:0:
90,131,64694,1,2,0:0:0:0:
90,150,64819,1,2,0:0:0:0:
57,182,64944,5,2,0:0:0:0:
248,22,65194,2,0,L|251:58,1,30.0000011444092
261,161,65444,5,0,1:0:0:0:
261,161,65694,2,0,L|330:155,1,60.0000022888184
133,201,65944,1,8,0:0:0:0:
124,198,66069,1,0,0:0:0:0:
212,229,66194,2,0,B|223:256|223:256|215:286,1,60.0000022888184,0|0,1:0|0:0,0:0:0:0:
50,247,66444,6,0,P|34:202|42:170,1,60.0000022888184
124,114,66694,2,0,P|136:140|137:170,1,60.0000022888184,0|0,1:0|0:0,0:0:0:0:
109,321,66944,1,8,0:0:0:0:
190,353,67069,1,0,0:0:0:0:
240,282,67194,1,0,1:0:0:0:
159,250,67319,1,0,0:0:0:0:
321,341,67444,6,0,B|360:311|399:327|399:327|430:342|455:319|455:319|466:270|415:235,1,240.000009155274,2|0,1:0|0:0,0:0:0:0:
240,282,67819,1,0,0:0:0:0:
321,341,67944,2,0,B|345:278|313:201|313:201|314:166|314:166|303:135|311:105,1,240.000009155274,8|2,0:0|1:0,0:0:0:0:
157,220,68319,1,0,0:0:0:0:
223,162,68444,6,0,B|205:145|192:123|192:123|150:129|150:129|114:114|114:114|89:163|51:213,1,240.000009155274,0|2,0:0|1:0,0:0:0:0:
240,282,68819,1,0,0:0:0:0:
325,236,68944,2,0,B|373:234|407:218|407:218|407:234|407:234|438:220|490:230|490:230|458:255|428:256,1,240.000009155274,8|0,0:0|0:0,0:0:0:0:
310,105,69444,5,0,1:0:0:0:
310,105,69694,2,0,L|316:40,1,60.0000022888184
205,182,69944,1,8,0:0:0:0:
207,198,70069,1,0,0:0:0:0:
224,104,70194,2,0,B|194:101|194:101|166:111,1,60.0000022888184,0|0,1:0|0:0,0:0:0:0:
311,185,70444,6,0,P|357:169|379:148,1,60.0000022888184
235,274,70694,2,0,P|261:314|288:330,1,60.0000022888184,0|0,1:0|0:0,0:0:0:0:
198,133,70944,5,8,0:0:0:0:
123,214,71069,1,0,1:0:0:0:
230,247,71194,1,0,0:0:0:0:
306,168,71319,1,0,0:0:0:0:
69,55,71444,6,0,B|120:367|120:367|148:287,1,400,2|8,1:0|0:0,0:0:0:0:
193,96,72194,6,0,P|353:127|213:210,1,420.000004005432,2|0,1:0|0:0,0:0:0:0:
483,172,72694,6,0,P|382:114|268:141,1,240.000009155274,2|8,1:0|0:0,0:0:0:0:
165,305,73069,5,2,1:0:0:0:
359,300,73194,1,0,0:0:0:0:
165,283,73319,1,0,0:0:0:0:
261,365,73444,6,0,B|248:302|275:302|262:246,1,120,6|0,1:0|0:0,0:0:0:0:
256,141,75194,5,2,0:0:0:0:
256,156,75319,1,2,0:0:0:0:
265,138,75444,1,2,0:0:0:0:
245,159,75569,1,2,0:0:0:0:
286,148,75694,1,2,0:0:0:0:
224,149,75819,1,2,0:0:0:0:
265,159,75944,1,2,0:0:0:0:
245,138,76069,1,2,0:0:0:0:
256,156,76194,1,2,0:0:0:0:
355,88,76444,6,0,B|406:56|466:81|466:81|436:80|416:97,1,160,6|0,1:0|0:0,0:0:0:0:
353,201,76819,1,0,0:0:0:0:
353,201,76944,2,0,P|351:268|372:300,1,64,8|0,0:0|0:0,0:0:0:0:
192,168,77194,1,2,1:0:0:0:
255,67,77319,1,0,0:0:0:0:
192,168,77444,6,0,P|251:136|268:102,1,64
242,311,77694,1,2,1:0:0:0:
123,306,77819,1,0,0:0:0:0:
242,311,77944,2,0,P|184:275|146:277,1,64,8|2,0:0|1:0,0:0:0:0:
270,227,78194,2,0,L|340:235,1,64
176,100,78444,6,0,B|218:107|242:148|242:148|245:100|275:64,1,160,2|0,1:0|0:0,0:0:0:0:
112,62,78819,1,0,0:0:0:0:
112,62,78944,2,0,L|99:141,1,64,8|0,0:0|0:0,0:0:0:0:
231,252,79194,1,2,1:0:0:0:
267,136,79319,1,0,0:0:0:0:
231,252,79444,6,0,L|218:173,1,64
45,205,79694,1,2,1:0:0:0:
81,321,79819,1,0,0:0:0:0:
45,205,79944,2,0,L|32:284,1,64,8|2,0:0|1:0,0:0:0:0:
138,215,80194,1,0,0:0:0:0:
160,126,80319,1,0,0:0:0:0:
176,280,80444,5,2,1:0:0:0:
111,65,80569,1,0,0:0:0:0:
45,205,80694,2,0,B|110:202|110:202|116:196|116:196|176:194,1,128,0|8,0:0|0:0,0:0:0:0:
303,123,81069,1,0,0:0:0:0:
220,127,81194,1,2,1:0:0:0:
323,227,81319,1,0,0:0:0:0:
345,49,81444,6,0,P|307:36|277:40,1,64
381,157,81694,2,0,L|456:151,1,64,2|0,1:0|0:0,0:0:0:0:
220,127,81944,2,0,P|207:213|210:273,1,128,8|0,0:0|0:0,0:0:0:0:
207,253,82444,6,0,P|161:229|181:302,1,160,2|0,1:0|0:0,0:0:0:0:
197,155,82819,1,0,0:0:0:0:
197,155,82944,2,0,P|140:153|123:159,1,64,8|0,0:0|0:0,0:0:0:0:
242,351,83194,2,0,P|272:302|275:284,1,64,2|0,1:0|0:0,0:0:0:0:
263,111,83444,6,0,P|309:87|289:160,1,160,0|2,0:0|1:0,0:0:0:0:
273,13,83819,1,0,0:0:0:0:
273,13,83944,6,0,P|330:11|347:17,1,64,8|2,0:0|1:0,0:0:0:0:
228,209,84194,2,0,P|197:160|194:142,1,64
19,11,84444,5,2,1:0:0:0:
99,135,84569,1,0,0:0:0:0:
123,62,84694,2,0,P|74:61|26:153,2,140.000001335144,0|8|2,0:0|0:0|1:0,0:0:0:0:
195,154,85319,1,0,0:0:0:0:
287,36,85444,2,0,L|218:31,1,70.000000667572
356,121,85694,1,2,1:0:0:0:
432,64,85819,1,0,0:0:0:0:
451,160,85944,2,0,L|465:225,1,40,8|2,0:0|1:0,0:0:0:0:
398,302,86194,5,0,0:0:0:0:
468,281,86319,1,0,0:0:0:0:
398,302,86444,6,0,L|310:288,1,80,2|0,1:0|0:0,0:0:0:0:
356,227,86819,1,0,0:0:0:0:
299,354,86944,2,0,L|162:369,1,100,8|2,0:0|1:0,0:0:0:0:
224,294,87319,1,0,0:0:0:0:
121,383,87444,2,0,P|107:346|109:266,1,100,0|2,0:0|1:0,0:0:0:0:
112,212,87819,1,0,0:0:0:0:
0,214,87944,2,0,P|24:261|23:373,1,120.000004577637,8|0,0:0|0:0,0:0:0:0:
32,327,88444,6,0,B|36:288|36:288|59:247|59:247|56:186|56:186|88:144,1,191.999994140625,2|0,1:0|0:0,0:0:0:0:
160,101,88819,1,0,0:0:0:0:
95,35,88944,2,0,L|-10:19,1,95.9999970703126,8|0,0:0|0:0,0:0:0:0:
159,184,89194,2,0,L|266:172,1,95.9999970703126,2|0,1:0|0:0,0:0:0:0:
294,58,89444,5,0,0:0:0:0:
451,29,89569,1,0,0:0:0:0:
408,180,89694,2,0,B|360:151|360:151|376:7,2,191.999994140625,2|8|0,1:0|0:0|0:0,0:0:0:0:
495,215,90319,1,0,0:0:0:0:
370,245,90444,6,0,P|324:245|298:280,1,60.0000022888184,2|0,1:0|0:0,0:0:0:0:
331,369,90694,2,0,P|377:369|403:334,1,60.0000022888184
298,258,90944,1,8,0:0:0:0:
206,369,91194,5,2,1:0:0:0:
162,344,91319,1,0,0:0:0:0:
121,360,91444,2,0,P|91:366|64:354,1,60.0000022888184
76,231,91694,2,0,P|106:225|133:237,1,60.0000022888184,2|0,1:0|0:0,0:0:0:0:
30,289,91944,1,8,0:0:0:0:
15,193,92069,1,2,1:0:0:0:
0,95,92194,1,0,0:0:0:0:
98,126,92319,1,0,0:0:0:0:
152,35,92444,6,0,P|127:26|103:28,1,47.9999985351563,2|0,1:0|0:0,0:0:0:0:
330,77,92694,6,0,L|388:65,1,55.9999982910157,2|0,1:0|0:0,0:0:0:0:
358,82,92819,2,0,L|416:70,1,55.9999982910157,2|0,1:0|0:0,0:0:0:0:
431,78,92944,2,0,L|377:90,1,55.9999982910157,6|0,1:0|0:0,0:0:0:0:
