osu file format v14

[General]
AudioFilename: audio.mp3
AudioLeadIn: 0
PreviewTime: 264205
Countdown: 0
SampleSet: None
StackLeniency: 0.3
Mode: 0
LetterboxInBreaks: 0
WidescreenStoryboard: 0

[Editor]
Bookmarks: 42017,360392
DistanceSpacing: 0.8
BeatDivisor: 4
GridSize: 4
TimelineZoom: 2.4

[Metadata]
Title:God Distorsion
TitleUnicode:God Distorsion
Artist:1ntelivizi0n
ArtistUnicode:1ntelivizi0n
Creator:terratropic
Version:Insane
Source:
Tags:AP0CAL1P5YNTH breakcore drum bass idm
BeatmapID:1562034
BeatmapSetID:740375

[Difficulty]
HPDrainRate:7
CircleSize:4
OverallDifficulty:7.5
ApproachRate:9
SliderMultiplier:1.9
SliderTickRate:1

[Events]
//Background and Video events
0,0,"134161080.jpg",0,0
//Break Periods
//Storyboard Layer 0 (Background)
//Storyboard Layer 1 (Fail)
//Storyboard Layer 2 (Pass)
//Storyboard Layer 3 (Foreground)
//Storyboard Sound Samples

[TimingPoints]
200,375,4,2,1,50,1,0
200,-125,4,2,1,50,0,0
24200,-125,4,2,1,60,0,0
45200,-125,4,2,1,50,0,0
48200,-125,4,2,1,60,0,0
54200,-125,4,2,1,70,0,0
78200,-125,4,2,1,50,0,0
79606,-125,4,2,1,10,0,0
79700,-125,4,2,1,50,0,0
81106,-125,4,2,1,10,0,0
81200,-125,4,2,1,50,0,0
82606,-125,4,2,1,10,0,0
82700,-125,4,2,1,50,0,0
85606,-125,4,2,1,10,0,0
85700,-125,4,2,1,50,0,0
87106,-125,4,2,1,10,0,0
87200,-125,4,2,1,50,0,0
88606,-125,4,2,1,10,0,0
88700,-125,4,2,1,50,0,0
91606,-125,4,2,1,10,0,0
91700,-125,4,2,1,50,0,0
92450,-125,4,2,1,60,0,0
93200,-125,4,2,1,70,0,0
94700,-125,4,2,1,50,0,0
96200,-125,4,2,1,70,0,0
96856,-125,4,2,1,20,0,0
96950,-125,4,2,1,70,0,0
99856,-125,4,2,1,20,0,0
99950,-125,4,2,1,70,0,0
100700,-100,4,2,1,80,0,0
102387,-100,4,2,1,90,0,1
140825,-100,4,2,1,80,0,1
141200,-125,4,2,1,70,0,0
142606,-125,4,2,1,20,0,0
142700,-125,4,2,1,70,0,0
145793,-125,4,2,1,20,0,0
145887,-125,4,2,1,70,0,0
146075,-125,4,2,1,20,0,0
146168,-125,4,2,1,70,0,0
146356,-125,4,2,1,20,0,0
146450,-125,4,2,1,70,0,0
151793,-125,4,2,1,20,0,0
151887,-125,4,2,1,70,0,0
152075,-125,4,2,1,20,0,0
152168,-125,4,2,1,70,0,0
153200,-125,4,2,1,60,0,0
157793,-125,4,2,1,20,0,0
157887,-125,4,2,1,60,0,0
158075,-125,4,2,1,10,0,0
158168,-125,4,2,1,60,0,0
158356,-125,4,2,1,10,0,0
158450,-125,4,2,1,60,0,0
163793,-125,4,2,1,10,0,0
163887,-125,4,2,1,60,0,0
164075,-125,4,2,1,10,0,0
164168,-125,4,2,1,60,0,0
168200,-125,4,2,1,70,0,0
186387,-100,4,2,1,90,0,0
246200,-125,4,2,1,70,0,0
273950,-125,4,2,1,60,0,0
277793,-125,4,2,1,20,0,0
277887,-125,4,2,1,70,0,0
278075,-125,4,2,1,20,0,0
278168,-125,4,2,1,70,0,0
278356,-125,4,2,1,20,0,0
278450,-125,4,2,1,70,0,0
283793,-125,4,2,1,20,0,0
283887,-125,4,2,1,70,0,0
284075,-125,4,2,1,20,0,0
284168,-125,4,2,1,70,0,0
289793,-125,4,2,1,20,0,0
289887,-125,4,2,1,70,0,0
290075,-125,4,2,1,20,0,0
290168,-125,4,2,1,70,0,0
294200,-166.666666666667,4,2,1,50,0,0
318387,-100,4,2,1,90,0,1
320075,-100,4,2,1,70,0,1
320168,-100,4,2,1,50,0,1
320262,-100,4,2,1,40,0,1
320356,-100,4,2,1,30,0,1
320450,-100,4,2,1,90,0,1
338075,375,4,2,1,90,1,1
338075,-100,4,2,1,90,0,1
357950,-125,4,2,1,70,0,0
378762,-100,4,2,1,90,0,1
378950,-125,4,2,1,70,0,0
379887,-100,4,2,1,90,0,1
380262,-125,4,2,1,60,0,0
399575,-125,4,2,1,50,0,0
401075,-125,4,2,1,60,0,0
404450,-125,4,2,1,10,0,0
404543,-125,4,2,1,60,0,0
410450,-125,4,2,1,10,0,0
410543,-125,4,2,1,60,0,0
416450,-125,4,2,1,10,0,0
416543,-125,4,2,1,60,0,0
422450,-125,4,2,1,10,0,0
422543,-125,4,2,1,60,0,0
422731,-125,4,2,1,10,0,0
422825,-125,4,2,1,60,0,0
423575,-125,4,2,1,50,0,0
426575,-125,4,2,1,40,0,0
428450,-125,4,2,1,10,0,0
428543,-125,4,2,1,40,0,0
429575,-125,4,2,1,30,0,0
432575,-125,4,2,1,20,0,0
434075,-125,4,2,1,10,0,0
435387,-125,4,2,1,5,0,0

[Colours]
Combo1 : 172,172,172
Combo2 : 0,57,115
Combo3 : 142,199,255
Combo4 : 146,31,34
Combo5 : 238,162,173
Combo6 : 82,82,82

[HitObjects]
60,108,12,5,0,0:0:0:0:
60,108,200,2,0,P|108:56|204:84,1,152
208,80,950,1,0,0:0:0:0:
296,52,1137,2,0,B|344:56|344:56|392:36|392:36|456:40,1,152
496,292,1887,2,0,P|484:228|520:184,2,114
484,108,2637,2,0,P|468:184|408:152,1,152
332,204,3200,6,0,B|256:176|256:236|164:200,1,152
168,216,3950,1,0,0:0:0:0:
220,296,4137,2,0,P|136:308|84:260,1,152
0,160,4700,1,0,0:0:0:0:
56,92,4887,2,0,B|100:88|100:88|132:72|132:72|172:64,2,114
92,176,5637,2,0,P|160:184|220:112,1,152
304,96,6200,38,0,B|352:100|352:100|400:84|400:84|472:88,1,152
472,76,6950,1,0,0:0:0:0:
508,164,7137,2,0,P|468:224|512:292,1,152
268,184,7887,2,0,L|381:187,2,114
188,228,8637,2,0,P|124:240|56:180,1,152
14,116,9200,6,0,B|44:192|-12:192|12:264,1,152
4,288,9950,1,0,0:0:0:0:
76,348,10137,2,0,P|120:296|220:312,1,152
356,240,10700,1,0,0:0:0:0:
276,200,10887,2,0,B|220:216|220:216|164:204,2,114
198,296,11637,2,0,P|252:348|340:328,1,152
376,272,12200,6,0,L|376:112,1,152
356,104,12950,1,0,0:0:0:0:
432,64,13137,2,0,P|488:76|448:140,1,152
192,48,13887,2,0,P|244:64|300:36,2,114
108,24,14637,2,0,P|48:72|60:152,1,152
124,200,15200,6,0,B|172:204|172:204|216:188|216:188|292:192,1,152
300,180,15950,1,0,0:0:0:0:
376,232,16137,2,0,P|448:228|496:296,1,152
472,200,16700,1,0,0:0:0:0:
512,72,16887,2,0,B|473:72|473:72|436:84|436:84|376:80,2,114
320,40,17637,2,0,P|364:72|348:168,1,152
280,216,18200,38,0,B|200:240|200:192|120:220,1,152
112,208,18950,1,0,0:0:0:0:
32,248,19137,2,0,P|16:312|68:376,1,152
152,128,19887,2,0,B|108:132|108:132|72:124|72:124|32:124,2,114
280,216,20637,2,0,P|344:200|424:264,1,152
496,208,21200,6,0,B|496:160|496:160|472:112|472:112|472:48,1,152
456,52,21950,1,0,0:0:0:0:
384,100,22137,2,0,P|308:104|340:40,1,152
456,52,22700,1,0,0:0:0:0:
464,144,22887,2,0,P|404:144|352:184,2,114
280,216,23637,2,0,B|208:232|208:232|120:212,1,152
32,348,24200,5,0,0:0:0:0:
56,264,24387,1,0,0:0:0:0:
8,188,24575,2,0,P|64:140|52:60,1,152
132,24,25137,2,0,P|168:36|228:32,1,76
312,136,25512,1,0,0:0:0:0:
408,60,25700,5,0,0:0:0:0:
484,120,25887,2,0,L|480:204,1,76
464,180,26168,2,0,L|472:304,1,114
328,344,26637,2,0,P|366:340|402:352,2,76
220,300,27200,37,0,0:0:0:0:
96,344,27387,1,0,0:0:0:0:
124,200,27575,2,0,P|112:136|32:96,1,152
104,32,28137,2,0,L|192:36,2,76
200,144,28700,6,0,P|244:124|288:128,1,76
304,24,29075,1,0,0:0:0:0:
320,32,29168,1,0,0:0:0:0:
340,36,29262,1,0,0:0:0:0:
496,68,29450,2,0,P|456:84|432:116,1,76
428,88,29731,2,0,P|402:137|416:192,1,114
496,236,30200,6,0,L|400:236,1,76
356,296,30575,2,0,P|280:300|220:228,1,152
80,276,31137,1,0,0:0:0:0:
168,184,31325,1,0,0:0:0:0:
16,140,31512,1,0,0:0:0:0:
100,100,31700,6,0,P|68:60|28:48,2,76
116,120,32168,2,0,B|172:108|172:108|240:124,1,114
348,24,32637,1,0,0:0:0:0:
392,104,32825,2,0,P|432:128|488:132,1,76
308,172,33200,37,0,0:0:0:0:
460,133,33387,1,0,0:0:0:0:
360,248,33575,2,0,P|280:260|232:332,1,152
152,344,34137,2,0,P|104:332|64:336,2,76
237,312,34700,5,0,0:0:0:0:
316,360,34887,1,0,0:0:0:0:
440,308,35075,1,0,0:0:0:0:
456,300,35168,1,0,0:0:0:0:
476,300,35262,1,0,0:0:0:0:
336,232,35450,2,0,P|328:184|336:144,1,76
344,136,35731,2,0,P|328:88|252:60,1,114
188,164,36200,6,0,P|248:152|276:124,1,76
148,20,36575,2,0,B|92:20|92:20|52:44|52:44|-8:44,1,152
188,164,37137,1,0,0:0:0:0:
44,208,37325,1,0,0:0:0:0:
128,336,37512,1,0,0:0:0:0:
0,288,37700,5,0,0:0:0:0:
44,208,37887,2,0,P|40:168|8:128,1,76
40,120,38168,2,0,P|104:116|144:76,1,114
208,20,38637,2,0,L|304:20,2,76
320,156,39200,38,0,P|348:116|392:96,1,76
424,28,39575,2,0,P|404:92|468:152,1,152
504,220,40137,1,0,0:0:0:0:
344,264,40325,1,0,0:0:0:0:
464,300,40512,1,0,0:0:0:0:
328,236,40700,6,0,P|284:244|248:276,1,76
228,348,41075,1,0,0:0:0:0:
216,336,41168,1,0,0:0:0:0:
200,328,41262,1,0,0:0:0:0:
56,284,41450,2,0,L|60:200,1,76
72,192,41731,2,0,P|24:156|16:84,1,114
92,64,42200,5,0,0:0:0:0:
212,120,42387,1,0,0:0:0:0:
288,28,42575,2,0,B|364:0|364:52|456:16,1,152
508,76,43137,1,0,0:0:0:0:
392,152,43325,2,0,P|416:192|452:212,1,76
488,104,43700,5,0,0:0:0:0:
512,256,43887,2,0,L|508:348,1,76
496,348,44168,2,0,P|448:336|376:376,1,114
312,304,44637,1,0,0:0:0:0:
208,372,44825,1,0,0:0:0:0:
56,336,45012,1,0,0:0:0:0:
163,222,45200,38,0,L|160:136,1,76
200,68,45575,2,0,P|272:54|329:100,1,152
416,140,46137,1,0,0:0:0:0:
248,208,46325,2,0,P|236:252|248:304,1,76
304,344,46700,5,0,0:0:0:0:
452,324,46887,1,0,0:0:0:0:
324,256,47075,1,0,0:0:0:0:
476,232,47262,1,0,0:0:0:0:
380,104,47450,2,0,P|400:40|456:8,2,114
296,136,48200,6,0,P|288:92|272:64,1,76
188,28,48575,2,0,B|136:24|136:24|88:44|88:44|16:36,1,152
120,176,49137,1,0,0:0:0:0:
36,212,49325,2,0,P|8:248|0:304,1,76
116,356,49700,5,0,0:0:0:0:
224,296,49887,2,0,L|328:292,1,76
312,312,50168,2,0,P|368:308|424:336,1,114
504,192,50637,2,0,P|484:228|444:256,1,76
312,184,51012,1,0,0:0:0:0:
448,116,51200,38,0,L|440:24,1,76
312,184,51575,2,0,P|252:236|180:220,1,152
100,184,52137,1,0,0:0:0:0:
216,88,52325,1,0,0:0:0:0:
75,36,52512,1,0,0:0:0:0:
12,220,52700,6,0,L|12:308,1,76
84,352,53075,1,0,0:0:0:0:
100,340,53168,1,0,0:0:0:0:
120,336,53262,1,0,0:0:0:0:
236,252,53450,2,0,P|276:272|332:272,1,76
324,292,53731,2,0,B|380:280|380:280|452:296,1,114
496,360,54200,5,0,0:0:0:0:
512,168,54387,1,0,0:0:0:0:
428,204,54575,2,0,P|428:124|484:80,1,152
328,8,55137,1,0,0:0:0:0:
240,84,55325,2,0,P|196:84|144:60,1,76
96,16,55700,5,0,0:0:0:0:
16,56,55887,2,0,L|12:140,1,76
32,144,56168,2,0,L|36:272,1,114
184,360,56637,2,0,P|220:340|244:300,2,76
124,236,57200,37,0,0:0:0:0:
204,184,57387,1,0,0:0:0:0:
288,224,57575,2,0,P|348:256|436:220,1,152
504,104,58137,1,0,0:0:0:0:
420,64,58325,2,0,L|340:68,1,76
288,224,58700,5,0,0:0:0:0:
360,164,58887,1,0,0:0:0:0:
260,32,59075,1,0,0:0:0:0:
248,48,59168,1,0,0:0:0:0:
244,68,59262,1,0,0:0:0:0:
204,184,59450,2,0,P|164:164|140:128,1,76
132,128,59731,2,0,B|76:116|76:116|16:132,1,114
21,130,60200,5,0,0:0:0:0:
60,212,60387,1,0,0:0:0:0:
24,292,60575,2,0,P|68:352|160:336,1,152
292,292,61137,2,0,L|392:296,2,76
208,248,61700,5,0,0:0:0:0:
340,168,61887,2,0,P|316:128|268:104,1,76
268,96,62168,2,0,B|308:100|308:100|348:92|348:92|392:92,1,114
464,132,62637,1,0,0:0:0:0:
364,248,62825,1,0,0:0:0:0:
512,284,63012,1,0,0:0:0:0:
472,96,63200,38,0,P|460:48|428:12,1,76
381,92,63575,2,0,P|328:52|236:72,1,152
180,180,64137,1,0,0:0:0:0:
76,44,64325,2,0,L|-8:44,1,76
180,180,64700,5,0,0:0:0:0:
214,194,64793,1,0,0:0:0:0:
251,191,64887,1,0,0:0:0:0:
283,171,64981,1,0,0:0:0:0:
301,138,65075,2,0,L|296:80,3,38
288,88,65450,1,0,0:0:0:0:
303,77,65543,1,0,0:0:0:0:
321,71,65637,1,0,0:0:0:0:
340,70,65731,2,0,P|384:88|456:68,1,114
508,144,66200,5,0,0:0:0:0:
392,220,66387,1,0,0:0:0:0:
440,348,66575,2,0,B|360:376|360:324|288:352,1,152
208,312,67137,1,0,0:0:0:0:
312,244,67325,2,0,P|292:212|256:192,1,76
184,336,67700,5,0,0:0:0:0:
96,300,67887,2,0,L|8:304,1,76
12,284,68168,2,0,P|40:236|24:160,1,114
84,28,68637,1,0,0:0:0:0:
120,144,68825,1,0,0:0:0:0:
252,84,69012,1,0,0:0:0:0:
332,124,69200,38,0,L|432:120,1,76
208,232,69575,2,0,B|152:234|152:234|111:217|111:217|35:221,1,152
248,312,70137,2,0,P|278:289|296:256,2,76
268,168,70700,5,0,0:0:0:0:
316,248,70887,1,0,0:0:0:0:
160,120,71075,1,0,0:0:0:0:
176,108,71168,1,0,0:0:0:0:
184,92,71262,1,0,0:0:0:0:
264,40,71450,2,0,L|368:36,1,76
352,52,71731,2,0,P|400:76|480:60,1,114
512,148,72200,5,0,0:0:0:0:
352,188,72387,1,0,0:0:0:0:
472,228,72575,2,0,P|496:296|440:364,1,152
368,320,73137,1,0,0:0:0:0:
232,372,73325,2,0,L|140:368,1,76
72,324,73700,5,0,0:0:0:0:
200,260,73887,2,0,P|180:228|132:200,1,76
124,216,74168,2,0,B|68:228|68:228|-4:208,1,114
180,288,74637,1,0,0:0:0:0:
314,256,74825,1,0,0:0:0:0:
330,118,75012,1,0,0:0:0:0:
202,59,75200,38,0,P|160:48|128:24,1,76
288,28,75575,2,0,B|364:0|364:56|452:20,1,152
512,80,76137,1,0,0:0:0:0:
408,184,76325,2,0,P|380:148|372:104,1,76
496,212,76700,6,0,L|416:216,1,76
340,256,77075,1,0,0:0:0:0:
320,256,77168,1,0,0:0:0:0:
304,248,77262,1,0,0:0:0:0:
176,152,77450,2,0,L|84:148,1,76
84,136,77731,2,0,P|32:160|0:236,1,114
60,280,78200,5,0,0:0:0:0:
67,297,78293,1,0,0:0:0:0:
71,315,78387,1,0,0:0:0:0:
71,334,78481,1,0,0:0:0:0:
67,353,78575,2,0,B|120:352|120:352|164:368|164:368|228:364,1,152
296,324,79137,1,0,0:0:0:0:
184,224,79325,2,0,P|224:176|296:164,1,114
340,208,79700,5,0,0:0:0:0:
371,228,79793,1,0,0:0:0:0:
408,236,79887,1,0,0:0:0:0:
446,230,79981,1,0,0:0:0:0:
479,212,80075,2,0,B|484:160|484:160|472:112|472:112|472:44,1,152
396,8,80637,1,0,0:0:0:0:
300,140,80825,2,0,P|244:104|224:36,1,114
156,16,81200,37,0,0:0:0:0:
137,12,81293,1,0,0:0:0:0:
118,12,81387,1,0,0:0:0:0:
100,16,81481,1,0,0:0:0:0:
82,24,81575,2,0,P|104:88|56:160,1,152
140,124,82137,1,0,0:0:0:0:
256,200,82325,2,0,L|384:192,1,114
452,180,82700,5,0,0:0:0:0:
484,198,82793,1,0,0:0:0:0:
505,229,82887,1,0,0:0:0:0:
511,267,82981,1,0,0:0:0:0:
500,303,83075,2,0,P|475:311|451:335,3,38
456,332,83450,2,0,B|400:344|400:344|320:328,2,114
360,248,84200,5,0,0:0:0:0:
351,231,84293,1,0,0:0:0:0:
338,217,84387,1,0,0:0:0:0:
323,206,84481,1,0,0:0:0:0:
305,198,84575,2,0,P|280:256|192:280,1,152
112,220,85137,1,0,0:0:0:0:
152,80,85325,2,0,P|116:48|40:56,1,114
4,112,85700,5,0,0:0:0:0:
29,140,85793,1,0,0:0:0:0:
39,176,85887,1,0,0:0:0:0:
34,213,85981,1,0,0:0:0:0:
13,244,86075,2,0,B|88:216|88:280|188:236,1,152
240,296,86637,1,0,0:0:0:0:
344,184,86825,2,0,P|412:184|456:216,1,114
456,288,87200,37,0,0:0:0:0:
459,269,87293,1,0,0:0:0:0:
466,251,87387,1,0,0:0:0:0:
478,236,87481,1,0,0:0:0:0:
492,224,87575,2,0,B|488:168|488:168|508:124|508:124|504:60,1,152
356,20,88137,1,0,0:0:0:0:
396,100,88325,2,0,P|348:112|292:84,1,114
220,48,88700,5,0,0:0:0:0:
185,33,88793,1,0,0:0:0:0:
147,28,88887,1,0,0:0:0:0:
109,32,88981,1,0,0:0:0:0:
74,45,89075,2,0,P|52:60|24:64,3,38
32,80,89450,2,0,P|48:136|16:188,2,114
128,172,90200,5,0,0:0:0:0:
146,177,90293,1,0,0:0:0:0:
162,186,90387,1,0,0:0:0:0:
175,200,90481,1,0,0:0:0:0:
184,216,90575,2,0,B|256:184|256:244|348:208,1,152
404,156,91137,1,0,0:0:0:0:
496,320,91325,2,0,L|368:308,1,114
308,340,91700,5,0,0:0:0:0:
273,354,91793,1,0,0:0:0:0:
235,352,91887,1,0,0:0:0:0:
202,335,91981,1,0,0:0:0:0:
179,305,92075,2,0,P|184:280|184:252,3,38
200,256,92450,37,0,0:0:0:0:
207,238,92543,1,0,0:0:0:0:
209,219,92637,1,0,0:0:0:0:
205,201,92731,1,0,0:0:0:0:
196,184,92825,2,0,P|176:168|160:140,3,38
168,140,93200,5,0,0:0:0:0:
147,108,93293,1,0,0:0:0:0:
115,88,93387,1,0,0:0:0:0:
78,82,93481,1,0,0:0:0:0:
42,93,93575,2,0,B|44:148|44:148|20:192|20:192|20:264,1,152
116,340,94137,1,0,0:0:0:0:
240,288,94325,1,0,0:0:0:0:
258,283,94418,1,0,0:0:0:0:
277,283,94512,1,0,0:0:0:0:
295,287,94606,1,0,0:0:0:0:
313,295,94700,6,0,P|327:311|347:323,7,38
360,336,95450,2,0,L|280:340,1,76
264,352,95731,2,0,P|212:316|152:320,1,114
248,240,96200,5,0,0:0:0:0:
228,207,96293,1,0,0:0:0:0:
223,170,96387,1,0,0:0:0:0:
233,134,96481,1,0,0:0:0:0:
257,105,96575,2,0,P|304:96|348:32,1,114
336,28,96950,38,0,L|380:24,1,38
448,60,97137,2,0,L|485:63,1,38
400,128,97325,1,0,0:0:0:0:
512,212,97512,1,0,0:0:0:0:
384,272,97700,5,0,0:0:0:0:
377,289,97793,1,0,0:0:0:0:
376,308,97887,1,0,0:0:0:0:
380,327,97981,1,0,0:0:0:0:
389,343,98075,2,0,L|344:352,3,38
336,364,98450,6,0,P|312:352|288:348,1,38
224,316,98637,2,0,P|205:320|186:320,1,38
108,352,98825,2,0,P|64:336|40:300,1,76
148,196,99200,5,0,0:0:0:0:
126,165,99293,1,0,0:0:0:0:
93,145,99387,1,0,0:0:0:0:
56,140,99481,1,0,0:0:0:0:
20,151,99575,2,0,B|20:108|20:108|28:72|28:72|28:16,1,114
48,32,99950,38,0,L|52:80,1,38
128,104,100137,2,0,L|132:44,1,38
200,24,100325,1,0,0:0:0:0:
308,72,100512,1,0,0:0:0:0:
420,32,100700,5,0,0:0:0:0:
442,26,100793,1,0,0:0:0:0:
466,28,100887,1,0,0:0:0:0:
487,38,100981,1,0,0:0:0:0:
505,54,101075,2,0,P|504:84|512:108,3,47.5
500,128,101450,2,0,P|472:188|500:264,2,142.5
432,184,102200,37,0,0:0:0:0:
308,228,102387,2,0,B|244:228|244:228|196:196|196:196|108:196,1,190
48,140,102950,2,0,P|44:80|72:32,1,95
256,32,103325,2,0,P|284:32|312:24,3,47.5
312,40,103700,1,0,0:0:0:0:
329,55,103793,1,0,0:0:0:0:
350,66,103887,1,0,0:0:0:0:
374,71,103981,1,0,0:0:0:0:
398,70,104075,6,0,P|382:118|434:198,1,142.5
488,240,104450,1,0,0:0:0:0:
484,248,104543,2,0,L|488:348,1,95
408,368,104825,2,0,P|384:344|352:332,3,47.5
348,336,105200,5,0,0:0:0:0:
308,363,105293,1,0,0:0:0:0:
262,368,105387,1,0,0:0:0:0:
217,351,105481,1,0,0:0:0:0:
186,317,105575,1,0,0:0:0:0:
28,288,105762,6,0,P|16:256|4:240,1,47.5
48,172,105950,1,0,0:0:0:0:
70,178,106043,1,0,0:0:0:0:
94,178,106137,1,0,0:0:0:0:
117,172,106231,1,0,0:0:0:0:
137,160,106325,1,0,0:0:0:0:
280,232,106512,38,0,P|252:236|220:232,1,47.5
364,188,106700,1,0,0:0:0:0:
375,190,106793,1,0,0:0:0:0:
386,195,106887,1,0,0:0:0:0:
395,202,106981,1,0,0:0:0:0:
403,211,107075,5,0,0:0:0:0:
449,205,107168,1,0,0:0:0:0:
486,176,107262,1,0,0:0:0:0:
503,132,107356,1,0,0:0:0:0:
495,86,107450,2,0,L|488:20,3,47.5
476,32,107825,1,0,0:0:0:0:
360,112,108012,1,0,0:0:0:0:
252,24,108200,6,0,P|264:52|264:80,1,47.5
148,120,108387,2,0,P|160:84|188:64,1,47.5
12,48,108575,2,0,P|48:48|84:44,1,47.5
40,160,108762,5,0,0:0:0:0:
52,168,108856,1,0,0:0:0:0:
60,180,108950,2,0,P|80:200|108:216,1,47.5
194,127,109137,2,0,P|170:126|138:114,1,47.5
4,248,109325,2,0,L|8:288,5,31.6666666666667
72,332,109700,38,0,P|80:304|92:280,3,47.5
100,284,110075,1,0,0:0:0:0:
264,228,110262,1,0,0:0:0:0:
276,232,110356,1,0,0:0:0:0:
292,232,110450,1,0,0:0:0:0:
332,207,110543,1,0,0:0:0:0:
379,205,110637,1,0,0:0:0:0:
421,225,110731,1,0,0:0:0:0:
449,263,110825,2,0,L|512:268,3,47.5
504,284,111200,6,0,P|476:304|456:332,1,47.5
364,352,111387,2,0,P|332:340|304:320,1,47.5
340,236,111575,2,0,P|324:212|316:180,1,47.5
420,40,111762,5,0,0:0:0:0:
412,52,111856,1,0,0:0:0:0:
400,60,111950,2,0,P|392:84|360:116,3,47.5
364,100,112325,2,0,L|300:104,1,47.5
256,252,112512,2,0,L|320:260,1,47.5
168,144,112700,5,0,0:0:0:0:
158,150,112793,1,0,0:0:0:0:
147,155,112887,1,0,0:0:0:0:
136,159,112981,1,0,0:0:0:0:
124,160,113075,37,0,0:0:0:0:
159,192,113168,1,0,0:0:0:0:
173,237,113262,1,0,0:0:0:0:
163,283,113356,1,0,0:0:0:0:
132,318,113450,1,0,0:0:0:0:
88,332,113543,1,0,0:0:0:0:
42,323,113637,2,0,L|8:304,8,31.6666666666667
40,236,114200,6,0,P|64:232|100:212,3,47.5
100,208,114575,2,0,P|124:208|160:212,1,47.5
148,60,114762,2,0,P|136:84|104:116,1,47.5
248,140,114950,1,0,0:0:0:0:
260,144,115043,1,0,0:0:0:0:
276,144,115137,2,0,P|296:132|328:124,1,47.5
440,52,115325,2,0,P|412:48|376:36,1,47.5
480,164,115512,5,0,0:0:0:0:
468,168,115606,1,0,0:0:0:0:
452,168,115700,1,0,0:0:0:0:
416,198,115793,1,0,0:0:0:0:
400,242,115887,1,0,0:0:0:0:
408,288,115981,1,0,0:0:0:0:
438,324,116075,1,0,0:0:0:0:
296,256,116262,5,0,0:0:0:0:
300,268,116356,1,0,0:0:0:0:
304,284,116450,2,0,P|296:316|300:360,3,47.5
284,340,116825,1,0,0:0:0:0:
265,325,116918,1,0,0:0:0:0:
243,315,117012,1,0,0:0:0:0:
220,311,117106,1,0,0:0:0:0:
196,313,117200,37,0,0:0:0:0:
156,339,117293,1,0,0:0:0:0:
110,347,117387,1,0,0:0:0:0:
64,338,117481,1,0,0:0:0:0:
25,311,117575,1,0,0:0:0:0:
64,148,117762,5,0,0:0:0:0:
72,160,117856,1,0,0:0:0:0:
72,176,117950,2,0,P|76:208|72:240,3,47.5
92,236,118325,2,0,P|116:220|156:212,1,47.5
276,240,118512,2,0,P|252:243|228:242,1,47.5
360,188,118700,5,0,0:0:0:0:
383,184,118793,1,0,0:0:0:0:
407,186,118887,1,0,0:0:0:0:
430,192,118981,1,0,0:0:0:0:
451,203,119075,2,0,P|484:196|512:176,1,47.5
464,56,119262,2,0,P|492:56|536:64,1,47.5
360,88,119450,5,0,0:0:0:0:
315,102,119543,1,0,0:0:0:0:
268,94,119637,1,0,0:0:0:0:
231,66,119731,1,0,0:0:0:0:
210,24,119825,2,0,L|143:27,1,47.5
24,145,120012,37,0,0:0:0:0:
30,154,120106,1,0,0:0:0:0:
38,163,120200,1,0,0:0:0:0:
49,169,120293,1,0,0:0:0:0:
60,172,120387,2,0,L|120:180,1,47.5
224,152,120575,2,0,P|216:124|212:92,1,47.5
76,36,120762,2,0,P|60:56|36:72,1,47.5
60,172,120950,5,0,0:0:0:0:
25,203,121043,1,0,0:0:0:0:
12,248,121137,1,0,0:0:0:0:
23,294,121231,1,0,0:0:0:0:
56,327,121325,2,0,P|76:340|96:364,1,47.5
160,256,121512,2,0,P|188:256|216:248,1,47.5
352,356,121700,5,0,0:0:0:0:
332,343,121793,1,0,0:0:0:0:
309,334,121887,1,0,0:0:0:0:
286,332,121981,1,0,0:0:0:0:
262,334,122075,1,0,0:0:0:0:
352,260,122262,5,0,0:0:0:0:
339,214,122356,1,0,0:0:0:0:
351,169,122450,1,0,0:0:0:0:
384,136,122543,1,0,0:0:0:0:
430,124,122637,2,0,L|480:128,8,31.6666666666667
512,68,123200,38,0,P|484:44|476:16,3,47.5
464,28,123575,1,0,0:0:0:0:
316,112,123762,1,0,0:0:0:0:
298,96,123856,1,0,0:0:0:0:
286,75,123950,1,0,0:0:0:0:
282,52,124043,1,0,0:0:0:0:
285,29,124137,1,0,0:0:0:0:
360,192,124325,2,0,L|288:208,3,47.5
300,212,124700,5,0,0:0:0:0:
290,205,124793,1,0,0:0:0:0:
278,201,124887,1,0,0:0:0:0:
267,199,124981,1,0,0:0:0:0:
255,200,125075,5,0,0:0:0:0:
291,170,125168,1,0,0:0:0:0:
304,125,125262,1,0,0:0:0:0:
290,80,125356,1,0,0:0:0:0:
254,51,125450,1,0,0:0:0:0:
208,46,125543,1,0,0:0:0:0:
166,67,125637,2,0,L|128:56,8,31.6666666666667
48,32,126200,6,0,P|56:52|60:88,3,47.5
56,96,126575,1,0,0:0:0:0:
0,208,126762,1,0,0:0:0:0:
16,212,126856,1,0,0:0:0:0:
28,216,126950,2,0,P|40:200|80:176,1,47.5
168,288,127137,2,0,P|140:280|112:264,1,47.5
248,212,127325,2,0,P|280:204|316:208,1,47.5
400,260,127512,37,0,0:0:0:0:
384,241,127606,1,0,0:0:0:0:
376,219,127700,1,0,0:0:0:0:
374,196,127793,1,0,0:0:0:0:
379,173,127887,1,0,0:0:0:0:
504,60,128075,5,0,0:0:0:0:
467,89,128168,1,0,0:0:0:0:
421,98,128262,1,0,0:0:0:0:
375,85,128356,1,0,0:0:0:0:
341,53,128450,2,0,P|308:56|276:72,3,47.5
276,56,128825,1,0,0:0:0:0:
164,104,129012,2,0,P|132:100|96:108,1,47.5
276,184,129200,6,0,P|264:208|260:248,1,47.5
160,288,129387,2,0,P|160:256|168:224,1,47.5
256,336,129575,2,0,P|276:352|296:360,1,47.5
76,360,129762,2,0,P|60:332|40:316,1,47.5
136,228,129950,1,0,0:0:0:0:
124,226,130043,1,0,0:0:0:0:
112,223,130137,1,0,0:0:0:0:
101,218,130231,1,0,0:0:0:0:
91,212,130325,5,0,0:0:0:0:
99,166,130418,1,0,0:0:0:0:
84,122,130512,1,0,0:0:0:0:
49,90,130606,1,0,0:0:0:0:
4,79,130700,38,0,P|32:72|56:60,1,47.5
142,8,130887,2,0,P|157:26|177:38,1,47.5
254,143,131075,2,0,P|222:139|192:140,1,47.5
284,28,131262,1,0,0:0:0:0:
280,40,131356,1,0,0:0:0:0:
280,56,131450,5,0,0:0:0:0:
322,77,131543,1,0,0:0:0:0:
369,79,131637,1,0,0:0:0:0:
412,61,131731,1,0,0:0:0:0:
445,27,131825,1,0,0:0:0:0:
512,188,132012,1,0,0:0:0:0:
384,156,132200,6,0,P|388:188|380:220,3,47.5
400,216,132575,2,0,P|412:244|440:272,1,47.5
500,344,132762,2,0,P|504:312|520:276,1,47.5
312,276,132950,1,0,0:0:0:0:
300,268,133043,1,0,0:0:0:0:
292,256,133137,2,0,P|264:240|228:232,1,47.5
176,336,133325,2,0,P|152:344|120:348,1,47.5
0,268,133512,5,0,0:0:0:0:
12,260,133606,1,0,0:0:0:0:
24,256,133700,2,0,L|88:260,3,47.5
88,268,134075,1,0,0:0:0:0:
52,152,134262,37,0,0:0:0:0:
92,177,134356,1,0,0:0:0:0:
139,179,134450,1,0,0:0:0:0:
181,158,134543,1,0,0:0:0:0:
208,120,134637,2,0,P|184:104|160:96,1,47.5
344,52,134825,2,0,P|316:72|280:76,1,47.5
356,184,135012,2,0,L|428:188,1,47.5
484,32,135200,5,0,0:0:0:0:
476,54,135293,1,0,0:0:0:0:
476,78,135387,1,0,0:0:0:0:
483,101,135481,1,0,0:0:0:0:
495,121,135575,1,0,0:0:0:0:
328,176,135762,1,0,0:0:0:0:
316,184,135856,1,0,0:0:0:0:
304,196,135950,2,0,P|276:208|240:204,3,47.5
240,200,136325,1,0,0:0:0:0:
336,344,136512,5,0,0:0:0:0:
340,328,136606,1,0,0:0:0:0:
352,316,136700,1,0,0:0:0:0:
308,296,136793,1,0,0:0:0:0:
261,291,136887,1,0,0:0:0:0:
215,302,136981,1,0,0:0:0:0:
175,327,137075,2,0,P|136:332|108:324,3,47.5
116,340,137450,5,0,0:0:0:0:
107,318,137543,1,0,0:0:0:0:
92,299,137637,1,0,0:0:0:0:
73,285,137731,1,0,0:0:0:0:
51,277,137825,1,0,0:0:0:0:
17,243,137918,1,0,0:0:0:0:
3,199,138012,1,0,0:0:0:0:
12,152,138106,1,0,0:0:0:0:
42,116,138200,38,0,P|48:88|48:52,1,47.5
160,68,138387,2,0,P|156:32|140:0,1,47.5
256,128,138575,2,0,P|241:146|222:160,1,47.5
344,56,138762,2,0,P|367:52|391:52,1,47.5
496,164,138950,5,0,0:0:0:0:
484,184,139043,1,0,0:0:0:0:
476,207,139137,1,0,0:0:0:0:
474,230,139231,1,0,0:0:0:0:
477,254,139325,1,0,0:0:0:0:
380,320,139512,1,0,0:0:0:0:
228,264,139700,5,0,0:0:0:0:
193,230,139793,1,0,0:0:0:0:
149,214,139887,1,0,0:0:0:0:
102,216,139981,1,0,0:0:0:0:
60,238,140075,1,0,0:0:0:0:
196,144,140262,5,0,0:0:0:0:
216,148,140356,1,0,0:0:0:0:
232,152,140450,2,0,P|260:136|304:132,3,47.5
329,72,140825,1,0,0:0:0:0:
329,68,140918,1,0,0:0:0:0:
329,64,141012,1,0,0:0:0:0:
329,60,141106,1,0,0:0:0:0:
328,56,141200,6,0,L|388:48,3,38
440,16,141575,2,0,P|476:40|488:120,2,114
328,56,142325,2,0,L|192:52,1,114
136,28,142700,5,0,0:0:0:0:
103,46,142793,1,0,0:0:0:0:
82,78,142887,1,0,0:0:0:0:
76,115,142981,1,0,0:0:0:0:
87,151,143075,2,0,L|132:164,3,38
128,184,143450,2,0,P|64:188|8:232,2,114
216,264,144200,37,0,0:0:0:0:
216,264,144950,2,0,L|264:268,1,38
328,236,145137,2,0,L|372:232,1,38
512,28,145512,6,0,L|512:160,1,114
500,164,145887,2,0,P|460:180|412:172,1,76
365,232,146168,2,0,P|320:220|284:188,1,76
240,144,146450,2,0,B|160:116|160:172|76:140,1,152
4,180,147012,1,0,0:0:0:0:
36,332,147200,6,0,P|92:316|68:236,1,152
52,248,147950,1,0,0:0:0:0:
136,288,148137,2,0,P|180:336|276:316,1,152
304,184,148700,1,0,0:0:0:0:
396,288,148887,2,0,L|520:296,2,114
304,184,149637,2,0,B|351:181|351:181|394:155|394:155|470:151,1,152
508,88,150200,6,0,P|464:32|384:40,1,152
368,24,150950,1,0,0:0:0:0:
256,88,151137,2,0,L|156:84,1,76
108,32,151512,2,0,P|48:32|4:84,1,114
24,80,151887,2,0,P|36:112|32:160,1,76
112,156,152168,2,0,P|88:216|48:244,1,114
184,312,152637,2,0,B|233:300|233:300|277:312|277:312|333:312,1,152
408,268,153200,38,0,P|412:200|324:152,1,152
436,164,153762,1,0,0:0:0:0:
464,16,153950,1,0,0:0:0:0:
320,72,154137,2,0,P|248:76|172:28,1,152
96,72,154700,1,0,0:0:0:0:
52,152,154887,2,0,L|60:288,2,114
96,72,155637,2,0,P|152:24|228:32,1,152
344,152,156200,6,0,B|396:152|396:152|436:132|436:132|516:132,1,152
508,152,156950,1,0,0:0:0:0:
444,216,157137,2,0,P|480:240|532:244,1,76
424,348,157512,2,0,P|368:336|296:356,1,114
300,332,157887,2,0,L|212:340,1,76
148,360,158168,2,0,L|60:352,1,76
12,300,158450,1,0,0:0:0:0:
120,208,158637,2,0,P|116:132|48:88,1,152
0,28,159200,6,0,P|60:56|144:24,1,152
312,68,159762,1,0,0:0:0:0:
200,184,159950,1,0,0:0:0:0:
316,228,160137,2,0,B|392:204|392:256|492:224,1,152
240,272,160700,1,0,0:0:0:0:
120,152,160887,2,0,P|64:154|4:196,2,114
240,272,161637,2,0,B|296:276|296:276|336:292|336:292|416:296,1,152
500,336,162200,6,0,P|468:268|508:188,1,152
476,188,162950,2,0,P|440:204|380:200,2,76
324,164,163512,2,0,P|272:164|220:200,1,114
200,212,163887,2,0,L|120:216,1,76
52,184,164168,2,0,P|20:140|36:60,1,114
144,24,164637,2,0,L|232:28,1,76
308,68,165012,1,0,0:0:0:0:
208,176,165200,38,0,P|268:228|348:208,1,152
388,140,165762,2,0,L|384:48,1,76
512,204,166137,2,0,P|488:272|520:356,1,152
444,292,166700,1,0,0:0:0:0:
328,352,166887,2,0,B|284:352|284:352|248:344|248:344|196:344,2,114
335,217,167637,1,0,0:0:0:0:
332,212,167731,2,0,P|380:172|440:168,1,114
504,116,168200,5,0,0:0:0:0:
429,166,168387,1,0,0:0:0:0:
300,96,168575,2,0,B|224:76|224:128|132:96,1,152
68,56,169137,1,0,0:0:0:0:
108,184,169325,1,0,0:0:0:0:
8,272,169512,6,0,P|4:312|24:356,1,76
140,268,169887,2,0,P|144:228|124:184,1,76
108,184,170168,2,0,P|160:164|232:188,1,114
304,148,170637,1,0,0:0:0:0:
228,304,170825,1,0,0:0:0:0:
352,352,171012,1,0,0:0:0:0:
432,316,171200,6,0,P|472:320|512:340,2,76
296,224,171762,1,0,0:0:0:0:
436,152,171950,2,0,L|444:48,1,76
324,36,172325,2,0,L|332:140,1,76
184,168,172700,37,0,0:0:0:0:
224,84,172887,1,0,0:0:0:0:
96,192,173075,1,0,0:0:0:0:
52,48,173262,1,0,0:0:0:0:
8,216,173450,2,0,L|8:312,1,76
24,308,173731,2,0,P|72:304|128:356,1,114
208,320,174200,5,0,0:0:0:0:
292,348,174387,1,0,0:0:0:0:
122,342,174575,2,0,P|184:296|172:208,1,152
256,180,175137,2,0,P|292:196|344:196,1,76
408,244,175512,1,0,0:0:0:0:
292,312,175700,5,0,0:0:0:0:
404,376,175887,2,0,L|484:368,1,76
496,352,176168,2,0,P|484:296|528:228,1,114
328,198,176637,1,0,0:0:0:0:
456,144,176825,1,0,0:0:0:0:
344,52,177012,1,0,0:0:0:0:
272,112,177200,6,0,P|200:116|132:64,1,152
0,40,177762,1,0,0:0:0:0:
40,124,177950,2,0,P|36:172|20:208,1,76
200,272,178325,2,0,P|187:236|186:198,1,76
272,112,178700,37,0,0:0:0:0:
428,144,178887,1,0,0:0:0:0:
304,200,179075,1,0,0:0:0:0:
460,232,179262,1,0,0:0:0:0:
392,352,179450,2,0,B|352:352|352:352|316:344|316:344|256:352,2,114
460,232,180200,6,0,P|480:196|516:172,1,76
428,140,180575,2,0,P|368:172|284:140,1,152
230,29,181137,1,0,0:0:0:0:
157,140,181325,1,0,0:0:0:0:
96,21,181512,6,0,L|8:16,1,76
252,56,181887,2,0,L|344:50,1,76
344,36,182168,2,0,P|398:26|464:60,1,114
504,184,182637,1,0,0:0:0:0:
416,172,182825,2,0,P|420:216|448:256,1,76
504,184,183200,5,0,0:0:0:0:
348,264,183387,1,0,0:0:0:0:
264,232,183575,2,0,B|184:256|184:200|100:232,1,152
0,120,184137,2,0,L|4:32,2,76
115,226,184700,37,0,0:0:0:0:
240,136,184887,1,0,0:0:0:0:
96,64,185075,1,0,0:0:0:0:
152,156,185262,1,0,0:0:0:0:
292,24,185450,2,0,P|352:44|428:20,2,114
96,64,186200,5,0,0:0:0:0:
20,120,186387,2,0,P|8:168|16:220,1,95
120,312,186762,1,0,0:0:0:0:
248,244,186950,1,0,0:0:0:0:
228,231,187043,1,0,0:0:0:0:
205,223,187137,1,0,0:0:0:0:
182,221,187231,1,0,0:0:0:0:
158,226,187325,1,0,0:0:0:0:
324,284,187512,6,0,P|330:261|332:237,3,47.5
316,216,187887,1,0,0:0:0:0:
164,144,188075,2,0,P|140:144|116:152,1,47.5
324,284,188450,6,0,L|371:287,1,47.5
504,288,188637,1,0,0:0:0:0:
496,304,188731,1,0,0:0:0:0:
496,320,188825,1,0,0:0:0:0:
458,291,188918,1,0,0:0:0:0:
443,247,189012,1,0,0:0:0:0:
456,201,189106,1,0,0:0:0:0:
491,171,189200,37,0,0:0:0:0:
500,149,189293,1,0,0:0:0:0:
503,125,189387,1,0,0:0:0:0:
500,102,189481,1,0,0:0:0:0:
490,81,189575,1,0,0:0:0:0:
360,112,189762,2,0,P|396:124|428:120,1,47.5
300,24,189950,2,0,L|236:28,1,47.5
156,92,190137,5,0,0:0:0:0:
308,40,190325,1,0,0:0:0:0:
272,192,190512,2,0,P|272:216|260:244,1,47.5
144,216,190700,1,0,0:0:0:0:
155,215,190793,1,0,0:0:0:0:
167,212,190887,1,0,0:0:0:0:
177,206,190981,1,0,0:0:0:0:
187,199,191075,1,0,0:0:0:0:
109,100,191262,6,0,P|137:93|181:93,1,47.5
8,72,191450,1,0,0:0:0:0:
23,90,191543,1,0,0:0:0:0:
31,112,191637,1,0,0:0:0:0:
30,136,191731,1,0,0:0:0:0:
22,158,191825,1,0,0:0:0:0:
108,296,192012,5,0,0:0:0:0:
120,292,192106,1,0,0:0:0:0:
136,292,192200,2,0,P|152:312|184:328,3,47.5
200,324,192575,1,0,0:0:0:0:
332,264,192762,1,0,0:0:0:0:
312,116,192950,37,0,0:0:0:0:
357,103,193043,1,0,0:0:0:0:
404,109,193137,1,0,0:0:0:0:
444,133,193231,1,0,0:0:0:0:
472,171,193325,2,0,B|476:216|476:216|456:260|456:260|460:320,1,142.5
388,352,193700,6,0,P|376:328|360:308,3,47.5
372,288,194075,2,0,P|312:300|244:256,1,142.5
200,188,194450,1,0,0:0:0:0:
209,166,194543,1,0,0:0:0:0:
212,142,194637,1,0,0:0:0:0:
208,119,194731,1,0,0:0:0:0:
200,96,194825,2,0,B|152:100|152:100|108:88|108:88|44:88,1,142.5
0,152,195200,6,0,P|32:164|52:184,3,47.5
52,196,195575,1,0,0:0:0:0:
8,276,195762,1,0,0:0:0:0:
196,236,195950,1,0,0:0:0:0:
188,224,196043,1,0,0:0:0:0:
176,216,196137,1,0,0:0:0:0:
132,104,196325,2,0,P|136:56|164:12,1,95
176,216,196700,5,0,0:0:0:0:
180,239,196793,1,0,0:0:0:0:
177,262,196887,1,0,0:0:0:0:
167,283,196981,1,0,0:0:0:0:
152,300,197075,37,0,0:0:0:0:
194,279,197168,1,0,0:0:0:0:
241,283,197262,1,0,0:0:0:0:
280,308,197356,1,0,0:0:0:0:
319,333,197450,1,0,0:0:0:0:
366,337,197543,1,0,0:0:0:0:
409,317,197637,2,0,L|452:320,8,31.6666666666667
508,272,198200,5,0,0:0:0:0:
500,260,198293,1,0,0:0:0:0:
496,248,198387,2,0,P|496:216|508:192,1,47.5
420,156,198575,2,0,P|436:128|458:113,1,47.5
468,28,198762,1,0,0:0:0:0:
360,76,198950,6,0,P|328:76|296:64,1,47.5
220,168,199137,2,0,P|248:156|280:156,1,47.5
128,132,199325,1,0,0:0:0:0:
272,176,199512,5,0,0:0:0:0:
292,176,199606,1,0,0:0:0:0:
312,184,199700,1,0,0:0:0:0:
350,210,199793,1,0,0:0:0:0:
397,214,199887,1,0,0:0:0:0:
439,194,199981,1,0,0:0:0:0:
466,155,200075,1,0,0:0:0:0:
488,28,200262,1,0,0:0:0:0:
512,224,200450,37,0,0:0:0:0:
501,244,200543,1,0,0:0:0:0:
496,268,200637,1,0,0:0:0:0:
497,291,200731,1,0,0:0:0:0:
505,314,200825,1,0,0:0:0:0:
368,356,201012,5,0,0:0:0:0:
376,340,201106,1,0,0:0:0:0:
392,328,201200,2,0,P|376:304|344:288,3,47.5
340,280,201575,2,0,L|288:284,1,47.5
164,352,201762,2,0,L|212:356,1,47.5
180,240,201950,5,0,0:0:0:0:
137,218,202043,1,0,0:0:0:0:
90,218,202137,1,0,0:0:0:0:
48,239,202231,1,0,0:0:0:0:
20,277,202325,2,0,P|32:300|32:332,1,47.5
164,352,202512,2,0,P|180:328|204:312,1,47.5
316,332,202700,5,0,0:0:0:0:
309,321,202793,1,0,0:0:0:0:
305,311,202887,1,0,0:0:0:0:
301,299,202981,1,0,0:0:0:0:
300,287,203075,1,0,0:0:0:0:
338,258,203168,1,0,0:0:0:0:
355,215,203262,1,0,0:0:0:0:
346,169,203356,1,0,0:0:0:0:
314,134,203450,2,0,P|306:100|310:68,3,47.5
286,76,203825,38,0,P|258:68|238:68,1,47.5
138,144,204012,2,0,P|122:124|114:92,1,47.5
230,220,204200,5,0,0:0:0:0:
206,214,204293,1,0,0:0:0:0:
183,214,204387,1,0,0:0:0:0:
160,220,204481,1,0,0:0:0:0:
136,232,204575,2,0,P|112:228|80:208,1,47.5
0,88,204762,2,0,P|28:72|52:68,1,47.5
4,248,204950,5,0,0:0:0:0:
12,260,205043,1,0,0:0:0:0:
16,276,205137,1,0,0:0:0:0:
54,303,205231,1,0,0:0:0:0:
100,305,205325,1,0,0:0:0:0:
141,282,205418,1,0,0:0:0:0:
188,272,205512,1,0,0:0:0:0:
236,280,205606,1,0,0:0:0:0:
276,304,205700,6,0,L|336:300,1,47.5
256,160,205887,2,0,P|232:184|208:192,1,47.5
392,220,206075,2,0,P|420:232|444:256,1,47.5
219,189,206262,1,0,0:0:0:0:
195,186,206356,1,0,0:0:0:0:
173,176,206450,1,0,0:0:0:0:
155,161,206543,1,0,0:0:0:0:
142,141,206637,1,0,0:0:0:0:
56,24,206825,2,0,L|20:28,5,31.6666666666667
0,104,207200,38,0,P|28:116|52:140,3,47.5
72,128,207575,1,0,0:0:0:0:
208,71,207762,1,0,0:0:0:0:
244,100,207856,1,0,0:0:0:0:
290,111,207950,1,0,0:0:0:0:
336,101,208043,1,0,0:0:0:0:
373,71,208137,1,0,0:0:0:0:
320,184,208325,5,0,0:0:0:0:
343,189,208418,1,0,0:0:0:0:
363,200,208512,1,0,0:0:0:0:
380,217,208606,1,0,0:0:0:0:
392,240,208700,2,0,L|452:236,1,47.5
512,108,208887,2,0,P|496:112|464:136,1,47.5
328,58,209075,2,0,P|356:70|392:70,1,47.5
224,108,209262,5,0,0:0:0:0:
212,100,209356,1,0,0:0:0:0:
204,88,209450,1,0,0:0:0:0:
246,106,209543,1,0,0:0:0:0:
271,146,209637,1,0,0:0:0:0:
267,193,209731,1,0,0:0:0:0:
237,229,209825,1,0,0:0:0:0:
96,192,210012,2,0,L|56:196,2,31.6666666666667
64,116,210200,6,0,P|80:96|88:68,3,47.5
96,56,210575,2,0,P|116:52|152:52,1,47.5
271,146,210762,2,0,P|244:156|200:156,1,47.5
148,248,210950,1,0,0:0:0:0:
156,264,211043,1,0,0:0:0:0:
156,280,211137,2,0,P|184:284|216:304,3,47.5
220,312,211512,2,0,L|280:304,1,47.5
392,240,211700,38,0,L|328:236,1,47.5
464,172,211887,2,0,L|524:164,1,47.5
348,104,212075,2,0,P|320:120|304:148,1,47.5
496,140,212262,5,0,0:0:0:0:
474,130,212356,1,0,0:0:0:0:
456,115,212450,1,0,0:0:0:0:
443,95,212543,1,0,0:0:0:0:
437,72,212637,1,0,0:0:0:0:
512,16,212825,1,0,0:0:0:0:
316,32,213012,1,0,0:0:0:0:
300,36,213106,1,0,0:0:0:0:
288,44,213200,6,0,P|252:44|220:28,3,47.5
224,24,213575,1,0,0:0:0:0:
68,92,213762,1,0,0:0:0:0:
112,76,213856,1,0,0:0:0:0:
159,82,213950,1,0,0:0:0:0:
199,107,214043,1,0,0:0:0:0:
224,147,214137,1,0,0:0:0:0:
108,260,214325,2,0,P|108:288|120:336,1,47.5
0,220,214512,2,0,P|8:184|8:152,1,47.5
180,224,214700,5,0,0:0:0:0:
197,240,214793,1,0,0:0:0:0:
217,251,214887,1,0,0:0:0:0:
240,257,214981,1,0,0:0:0:0:
264,257,215075,1,0,0:0:0:0:
392,344,215262,38,0,P|420:328|460:328,1,47.5
504,280,215450,1,0,0:0:0:0:
493,258,215543,1,0,0:0:0:0:
488,235,215637,1,0,0:0:0:0:
489,212,215731,1,0,0:0:0:0:
497,189,215825,1,0,0:0:0:0:
344,136,216012,2,0,L|348:192,1,47.5
464,68,216200,5,0,0:0:0:0:
456,56,216293,1,0,0:0:0:0:
444,48,216387,2,0,P|416:36|392:4,1,47.5
260,72,216575,2,0,P|260:104|252:128,1,47.5
347,183,216762,1,0,0:0:0:0:
248,236,216950,6,0,L|188:240,1,47.5
360,156,217137,2,0,P|388:164|420:164,1,47.5
508,116,217325,1,0,0:0:0:0:
496,232,217512,2,0,L|512:248,5,11.875
480,248,217700,1,0,0:0:0:0:
475,258,217793,1,0,0:0:0:0:
472,270,217887,1,0,0:0:0:0:
472,282,217981,1,0,0:0:0:0:
473,294,218075,1,0,0:0:0:0:
332,304,218262,6,0,P|344:272|344:248,1,47.5
400,360,218450,1,0,0:0:0:0:
356,341,218543,1,0,0:0:0:0:
309,335,218637,1,0,0:0:0:0:
262,343,218731,1,0,0:0:0:0:
220,363,218825,1,0,0:0:0:0:
60,292,219012,38,0,L|4:296,1,47.5
128,240,219200,1,0,0:0:0:0:
145,255,219293,1,0,0:0:0:0:
167,266,219387,1,0,0:0:0:0:
190,271,219481,1,0,0:0:0:0:
213,271,219575,1,0,0:0:0:0:
288,200,219762,6,0,P|317:208|368:204,1,47.5
424,308,219950,2,0,P|396:320|368:324,1,47.5
468,188,220137,2,0,P|504:196|532:220,1,47.5
288,224,220325,1,0,0:0:0:0:
249,196,220418,1,0,0:0:0:0:
227,154,220512,1,0,0:0:0:0:
225,107,220606,1,0,0:0:0:0:
244,64,220700,6,0,L|304:60,1,47.5
128,16,220887,2,0,P|100:20|64:40,1,47.5
0,88,221075,1,0,0:0:0:0:
116,216,221262,1,0,0:0:0:0:
124,204,221356,1,0,0:0:0:0:
132,192,221450,2,0,P|140:160|136:128,3,47.5
120,132,221825,1,0,0:0:0:0:
32,264,222012,5,0,0:0:0:0:
54,270,222106,1,0,0:0:0:0:
75,282,222200,1,0,0:0:0:0:
90,300,222293,1,0,0:0:0:0:
100,321,222387,2,0,L|152:320,1,47.5
256,208,222575,2,0,P|224:216|204:236,1,47.5
96,200,222762,37,0,0:0:0:0:
84,192,222856,1,0,0:0:0:0:
80,180,222950,2,0,P|88:144|80:112,1,47.5
184,100,223137,2,0,P|172:64|150:41,1,47.5
268,176,223325,1,0,0:0:0:0:
168,296,223512,1,0,0:0:0:0:
181,315,223606,1,0,0:0:0:0:
199,330,223700,1,0,0:0:0:0:
221,340,223793,1,0,0:0:0:0:
244,345,223887,1,0,0:0:0:0:
324,284,224075,6,0,P|356:264|392:260,1,47.5
432,364,224262,2,0,P|460:360|496:364,1,47.5
500,216,224450,2,0,P|492:244|464:272,1,47.5
380,176,224637,1,0,0:0:0:0:
376,160,224731,1,0,0:0:0:0:
376,144,224825,1,0,0:0:0:0:
256,245,225012,5,0,0:0:0:0:
280,253,225106,1,0,0:0:0:0:
304,253,225200,1,0,0:0:0:0:
346,233,225293,1,0,0:0:0:0:
393,227,225387,1,0,0:0:0:0:
440,236,225481,1,0,0:0:0:0:
481,258,225575,1,0,0:0:0:0:
488,96,225762,6,0,P|468:124|460:148,1,47.5
364,32,225950,2,0,P|400:32|428:24,1,47.5
292,128,226137,2,0,P|260:120|224:96,1,47.5
168,32,226325,1,0,0:0:0:0:
156,24,226418,1,0,0:0:0:0:
140,20,226512,2,0,L|72:32,1,47.5
96,228,226700,37,0,0:0:0:0:
110,209,226793,1,0,0:0:0:0:
120,187,226887,1,0,0:0:0:0:
124,164,226981,1,0,0:0:0:0:
124,140,227075,1,0,0:0:0:0:
247,113,227262,1,0,0:0:0:0:
20,100,227450,2,0,P|20:132|28:160,3,47.5
36,168,227825,1,0,0:0:0:0:
200,216,228012,5,0,0:0:0:0:
209,209,228106,1,0,0:0:0:0:
220,203,228200,1,0,0:0:0:0:
231,200,228293,1,0,0:0:0:0:
243,198,228387,2,0,L|308:216,1,47.5
360,64,228575,2,0,P|324:64|304:72,1,47.5
396,172,228762,2,0,P|408:200|432:220,1,47.5
512,272,228950,2,0,L|508:324,3,47.5
488,336,229325,1,0,0:0:0:0:
419,211,229512,5,0,0:0:0:0:
404,216,229606,1,0,0:0:0:0:
392,224,229700,1,0,0:0:0:0:
360,258,229793,1,0,0:0:0:0:
314,269,229887,1,0,0:0:0:0:
271,252,229981,1,0,0:0:0:0:
243,214,230075,1,0,0:0:0:0:
242,168,230168,1,0,0:0:0:0:
267,128,230262,1,0,0:0:0:0:
476,148,230450,5,0,0:0:0:0:
467,170,230543,1,0,0:0:0:0:
464,193,230637,1,0,0:0:0:0:
465,217,230731,1,0,0:0:0:0:
472,239,230825,2,0,L|464:272,5,31.6666666666667
404,332,231200,38,0,P|372:332|344:344,3,47.5
328,348,231575,1,0,0:0:0:0:
188,304,231762,2,0,P|160:316|128:344,1,47.5
160,228,231950,1,0,0:0:0:0:
164,217,232043,1,0,0:0:0:0:
167,205,232137,1,0,0:0:0:0:
169,193,232231,1,0,0:0:0:0:
169,181,232325,1,0,0:0:0:0:
8,116,232512,6,0,L|12:176,1,47.5
64,48,232700,1,0,0:0:0:0:
104,72,232793,1,0,0:0:0:0:
151,80,232887,1,0,0:0:0:0:
197,73,232981,1,0,0:0:0:0:
238,49,233075,1,0,0:0:0:0:
284,36,233168,1,0,0:0:0:0:
332,48,233262,1,0,0:0:0:0:
464,152,233450,2,0,P|496:144|520:124,3,47.5
504,120,233825,6,0,P|512:88|512:48,1,47.5
356,128,234012,2,0,P|358:156|368:196,1,47.5
480,268,234200,1,0,0:0:0:0:
484,256,234293,1,0,0:0:0:0:
484,240,234387,2,0,P|452:248|420:268,1,47.5
344,200,234575,2,0,P|324:220|308:248,1,47.5
372,348,234762,1,0,0:0:0:0:
224,264,234950,5,0,0:0:0:0:
225,240,235043,1,0,0:0:0:0:
219,217,235137,1,0,0:0:0:0:
208,196,235231,1,0,0:0:0:0:
192,178,235325,2,0,P|188:144|200:108,1,47.5
68,96,235512,2,0,P|83:113|90:136,1,47.5
160,28,235700,1,0,0:0:0:0:
288,100,235887,1,0,0:0:0:0:
300,96,235981,1,0,0:0:0:0:
312,88,236075,1,0,0:0:0:0:
432,32,236262,37,0,0:0:0:0:
448,32,236356,1,0,0:0:0:0:
460,36,236450,1,0,0:0:0:0:
435,76,236543,1,0,0:0:0:0:
433,123,236637,1,0,0:0:0:0:
454,165,236731,1,0,0:0:0:0:
492,192,236825,1,0,0:0:0:0:
512,360,237012,5,0,0:0:0:0:
508,344,237106,1,0,0:0:0:0:
500,332,237200,2,0,P|484:312|476:284,3,47.5
460,268,237575,1,0,0:0:0:0:
512,108,237762,1,0,0:0:0:0:
500,100,237856,1,0,0:0:0:0:
488,96,237950,2,0,P|456:100|428:96,1,47.5
340,208,238137,2,0,P|360:200|384:180,1,47.5
336,60,238325,5,0,0:0:0:0:
292,41,238418,1,0,0:0:0:0:
245,36,238512,1,0,0:0:0:0:
198,42,238606,1,0,0:0:0:0:
155,62,238700,6,0,P|132:56|112:40,1,47.5
12,160,238887,2,0,P|24:136|28:108,1,47.5
0,24,239075,1,0,0:0:0:0:
172,88,239262,2,0,L|176:156,3,47.5
160,160,239637,1,0,0:0:0:0:
236,260,239825,1,0,0:0:0:0:
0,260,240012,37,0,0:0:0:0:
11,239,240106,1,0,0:0:0:0:
27,222,240200,1,0,0:0:0:0:
47,209,240293,1,0,0:0:0:0:
70,201,240387,2,0,P|88:216|124:232,1,47.5
192,348,240575,2,0,L|144:344,1,47.5
268,276,240762,1,0,0:0:0:0:
304,136,240950,5,0,0:0:0:0:
314,130,241043,1,0,0:0:0:0:
325,126,241137,1,0,0:0:0:0:
337,124,241231,1,0,0:0:0:0:
349,123,241325,1,0,0:0:0:0:
436,48,241512,6,0,P|404:44|376:28,1,47.5
492,116,241700,1,0,0:0:0:0:
462,152,241793,1,0,0:0:0:0:
455,198,241887,1,0,0:0:0:0:
472,242,241981,1,0,0:0:0:0:
509,271,242075,1,0,0:0:0:0:
349,123,242262,6,0,P|332:100|300:80,1,47.5
268,16,242450,1,0,0:0:0:0:
245,22,242543,1,0,0:0:0:0:
221,24,242637,1,0,0:0:0:0:
197,21,242731,1,0,0:0:0:0:
175,15,242825,1,0,0:0:0:0:
44,100,243012,37,0,0:0:0:0:
56,96,243106,1,0,0:0:0:0:
68,88,243200,2,0,P|96:80|140:80,1,47.5
156,188,243387,2,0,P|188:196|216:200,1,47.5
317,88,243575,1,0,0:0:0:0:
363,81,243668,1,0,0:0:0:0:
409,94,243762,1,0,0:0:0:0:
445,123,243856,1,0,0:0:0:0:
468,165,243950,5,0,0:0:0:0:
459,187,244043,1,0,0:0:0:0:
456,210,244137,1,0,0:0:0:0:
459,234,244231,1,0,0:0:0:0:
468,256,244325,1,0,0:0:0:0:
360,340,244512,1,0,0:0:0:0:
352,328,244606,1,0,0:0:0:0:
340,320,244700,2,0,P|312:324|276:316,3,47.5
272,308,245075,5,0,0:0:0:0:
229,288,245168,1,0,0:0:0:0:
182,291,245262,1,0,0:0:0:0:
141,315,245356,1,0,0:0:0:0:
116,354,245450,2,0,L|52:360,1,47.5
8,224,245637,2,0,L|56:232,1,47.5
184,200,245825,2,0,P|176:168|156:140,1,47.5
76,72,246012,2,0,P|58:87|29:95,1,47.5
196,136,246200,6,0,B|252:140|252:140|292:128|292:128|372:132,1,152
360,144,246950,1,0,0:0:0:0:
456,116,247137,1,0,0:0:0:0:
512,272,247325,1,0,0:0:0:0:
384,244,247512,38,0,P|384:280|408:332,1,76
476,144,247887,2,0,P|489:108|489:70,1,76
472,52,248168,2,0,B|436:60|436:60|396:52|396:52|348:52,1,114
280,16,248637,1,0,0:0:0:0:
156,120,248825,2,0,L|64:128,1,76
284,208,249200,5,0,0:0:0:0:
344,136,249387,1,0,0:0:0:0:
200,232,249575,2,0,P|244:288|328:284,1,152
408,324,250137,2,0,P|444:324|492:336,2,76
324,288,250700,5,0,0:0:0:0:
456,248,250887,1,0,0:0:0:0:
459,109,251075,1,0,0:0:0:0:
328,62,251262,1,0,0:0:0:0:
243,173,251450,2,0,B|196:180|196:180|160:176|160:176|112:176,2,114
308,232,252200,6,0,P|280:268|268:316,1,76
188,336,252575,2,0,P|140:280|48:292,1,152
0,160,253137,2,0,L|0:60,1,76
56,12,253512,1,0,0:0:0:0:
180,104,253700,37,0,0:0:0:0:
292,40,253887,2,0,P|332:40|388:60,1,76
380,36,254168,2,0,B|436:48|436:48|496:40,1,114
348,176,254637,1,0,0:0:0:0:
432,136,254825,1,0,0:0:0:0:
512,268,255012,1,0,0:0:0:0:
368,260,255200,6,0,P|328:284|276:288,1,76
212,264,255575,2,0,B|132:236|132:292|48:256,1,152
299,289,256137,1,0,0:0:0:0:
200,152,256325,2,0,L|144:148,2,38
364,116,256700,5,0,0:0:0:0:
332,204,256887,1,0,0:0:0:0:
500,156,257075,1,0,0:0:0:0:
492,148,257168,1,0,0:0:0:0:
488,136,257262,1,0,0:0:0:0:
332,36,257450,2,0,P|288:36|240:56,1,76
240,60,257731,2,0,P|180:64|128:32,1,114
48,80,258200,6,0,P|40:56|40:24,2,38
0,224,258575,2,0,P|52:216|40:296,1,152
104,224,259137,1,0,0:0:0:0:
236,284,259325,2,0,L|332:280,1,76
396,244,259700,37,0,0:0:0:0:
260,136,259887,2,0,P|280:104|332:80,1,76
304,72,260168,2,0,B|337:72|337:72|377:80|377:80|417:76,1,114
504,112,260637,1,0,0:0:0:0:
344,172,260825,1,0,0:0:0:0:
412,108,261012,1,0,0:0:0:0:
512,236,261200,5,0,0:0:0:0:
344,292,261387,1,0,0:0:0:0:
260,256,261575,2,0,B|204:254|204:254|163:272|163:272|99:270,1,152
0,192,262137,1,0,0:0:0:0:
180,148,262325,2,0,P|160:108|116:84,1,76
24,216,262700,6,0,L|24:304,1,76
76,368,263075,1,0,0:0:0:0:
88,368,263168,1,0,0:0:0:0:
100,364,263262,1,0,0:0:0:0:
248,300,263450,2,0,P|292:296|340:316,1,76
340,320,263731,2,0,P|388:324|456:284,1,114
512,240,264200,5,0,0:0:0:0:
364,192,264387,1,0,0:0:0:0:
496,156,264575,2,0,P|460:96|492:16,1,152
364,192,265137,2,0,P|336:220|292:236,1,76
208,232,265512,1,0,0:0:0:0:
257,90,265700,37,0,0:0:0:0:
111,119,265887,2,0,L|16:116,1,76
16,128,266168,2,0,P|48:164|44:240,1,114
96,308,266637,2,0,P|124:280|140:224,2,76
49,227,267200,5,0,0:0:0:0:
208,176,267387,1,0,0:0:0:0:
284,268,267575,2,0,B|356:248|356:296|448:264,1,152
512,224,268137,1,0,0:0:0:0:
448,24,268325,2,0,P|416:48|396:84,1,76
512,136,268700,5,0,0:0:0:0:
352,184,268887,1,0,0:0:0:0:
433,268,269075,1,0,0:0:0:0:
436,256,269168,1,0,0:0:0:0:
436,244,269262,1,0,0:0:0:0:
260,168,269450,2,0,L|256:88,1,76
276,88,269731,2,0,P|236:32|164:24,1,114
112,56,270200,6,0,P|68:64|24:52,1,76
260,168,270575,2,0,P|304:120|396:128,1,152
464,176,271137,1,0,0:0:0:0:
356,284,271325,1,0,0:0:0:0:
504,324,271512,38,0,L|500:236,1,76
389,45,271887,2,0,L|385:133,1,76
368,140,272168,2,0,P|316:156|248:136,1,114
168,52,272637,1,0,0:0:0:0:
0,92,272825,1,0,0:0:0:0:
136,132,273012,1,0,0:0:0:0:
32,240,273200,6,0,P|32:288|52:328,1,76
136,132,273575,2,0,B|192:136|192:136|236:120|236:120|312:124,1,152
376,160,274137,1,0,0:0:0:0:
512,88,274325,2,0,P|492:52|452:28,1,76
360,128,274700,1,0,0:0:0:0:
464,196,274887,2,0,L|468:316,2,114
360,40,275637,2,0,P|304:76|204:44,1,152
148,16,276200,6,0,P|120:72|64:28,1,152
40,16,276950,1,0,0:0:0:0:
4,100,277137,2,0,L|8:180,1,76
156,268,277512,2,0,L|164:140,1,114
180,144,277887,2,0,P|212:124|256:120,1,76
244,40,278168,2,0,P|281:45|317:70,1,76
392,48,278450,1,0,0:0:0:0:
512,164,278637,2,0,P|452:220|364:196,1,152
304,176,279200,6,0,B|248:176|248:176|208:196|208:196|136:196,1,152
8,252,279762,1,0,0:0:0:0:
152,288,279950,1,0,0:0:0:0:
84,136,280137,2,0,P|140:88|224:100,1,152
296,60,280700,1,0,0:0:0:0:
396,172,280887,2,0,B|440:172|440:172|472:164|472:164|536:164,2,114
300,56,281637,2,0,L|212:56,2,76
464,24,282200,38,0,P|440:88|492:152,1,152
509,164,282950,2,0,P|497:204|513:264,2,76
360,340,283512,2,0,P|384:288|368:224,1,114
360,224,283887,2,0,L|264:228,1,76
208,260,284168,2,0,L|84:256,1,114
12,212,284637,2,0,P|0:144|56:80,1,152
200,128,285200,6,0,B|272:152|272:96|360:132,1,152
428,176,285762,2,0,P|468:176|520:152,1,76
348,127,286137,2,0,P|396:176|388:256,1,152
252,320,286700,1,0,0:0:0:0:
136,280,286887,2,0,P|80:280|20:328,2,114
308,252,287637,2,0,B|360:268|360:268|396:296|396:296|464:313,1,152
508,244,288200,6,0,P|456:208|500:132,1,152
496,116,288950,1,0,0:0:0:0:
416,80,289137,2,0,L|320:84,1,76
264,216,289512,2,0,P|208:180|192:124,1,114
204,120,289887,2,0,L|104:112,1,76
52,88,290168,2,0,P|44:144|-8:192,1,114
124,280,290637,2,0,B|180:280|180:280|216:296|216:296|296:296,1,152
352,332,291200,6,0,P|416:360|500:320,1,152
420,208,291762,1,0,0:0:0:0:
500,112,291950,1,0,0:0:0:0:
340,48,292137,2,0,L|172:56,1,152
104,24,292700,1,0,0:0:0:0:
0,136,292887,2,0,P|20:188|0:256,2,114
100,216,293637,2,0,P|152:172|240:184,1,152
320,160,294200,37,0,0:0:0:0:
320,160,296450,2,0,P|396:180|468:120,1,170.999994781494
432,212,297200,1,0,0:0:0:0:
472,292,297387,1,0,0:0:0:0:
400,348,297575,6,0,P|356:336|312:340,2,85.4999973907472
196,264,298418,2,0,P|160:296|104:304,1,85.4999973907472
56,48,300200,5,0,0:0:0:0:
56,48,301325,1,0,0:0:0:0:
140,88,301512,2,0,L|272:84,1,113.999996520996
332,124,302075,2,0,P|392:124|448:84,2,113.999996520996
252,172,303012,1,0,0:0:0:0:
340,268,303200,2,0,P|340:304|328:332,1,56.9999982604981
248,356,303575,6,0,L|144:364,2,85.4999973907472
4,260,304418,2,0,L|108:268,2,85.4999973907472
312,108,306200,37,0,0:0:0:0:
312,108,307325,1,0,0:0:0:0:
396,152,307512,2,0,P|416:204|392:264,1,113.999996520996
328,320,308075,2,0,B|294:320|294:320|258:316|258:316|214:320,2,113.999996520996
416,344,309012,1,0,0:0:0:0:
508,240,309200,2,0,P|496:204|496:164,1,56.9999982604981
428,124,309575,6,0,P|456:88|464:44,2,85.4999973907472
300,240,310418,2,0,P|290:198|263:165,1,85.4999973907472
56,264,312200,6,0,L|60:332,1,56.9999982604981
56,264,313325,1,0,0:0:0:0:
104,188,313512,2,0,P|104:144|60:92,1,113.999996520996
136,40,314075,2,0,B|172:40|172:40|208:48|208:48|268:44,2,113.999996520996
324,96,315012,1,0,0:0:0:0:
404,60,315200,2,0,P|432:60|472:76,1,56.9999982604981
323,95,315575,6,0,L|315:195,2,85.4999973907472
160,240,316418,2,0,L|153:154,2,85.4999973907472
472,328,318200,1,0,0:0:0:0:
512,248,318387,38,0,P|512:200|480:144,1,95
300,112,318762,1,0,0:0:0:0:
504,44,318950,1,0,0:0:0:0:
489,63,319043,1,0,0:0:0:0:
471,77,319137,1,0,0:0:0:0:
449,87,319231,1,0,0:0:0:0:
424,88,319325,2,0,P|400:68|372:52,1,47.5
252,114,319512,2,0,P|278:114|316:106,1,47.5
168,56,319700,1,0,0:0:0:0:
12,156,319887,6,0,P|16:184|24:204,5,47.5
32,224,320450,2,0,L|24:276,1,47.5
120,152,320637,2,0,P|116:120|96:88,1,47.5
164,260,320825,2,0,P|196:272|220:276,1,47.5
328,192,321012,2,0,L|264:200,1,47.5
132,96,321200,37,0,0:0:0:0:
175,114,321293,1,0,0:0:0:0:
222,113,321387,1,0,0:0:0:0:
263,90,321481,1,0,0:0:0:0:
291,52,321575,2,0,P|288:24|296:-16,1,47.5
412,100,321762,2,0,P|388:120|364:128,1,47.5
512,32,321950,5,0,0:0:0:0:
500,52,322043,1,0,0:0:0:0:
496,76,322137,1,0,0:0:0:0:
498,99,322231,1,0,0:0:0:0:
508,121,322325,2,0,L|504:172,1,47.5
412,272,322512,2,0,L|404:216,1,47.5
296,176,322700,5,0,0:0:0:0:
249,166,322793,1,0,0:0:0:0:
204,177,322887,1,0,0:0:0:0:
164,204,322981,1,0,0:0:0:0:
116,216,323075,1,0,0:0:0:0:
68,204,323168,1,0,0:0:0:0:
28,176,323262,2,0,P|20:148|-4:120,1,47.5
120,88,323450,2,0,P|144:92|172:92,1,47.5
252,248,323637,5,0,0:0:0:0:
244,257,323731,1,0,0:0:0:0:
239,267,323825,1,0,0:0:0:0:
235,279,323918,1,0,0:0:0:0:
232,290,324012,1,0,0:0:0:0:
189,271,324106,1,0,0:0:0:0:
142,268,324200,1,0,0:0:0:0:
96,281,324293,1,0,0:0:0:0:
58,308,324387,38,0,P|67:335|67:367,1,47.5
12,188,324575,2,0,P|40:200|60:224,1,47.5
160,176,324762,1,0,0:0:0:0:
80,92,324950,1,0,0:0:0:0:
76,80,325043,1,0,0:0:0:0:
80,64,325137,2,0,L|124:48,8,31.6666666666667
184,16,325700,6,0,P|216:20|248:16,3,47.5
252,40,326075,2,0,P|280:36|320:16,1,47.5
368,112,326262,2,0,P|384:80|416:56,1,47.5
484,12,326450,5,0,0:0:0:0:
488,24,326543,1,0,0:0:0:0:
488,36,326637,2,0,P|496:64|496:92,1,47.5
420,204,326825,2,0,P|448:204|484:188,1,47.5
336,100,327012,2,0,P|312:124|284:136,1,47.5
188,172,327200,6,0,L|184:232,3,47.5
192,232,327575,1,0,0:0:0:0:
204,251,327668,1,0,0:0:0:0:
222,267,327762,1,0,0:0:0:0:
244,276,327856,1,0,0:0:0:0:
268,277,327950,37,0,0:0:0:0:
287,234,328043,1,0,0:0:0:0:
324,205,328137,1,0,0:0:0:0:
370,197,328231,1,0,0:0:0:0:
415,211,328325,1,0,0:0:0:0:
500,300,328512,2,0,L|504:328,2,23.75
488,268,328700,6,0,P|492:240|504:208,3,47.5
512,204,329075,1,0,0:0:0:0:
428,80,329262,1,0,0:0:0:0:
408,93,329356,1,0,0:0:0:0:
386,102,329450,1,0,0:0:0:0:
363,106,329543,1,0,0:0:0:0:
339,105,329637,1,0,0:0:0:0:
192,212,329825,1,0,0:0:0:0:
364,208,330012,5,0,0:0:0:0:
353,201,330106,1,0,0:0:0:0:
343,196,330200,1,0,0:0:0:0:
331,192,330293,1,0,0:0:0:0:
320,190,330387,2,0,P|292:180|256:180,1,47.5
212,68,330575,2,0,P|236:60|260:40,1,47.5
368,28,330762,2,0,L|372:84,1,47.5
192,212,330950,5,0,0:0:0:0:
184,200,331043,1,0,0:0:0:0:
184,184,331137,2,0,P|168:156|136:136,1,47.5
20,192,331325,2,0,P|48:196|76:196,1,47.5
274,178,331512,37,0,0:0:0:0:
302,140,331606,1,0,0:0:0:0:
342,116,331700,1,0,0:0:0:0:
389,110,331793,1,0,0:0:0:0:
434,123,331887,2,0,P|460:124|488:116,1,47.5
508,232,332075,2,0,P|500:260|500:300,1,47.5
388,336,332262,5,0,0:0:0:0:
392,324,332356,1,0,0:0:0:0:
400,312,332450,2,0,P|384:288|344:256,3,47.5
356,276,332825,2,0,L|296:280,1,47.5
172,344,333012,2,0,P|192:352|224:356,1,47.5
196,228,333200,1,0,0:0:0:0:
200,216,333293,1,0,0:0:0:0:
208,204,333387,2,0,P|204:176|184:148,1,47.5
24,72,333575,5,0,0:0:0:0:
12,80,333668,1,0,0:0:0:0:
0,84,333762,1,0,0:0:0:0:
42,105,333856,1,0,0:0:0:0:
89,111,333950,1,0,0:0:0:0:
135,102,334043,1,0,0:0:0:0:
176,79,334137,2,0,P|208:76|232:80,1,47.5
280,188,334325,2,0,P|256:204|228:212,1,47.5
312,28,334512,5,0,0:0:0:0:
308,51,334606,1,0,0:0:0:0:
310,74,334700,1,0,0:0:0:0:
318,97,334793,1,0,0:0:0:0:
332,116,334887,2,0,L|396:120,1,47.5
504,184,335075,2,0,P|484:208|472:248,1,47.5
352,268,335262,37,0,0:0:0:0:
315,238,335356,1,0,0:0:0:0:
269,226,335450,1,0,0:0:0:0:
222,232,335543,1,0,0:0:0:0:
182,256,335637,1,0,0:0:0:0:
154,294,335731,1,0,0:0:0:0:
143,340,335825,2,0,P|112:352|72:352,3,47.5
84,348,336200,5,0,0:0:0:0:
80,336,336293,1,0,0:0:0:0:
74,326,336387,1,0,0:0:0:0:
68,316,336481,1,0,0:0:0:0:
60,307,336575,2,0,P|68:272|60:236,1,47.5
136,172,336762,2,0,P|147:192|152:216,1,47.5
200,96,336950,2,0,P|186:76|170:58,1,47.5
36,24,337137,1,0,0:0:0:0:
256,16,337325,5,0,0:0:0:0:
278,24,337418,1,0,0:0:0:0:
301,27,337512,1,0,0:0:0:0:
325,26,337606,1,0,0:0:0:0:
348,20,337700,1,0,0:0:0:0:
468,104,337887,5,0,0:0:0:0:
460,116,337981,1,0,0:0:0:0:
456,128,338075,1,0,0:0:0:0:
413,148,338168,1,0,0:0:0:0:
366,152,338262,1,0,0:0:0:0:
321,139,338356,1,0,0:0:0:0:
283,110,338450,1,0,0:0:0:0:
136,156,338637,37,0,0:0:0:0:
136,172,338731,1,0,0:0:0:0:
128,184,338825,2,0,P|116:216|116:248,3,47.5
96,248,339200,5,0,0:0:0:0:
99,200,339293,1,0,0:0:0:0:
84,156,339387,1,0,0:0:0:0:
54,120,339481,1,0,0:0:0:0:
12,98,339575,5,0,0:0:0:0:
8,86,339668,1,0,0:0:0:0:
7,74,339762,1,0,0:0:0:0:
8,62,339856,1,0,0:0:0:0:
11,51,339950,1,0,0:0:0:0:
160,24,340137,2,0,P|168:48|168:88,3,47.5
184,84,340512,1,0,0:0:0:0:
140,184,340700,1,0,0:0:0:0:
300,48,340887,5,0,0:0:0:0:
284,52,340981,1,0,0:0:0:0:
272,60,341075,1,0,0:0:0:0:
305,92,341168,1,0,0:0:0:0:
350,108,341262,1,0,0:0:0:0:
396,102,341356,1,0,0:0:0:0:
436,77,341450,2,0,P|464:80|496:92,1,47.5
464,208,341637,2,0,P|492:208|536:200,1,47.5
372,320,341825,37,0,0:0:0:0:
384,299,341918,1,0,0:0:0:0:
391,277,342012,1,0,0:0:0:0:
391,253,342106,1,0,0:0:0:0:
386,230,342200,1,0,0:0:0:0:
374,209,342293,1,0,0:0:0:0:
358,192,342387,1,0,0:0:0:0:
476,68,342575,5,0,0:0:0:0:
488,72,342668,1,0,0:0:0:0:
504,76,342762,2,0,P|492:104|488:136,1,47.5
380,92,342950,2,0,P|360:72|332:56,1,47.5
232,20,343137,5,0,0:0:0:0:
220,24,343231,1,0,0:0:0:0:
204,28,343325,2,0,P|176:32|144:32,1,47.5
343,61,343512,2,0,P|371:57|399:45,1,47.5
260,136,343700,1,0,0:0:0:0:
72,40,343887,5,0,0:0:0:0:
34,68,343981,1,0,0:0:0:0:
12,110,344075,1,0,0:0:0:0:
9,157,344168,1,0,0:0:0:0:
27,201,344262,1,0,0:0:0:0:
171,112,344450,37,0,0:0:0:0:
194,109,344543,1,0,0:0:0:0:
218,113,344637,1,0,0:0:0:0:
239,122,344731,1,0,0:0:0:0:
259,135,344825,2,0,P|288:144|312:144,1,47.5
188,264,345012,2,0,P|170:234|146:210,1,47.5
312,240,345200,2,0,P|341:233|362:221,1,47.5
472,276,345387,2,0,L|456:244,2,23.75
500,260,345575,5,0,0:0:0:0:
497,248,345668,1,0,0:0:0:0:
495,236,345762,1,0,0:0:0:0:
495,224,345856,1,0,0:0:0:0:
497,213,345950,1,0,0:0:0:0:
504,24,346137,2,0,P|508:48|504:92,3,47.5
500,84,346512,1,0,0:0:0:0:
340,148,346700,1,0,0:0:0:0:
393,43,346887,5,0,0:0:0:0:
351,20,346981,1,0,0:0:0:0:
304,15,347075,1,0,0:0:0:0:
258,27,347168,1,0,0:0:0:0:
220,54,347262,1,0,0:0:0:0:
4,20,347450,5,0,0:0:0:0:
23,33,347543,1,0,0:0:0:0:
45,41,347637,1,0,0:0:0:0:
69,44,347731,1,0,0:0:0:0:
92,41,347825,2,0,P|116:52|140:84,3,47.5
140,88,348200,1,0,0:0:0:0:
328,120,348387,37,0,0:0:0:0:
336,132,348481,1,0,0:0:0:0:
344,144,348575,2,0,L|348:208,1,47.5
206,236,348762,2,0,L|214:176,1,47.5
272,52,348950,2,0,P|300:40|336:36,1,47.5
460,120,349137,2,0,P|440:144|416:160,1,47.5
213,189,349325,5,0,0:0:0:0:
171,167,349418,1,0,0:0:0:0:
124,164,349512,1,0,0:0:0:0:
80,181,349606,1,0,0:0:0:0:
48,215,349700,2,0,P|24:224|0:224,1,47.5
40,316,349887,2,0,P|64:328|80:348,1,47.5
212,280,350075,6,0,P|240:272|280:272,1,47.5
328,360,350262,1,0,0:0:0:0:
340,352,350356,1,0,0:0:0:0:
352,344,350450,2,0,P|376:348|404:348,1,47.5
504,264,350637,1,0,0:0:0:0:
495,241,350731,1,0,0:0:0:0:
492,218,350825,1,0,0:0:0:0:
493,194,350918,1,0,0:0:0:0:
500,171,351012,1,0,0:0:0:0:
472,40,351200,5,0,0:0:0:0:
457,84,351293,1,0,0:0:0:0:
426,120,351387,1,0,0:0:0:0:
383,140,351481,1,0,0:0:0:0:
336,142,351575,38,0,P|316:112|288:92,3,47.5
288,96,351950,1,0,0:0:0:0:
148,32,352137,2,0,L|224:28,1,47.5
72,80,352325,1,0,0:0:0:0:
62,101,352418,1,0,0:0:0:0:
47,120,352512,1,0,0:0:0:0:
29,135,352606,1,0,0:0:0:0:
8,146,352700,1,0,0:0:0:0:
124,232,352887,2,0,P|148:232|180:244,1,47.5
240,188,353075,5,0,0:0:0:0:
230,180,353168,1,0,0:0:0:0:
222,172,353262,1,0,0:0:0:0:
215,162,353356,1,0,0:0:0:0:
210,151,353450,1,0,0:0:0:0:
255,164,353543,1,0,0:0:0:0:
301,158,353637,1,0,0:0:0:0:
342,134,353731,1,0,0:0:0:0:
369,95,353825,6,0,P|376:64|376:32,1,47.5
500,160,354012,2,0,P|476:140|460:112,1,47.5
352,220,354200,2,0,P|375:217|398:221,1,47.5
496,276,354387,1,0,0:0:0:0:
340,360,354575,5,0,0:0:0:0:
328,352,354668,1,0,0:0:0:0:
316,348,354762,2,0,P|284:350|252:360,1,47.5
176,308,354950,2,0,P|152:320|128:340,1,47.5
48,276,355137,2,0,P|24:296|8:324,1,47.5
196,212,355325,37,0,0:0:0:0:
173,218,355418,1,0,0:0:0:0:
149,220,355512,1,0,0:0:0:0:
126,216,355606,1,0,0:0:0:0:
103,208,355700,1,0,0:0:0:0:
32,76,355887,1,0,0:0:0:0:
24,88,355981,1,0,0:0:0:0:
16,100,356075,2,0,P|20:128|20:168,3,47.5
28,160,356450,1,0,0:0:0:0:
132,16,356637,5,0,0:0:0:0:
120,24,356731,1,0,0:0:0:0:
108,28,356825,1,0,0:0:0:0:
143,58,356918,1,0,0:0:0:0:
189,72,357012,1,0,0:0:0:0:
235,66,357106,1,0,0:0:0:0:
276,41,357200,1,0,0:0:0:0:
320,28,357293,1,0,0:0:0:0:
368,36,357387,1,0,0:0:0:0:
320,192,357575,6,0,P|348:196|372:208,1,47.5
496,116,357762,2,0,P|468:128|428:132,1,47.5
308,164,357950,6,0,B|256:164|256:164|212:148|212:148|140:148,1,152
72,188,358512,1,0,0:0:0:0:
124,320,358700,2,0,P|160:304|188:264,1,76
40,200,359075,5,0,0:0:0:0:
72,112,359262,1,0,0:0:0:0:
36,28,359450,1,0,0:0:0:0:
24,28,359543,1,0,0:0:0:0:
16,24,359637,1,0,0:0:0:0:
192,84,359825,2,0,L|292:80,1,76
284,64,360106,2,0,P|320:40|404:48,1,114
484,88,360575,5,0,0:0:0:0:
352,120,360762,1,0,0:0:0:0:
480,208,360950,2,0,P|456:276|496:360,1,152
392,368,361512,2,0,L|296:364,2,76
288,236,362075,37,0,0:0:0:0:
208,280,362262,2,0,L|112:284,1,76
108,276,362543,2,0,P|84:232|8:208,1,114
52,48,363012,1,0,0:0:0:0:
160,148,363200,1,0,0:0:0:0:
272,92,363387,1,0,0:0:0:0:
356,124,363575,6,0,P|396:124|440:112,1,76
488,44,363950,2,0,P|468:108|512:188,1,152
468,336,364512,1,0,0:0:0:0:
364,232,364700,2,0,P|324:228|268:232,1,76
208,272,365075,5,0,0:0:0:0:
320,336,365262,1,0,0:0:0:0:
128,364,365450,1,0,0:0:0:0:
132,352,365543,1,0,0:0:0:0:
136,344,365637,1,0,0:0:0:0:
80,264,365825,2,0,P|48:244|-4:240,1,76
20,216,366106,2,0,B|56:216|56:216|88:208|88:208|140:208,1,114
283,265,366575,6,0,L|187:273,1,76
280,96,366950,2,0,P|332:80|420:132,1,152
504,164,367512,1,0,0:0:0:0:
376,304,367700,1,0,0:0:0:0:
496,256,367887,2,0,P|508:296|504:336,1,76
396,152,368262,2,0,P|394:114|405:78,1,76
424,64,368543,2,0,B|388:68|388:68|352:60|352:60|296:60,1,114
224,24,369012,2,0,L|132:24,2,76
311,60,369575,37,0,0:0:0:0:
136,124,369762,1,0,0:0:0:0:
288,188,369950,2,0,B|364:156|364:216|452:180,1,152
200,236,370512,1,0,0:0:0:0:
104,112,370700,2,0,P|66:114|32:130,1,76
0,272,371075,5,0,0:0:0:0:
88,200,371262,1,0,0:0:0:0:
76,352,371450,1,0,0:0:0:0:
88,352,371543,1,0,0:0:0:0:
100,348,371637,1,0,0:0:0:0:
200,236,371825,2,0,L|192:136,1,76
168,172,372106,2,0,L|172:44,1,114
252,16,372575,6,0,P|292:36|348:40,1,76
496,108,372950,2,0,P|436:92|344:148,1,152
168,172,373512,1,0,0:0:0:0:
320,216,373700,1,0,0:0:0:0:
204,328,373887,6,0,L|104:324,1,76
0,216,374262,2,0,L|100:212,1,76
96,204,374543,2,0,P|124:156|108:92,1,114
244,28,375012,1,0,0:0:0:0:
332,60,375200,2,0,P|376:56|416:36,1,76
512,212,375575,37,0,0:0:0:0:
428,168,375762,1,0,0:0:0:0:
284,228,375950,2,0,B|231:230|231:230|184:212|184:212|120:214,1,152
48,248,376512,2,0,P|20:280|8:324,2,76
176,352,377075,6,0,L|276:348,1,76
392,288,377450,1,0,0:0:0:0:
404,288,377543,1,0,0:0:0:0:
416,292,377637,1,0,0:0:0:0:
284,228,377825,2,0,P|308:192|348:168,1,76
352,164,378106,2,0,B|412:176|412:176|488:160,1,114
276,104,378575,1,0,0:0:0:0:
120,148,378762,37,0,0:0:0:0:
80,305,378950,1,0,0:0:0:0:
80,305,379325,38,0,P|84:256|72:212,1,76
16,160,379700,1,0,0:0:0:0:
168,348,379887,54,0,P|196:352|232:352,1,47.5
304,304,380075,2,0,P|332:300|368:300,1,47.5
444,336,380262,5,0,0:0:0:0:
284,276,380450,2,0,B|232:276|232:276|184:264|184:264|128:272,1,152
16,120,381012,1,0,0:0:0:0:
100,152,381200,2,0,P|72:192|36:212,1,76
8,88,381575,5,0,0:0:0:0:
8,88,384012,2,0,P|56:44|152:52,1,152
228,80,384575,5,0,0:0:0:0:
316,52,384762,1,0,0:0:0:0:
444,164,384950,2,0,B|388:164|388:164|344:140|344:140|280:140,1,152
128,72,385512,1,0,0:0:0:0:
120,232,385700,2,0,P|160:232|196:212,1,76
298,140,386075,5,0,0:0:0:0:
228,80,386262,1,0,0:0:0:0:
360,24,386450,2,0,P|424:52|508:28,1,152
432,96,387012,1,0,0:0:0:0:
512,208,387200,2,0,P|512:252|492:300,1,76
424,332,387575,37,0,0:0:0:0:
312,276,387762,1,0,0:0:0:0:
216,356,387950,2,0,B|132:388|132:328|44:356,1,152
8,272,388512,2,0,P|60:264|96:240,2,76
67,350,389075,5,0,0:0:0:0:
187,226,389262,1,0,0:0:0:0:
20,184,389450,1,0,0:0:0:0:
108,276,389637,1,0,0:0:0:0:
236,148,389825,2,0,B|280:144|280:144|316:148|316:148|380:148,2,114
144,112,390575,6,0,L|48:108,1,76
280,232,390950,2,0,P|336:272|428:244,1,152
500,220,391512,1,0,0:0:0:0:
432,108,391700,2,0,P|436:60|452:24,1,76
500,220,392075,5,0,0:0:0:0:
364,316,392262,1,0,0:0:0:0:
348,150,392450,2,0,P|292:104|208:120,1,152
296,72,393012,1,0,0:0:0:0:
144,16,393200,2,0,L|56:20,1,76
0,152,393575,38,0,L|75:155,1,76
160,196,393950,2,0,B|212:192|212:192|256:204|256:204|324:200,1,152
476,260,394512,1,0,0:0:0:0:
488,256,394606,1,0,0:0:0:0:
496,248,394700,1,0,0:0:0:0:
388,148,394887,1,0,0:0:0:0:
384,136,394981,1,0,0:0:0:0:
384,124,395075,1,0,0:0:0:0:
472,92,395262,5,0,0:0:0:0:
392,244,395450,1,0,0:0:0:0:
300,98,395637,1,0,0:0:0:0:
184,148,395825,2,0,P|136:144|84:96,2,114
0,252,396575,5,0,0:0:0:0:
84,216,396762,1,0,0:0:0:0:
168,252,396950,2,0,B|244:276|244:220|336:260,1,152
392,348,397512,1,0,0:0:0:0:
512,316,397700,2,0,P|496:264|500:220,1,76
368,168,398075,5,0,0:0:0:0:
504,128,398262,1,0,0:0:0:0:
388,80,398450,2,0,P|320:84|248:32,1,152
76,124,399012,2,0,L|0:128,2,76
176,34,399575,38,0,L|252:38,1,76
312,112,399950,2,0,P|320:164|276:228,2,114
452,296,400793,2,0,P|424:247|431:191,1,114
512,152,401262,2,0,L|372:160,2,114
312,112,402012,2,0,B|256:108|256:108|216:120|216:120|156:116,1,152
76,136,402575,6,0,P|12:120|48:52,1,152
60,56,403325,1,0,0:0:0:0:
0,212,403512,2,0,L|-4:300,1,76
132,332,403887,2,0,L|128:240,1,76
260,140,404262,2,0,L|252:228,1,76
276,292,404543,2,0,P|328:324|392:312,1,114
440,244,405012,2,0,B|468:164|408:164|440:84,1,152
508,40,405575,6,0,P|456:64|364:28,1,152
220,80,406137,1,0,0:0:0:0:
276,208,406325,1,0,0:0:0:0:
144,136,406512,2,0,B|88:136|88:136|48:116|48:116|-8:116,1,152
220,80,407075,1,0,0:0:0:0:
360,168,407262,2,0,P|416:168|468:128,2,114
500,52,408012,2,0,L|508:220,1,152
392,344,408575,6,0,P|341:290|267:292,1,152
244,284,409325,1,0,0:0:0:0:
180,344,409512,2,0,P|136:360|80:356,1,76
0,232,409887,2,0,L|96:236,1,76
200,168,410262,2,0,L|296:164,1,76
352,200,410543,2,0,L|480:208,1,114
512,120,411012,2,0,P|420:104|384:48,1,152
308,24,411575,38,0,B|256:24|256:24|208:36|208:36|152:28,1,152
4,96,412137,1,0,0:0:0:0:
128,152,412325,1,0,0:0:0:0:
24,248,412512,2,0,P|84:304|168:288,1,152
232,348,413075,1,0,0:0:0:0:
380,268,413262,2,0,B|440:280|440:280|508:268,2,114
256,216,414012,2,0,B|172:192|172:244|80:212,1,152
32,160,414575,6,0,P|16:76|84:28,1,152
76,48,415325,1,0,0:0:0:0:
160,88,415512,2,0,L|240:84,1,76
436,120,415887,2,0,P|400:144|356:152,1,76
252,236,416262,2,0,P|208:231|170:209,1,76
108,176,416543,2,0,P|52:176|-8:216,1,114
276,264,417012,6,0,B|332:260|332:260|372:272|372:272|440:268,1,152
504,228,417575,2,0,P|460:164|492:80,1,152
316,68,418137,2,0,P|330:110|320:161,1,76
236,122,418512,2,0,P|204:182|105:202,1,152
40,168,419075,1,0,0:0:0:0:
112,40,419262,2,0,B|64:44|64:44|32:36|32:36|-12:36,2,114
40,168,420012,2,0,P|100:224|80:304,1,152
128,207,420575,6,0,B|204:175|204:231|296:199,1,152
300,220,421325,2,0,P|340:212|380:184,2,76
512,136,421887,2,0,L|416:132,1,76
364,320,422262,2,0,L|460:316,1,76
304,264,422543,2,0,P|268:252|230:253,1,76
160,288,422825,1,0,0:0:0:0:
20,208,423012,2,0,P|-8:136|44:60,1,152
108,28,423575,38,0,B|160:24|160:24|204:36|204:36|264:32,1,152
428,108,424137,1,0,0:0:0:0:
512,64,424325,1,0,0:0:0:0:
404,200,424512,2,0,P|328:160|256:176,1,152
136,120,425075,1,0,0:0:0:0:
152,264,425262,2,0,P|96:296|24:284,2,114
232,304,426012,2,0,B|284:304|284:304|328:320|328:320|396:320,1,152
508,340,426575,6,0,P|464:296|492:196,1,152
488,224,427325,1,0,0:0:0:0:
452,140,427512,1,0,0:0:0:0:
492,56,427700,1,0,0:0:0:0:
336,12,427887,2,0,P|296:24|248:24,1,76
160,104,428262,2,0,P|120:84|92:52,1,76
40,8,428543,2,0,P|56:76|28:128,1,114
0,200,429012,2,0,L|4:296,2,76
84,320,429575,6,0,B|152:292|152:344|244:312,1,152
328,204,430137,2,0,P|284:180|232:180,1,76
320,348,430512,2,0,P|384:324|464:352,1,152
396,288,431075,1,0,0:0:0:0:
488,156,431262,2,0,B|492:120|492:120|484:80|484:80|484:28,2,114
408,124,432012,2,0,P|364:176|268:168,1,152
200,140,432575,6,0,B|128:160|128:160|32:140,1,152
24,164,433325,2,0,P|60:184|88:232,1,76
0,256,433700,1,0,0:0:0:0:
140,344,433887,2,0,P|184:336|228:308,1,76
176,176,434262,2,0,P|188:136|224:96,1,76
260,176,434543,2,0,P|304:136|380:140,1,114
432,180,435012,2,0,P|480:204|492:124,1,152
