osu file format v14

[General]
AudioFilename: audio.mp3
AudioLeadIn: 0
PreviewTime: 99488
Countdown: 0
SampleSet: Soft
StackLeniency: 0.4
Mode: 0
LetterboxInBreaks: 0
WidescreenStoryboard: 1

[Editor]
DistanceSpacing: 1.7
BeatDivisor: 8
GridSize: 32
TimelineZoom: 3.999998

[Metadata]
Title:stay with me
TitleUnicode:stay with me
Artist:1nonly
ArtistUnicode:1nonly
Creator:Alumetri
Version:Maaadbot's Expert
Source:
Tags:NateGoyard 真夜中のドア Miki Matsubara 松原 みき hip hop rap Maaadbot Hantrik daycore gordon123 schoolboy komore english japanese
BeatmapID:2673245
BeatmapSetID:1282912

[Difficulty]
HPDrainRate:4.8
CircleSize:3.8
OverallDifficulty:9
ApproachRate:9.2
SliderMultiplier:1.92
SliderTickRate:1

[Events]
//Background and Video events
0,0,"daseas34aw.jpg",0,0
//Break Periods
2,81057,98918
//Storyboard Layer 0 (Background)
//Storyboard Layer 1 (Fail)
//Storyboard Layer 2 (Pass)
//Storyboard Layer 3 (Foreground)
//Storyboard Layer 4 (Overlay)
//Storyboard Sound Samples

[TimingPoints]
15,631.578947368421,4,2,1,20,1,0
15,-454.545454545455,4,2,1,20,0,0
93,-454.545454545455,4,2,1,5,0,0
18804,-454.545454545455,4,2,1,20,0,0
18962,-416.666666666667,4,2,1,10,0,0
19909,-96.1538461538461,4,2,1,50,0,0
20067,-96.1538461538461,4,2,1,50,0,0
20225,-37.593984962406,4,2,1,85,0,1
24883,-37.593984962406,4,2,1,5,0,1
24962,-37.593984962406,4,2,1,85,0,1
25041,-37.593984962406,4,2,1,5,0,1
25120,-37.593984962406,4,2,1,85,0,1
25515,-37.593984962406,4,2,1,5,0,1
25593,-37.593984962406,4,2,1,85,0,1
28120,-37.593984962406,4,2,1,85,0,1
29936,-37.593984962406,4,2,1,5,0,1
30015,-37.593984962406,4,2,1,85,0,1
30093,-37.593984962406,4,2,1,5,0,1
30172,-37.593984962406,4,2,1,85,0,1
34988,-37.593984962406,4,2,1,5,0,1
35067,-37.593984962406,4,2,1,85,0,1
35146,-37.593984962406,4,2,1,5,0,1
35225,-37.593984962406,4,2,1,85,0,1
40041,-37.593984962406,4,2,1,5,0,1
40120,-37.593984962406,4,2,1,85,0,1
40199,-37.593984962406,4,2,1,5,0,1
40278,-37.593984962406,4,2,1,85,0,1
40436,-44.2477876106195,4,2,1,70,0,0
41620,-44.2477876106195,4,2,1,5,0,0
41699,-44.2477876106195,4,2,1,70,0,0
45093,-44.2477876106195,4,2,1,5,0,0
45172,-44.2477876106195,4,2,1,70,0,0
45251,-44.2477876106195,4,2,1,5,0,0
45330,-44.2477876106195,4,2,1,70,0,0
49199,-44.2477876106195,4,2,1,5,0,0
49278,-44.2477876106195,4,2,1,70,0,0
50146,-44.2477876106195,4,2,1,5,0,0
50225,-44.2477876106195,4,2,1,70,0,0
50304,-44.2477876106195,4,2,1,5,0,0
50383,-44.2477876106195,4,2,1,70,0,0
55199,-44.2477876106195,4,2,1,5,0,0
55278,-44.2477876106195,4,2,1,70,0,0
55357,-44.2477876106195,4,2,1,5,0,0
55436,-44.2477876106195,4,2,1,70,0,0
57251,-44.2477876106195,4,2,1,5,0,0
57330,-44.2477876106195,4,2,1,70,0,0
57725,-44.2477876106195,4,2,1,5,0,0
57804,-44.2477876106195,4,2,1,70,0,0
60251,-44.2477876106195,4,2,1,5,0,0
60330,-44.2477876106195,4,2,1,70,0,0
60409,-44.2477876106195,4,2,1,5,0,0
60488,-44.2477876106195,4,2,1,70,0,0
60646,-37.593984962406,4,2,1,85,0,1
65304,-37.593984962406,4,2,1,5,0,1
65383,-37.593984962406,4,2,1,85,0,1
65462,-37.593984962406,4,2,1,5,0,1
65541,-37.593984962406,4,2,1,85,0,1
70357,-37.593984962406,4,2,1,5,0,1
70436,-37.593984962406,4,2,1,85,0,1
70515,-37.593984962406,4,2,1,5,0,1
70593,-37.593984962406,4,2,1,85,0,1
75409,-37.593984962406,4,2,1,5,0,1
75488,-37.593984962406,4,2,1,85,0,1
75567,-37.593984962406,4,2,1,5,0,1
75646,-37.593984962406,4,2,1,85,0,1
80462,-37.593984962406,4,2,1,5,0,1
80541,-37.593984962406,4,2,1,85,0,1
80620,-37.593984962406,4,2,1,5,0,1
80699,-37.593984962406,4,2,1,85,0,1
80857,-60.2409638554217,4,2,1,60,0,0
99488,-94.3396226415094,4,2,1,60,0,0
99804,-60.2409638554217,4,2,1,60,0,0
100988,-60.2409638554217,4,2,1,5,0,0
101067,-37.593984962406,4,2,1,85,0,1
105725,-37.593984962406,4,2,1,5,0,1
105804,-37.593984962406,4,2,1,85,0,1
105883,-37.593984962406,4,2,1,5,0,1
105962,-37.593984962406,4,2,1,85,0,1
110778,-37.593984962406,4,2,1,5,0,1
110857,-37.593984962406,4,2,1,85,0,1
110936,-37.593984962406,4,2,1,5,0,1
111015,-37.593984962406,4,2,1,85,0,1
115830,-37.593984962406,4,2,1,5,0,1
115909,-37.593984962406,4,2,1,85,0,1
115988,-37.593984962406,4,2,1,5,0,1
116067,-37.593984962406,4,2,1,85,0,1
120883,-37.593984962406,4,2,1,5,0,1
120962,-37.593984962406,4,2,1,85,0,1
121041,-37.593984962406,4,2,1,5,0,1
121120,-37.593984962406,4,2,1,85,0,1
121278,-333.333333333333,4,2,1,40,0,0
121357,-333.333333333333,4,2,1,5,0,0
131383,-333.333333333333,4,2,1,10,0,0
135172,-500,4,2,1,40,0,0
137699,-500,4,2,1,40,0,0
138962,-500,4,2,1,40,0,0

[Colours]
Combo1 : 216,216,235
Combo2 : 187,255,255
Combo3 : 255,255,204
Combo4 : 255,182,147

[HitObjects]
121,356,15,6,0,B|175:302|176:217|118:156|118:156|54:64|115:-42|246:-50|319:23|305:106|305:106|378:9|541:52|564:206|471:293|376:277|376:277|312:266|272:283|237:337,1,1256.64003834961,2|2,0:0|0:0,0:0:0:0:
256,192,18962,12,0,19751,0:0:0:0:
68,161,19909,6,0,P|36:170|9:162,1,49.9199996953125,2|0,0:0|0:0,0:0:0:0:
30,83,20225,6,0,B|104:63|172:97|138:136|199:189|294:135,1,255.359989479493,6|2,3:2|0:3,0:0:0:0:
448,1,20699,1,0,0:0:0:0:
448,1,20857,2,0,P|405:54|420:123,1,127.679994739746,10|0,0:0|0:0,0:0:0:0:
462,344,21172,2,0,P|437:280|370:258,1,127.679994739746,2|10,0:2|0:1,0:0:0:0:
172,340,21488,1,2,0:2:0:0:
385,334,21646,1,10,0:1:0:0:
222,210,21804,2,0,B|149:213|115:282|115:282|42:307|-2:248,1,255.359989479493,2|10,3:2|0:2,0:0:0:0:
76,0,22278,2,0,B|109:42|147:66|147:66|102:137|67:219,1,255.359989479493,0|2,3:0|0:2,0:0:0:0:
253,332,22751,6,0,P|259:264|273:200,1,127.679994739746,2|2,3:2|0:2,0:0:0:0:
411,321,23067,1,2,0:3:0:0:
172,201,23225,1,2,0:2:0:0:
371,79,23383,2,0,P|383:141|392:204,1,127.679994739746,10|0,0:2|0:0,0:0:0:0:
153,355,23699,2,0,P|167:284|175:218,1,127.679994739746,2|8,0:2|0:1,0:0:0:0:
40,31,24015,2,0,P|3:77|47:76,1,127.679994739746,2|8,0:2|0:1,0:0:0:0:
272,24,24330,2,0,B|363:33|363:33|418:77|418:77|518:77,1,255.359989479493,2|10,3:2|0:2,0:0:0:0:
288,242,24804,2,0,P|282:210|280:178,1,63.8399973698732,0|0,3:0|0:0,0:0:0:0:
492,280,24962,2,0,P|486:311|483:343,1,63.8399973698732,2|0,3:2|0:0,0:0:0:0:
213,373,25120,1,0,0:0:0:0:
213,373,25278,6,0,B|159:387|113:357|140:326|85:297|31:325,1,191.519992109619,2|0,3:2|0:0,0:0:0:0:
16,335,25593,2,0,P|32:269|17:199,1,127.679994739746,2|0,0:3|0:0,0:0:0:0:
248,69,25909,1,10,0:2:0:0:
153,262,26067,1,0,0:0:0:0:
7,66,26225,2,0,P|72:51|140:44,1,127.679994739746,2|8,0:2|0:1,0:0:0:0:
292,259,26541,2,0,P|226:244|158:237,1,127.679994739746,2|8,0:2|0:1,0:0:0:0:
383,9,26857,2,0,B|400:93|400:93|384:163|384:163|409:260,1,255.359989479493,2|10,3:2|0:2,0:0:0:0:
165,384,27330,2,0,B|182:300|182:300|166:230|166:230|191:133,1,255.359989479493,0|0,3:0|0:0,0:0:0:0:
394,365,27804,6,0,P|475:351|470:199,1,255.359989479493,2|2,3:2|0:3,0:0:0:0:
284,47,28278,1,0,0:0:0:0:
296,288,28436,2,0,P|366:292|418:233,1,127.679994739746,10|0,0:2|0:0,0:0:0:0:
449,66,28751,1,2,0:2:0:0:
339,222,28909,1,8,0:1:0:0:
158,67,29067,2,0,P|220:53|283:47,1,127.679994739746,2|8,0:2|0:1,0:0:0:0:
436,275,29383,2,0,P|441:208|457:143,1,127.679994739746,2|2,3:2|0:0,0:0:0:0:
509,304,29699,1,10,0:0:0:0:
291,183,29857,2,0,P|287:214|280:245,1,63.8399973698732,0|0,3:0|0:0,0:0:0:0:
103,353,30015,2,0,P|99:321|92:290,1,63.8399973698732,2|0,3:2|0:0,0:0:0:0:
107,30,30172,1,2,0:2:0:0:
107,30,30330,6,0,B|179:-2|249:42|216:78|270:125|348:82,1,255.359989479493,2|2,3:2|0:3,0:0:0:0:
512,0,30804,1,0,0:0:0:0:
439,218,30962,2,0,P|373:243|376:312,1,127.679994739746,8|0,0:0|0:0,0:0:0:0:
157,224,31278,2,0,B|149:176|149:176|161:150|161:150|153:98,1,127.679994739746,2|8,0:2|0:1,0:0:0:0:
412,0,31593,2,0,B|404:47|404:47|416:73|416:73|408:125,1,127.679994739746,2|8,0:2|0:1,0:0:0:0:
190,2,31909,2,0,B|136:38|71:19|71:19|28:95|87:153,1,255.359989479493,2|10,3:2|0:2,0:0:0:0:
260,309,32383,2,0,B|185:301|185:301|144:322|144:322|110:290|110:290|23:276,1,255.359989479493,0|2,3:0|0:2,0:0:0:0:
248,212,32857,6,0,P|314:216|380:230,1,127.679994739746,2|2,3:2|0:2,0:0:0:0:
164,234,33172,1,2,0:3:0:0:
355,363,33330,1,2,0:2:0:0:
275,140,33488,2,0,L|295:10,1,127.679994739746,10|2,0:2|0:2,0:0:0:0:
419,262,33804,1,2,0:2:0:0:
432,62,33962,1,10,0:1:0:0:
211,259,34120,2,0,L|190:129,1,127.679994739746,2|10,0:2|0:1,0:0:0:0:
303,272,34436,1,2,3:2:0:0:
119,155,34593,1,2,0:2:0:0:
320,86,34751,1,10,0:2:0:0:
124,233,34909,2,0,L|112:303,1,63.8399973698732,2|0,3:2|0:0,0:0:0:0:
365,250,35067,2,0,L|353:179,1,63.8399973698732,2|0,3:2|0:0,0:0:0:0:
193,7,35225,1,2,0:2:0:0:
193,7,35383,6,0,P|125:9|84:63,1,127.679994739746,2|2,3:2|0:2,0:0:0:0:
15,192,35699,1,2,0:3:0:0:
14,1,35857,1,2,0:2:0:0:
211,161,36015,2,0,P|284:151|336:184,1,127.679994739746,10|0,0:2|0:0,0:0:0:0:
500,3,36330,2,0,P|455:53|456:123,1,127.679994739746,2|8,0:2|0:1,0:0:0:0:
508,309,36646,1,2,0:2:0:0:
369,110,36804,1,8,0:1:0:0:
271,326,36962,2,0,B|189:324|189:324|111:360|111:360|20:356,1,255.359989479493,2|10,3:2|0:0,0:0:0:0:
27,107,37436,2,0,B|109:105|109:105|187:141|187:141|278:137,1,255.359989479493,0|2,3:0|0:2,0:0:0:0:
452,114,37909,6,0,P|497:62|476:3,1,127.679994739746,2|2,3:2|0:2,0:0:0:0:
350,165,38225,1,2,0:3:0:0:
489,279,38383,1,2,0:0:0:0:
391,84,38541,2,0,P|337:38|266:58,1,127.679994739746,10|0,0:0|0:0,0:0:0:0:
132,323,38857,2,0,P|198:299|217:227,1,127.679994739746,2|8,0:0|0:1,0:0:0:0:
33,5,39172,2,0,P|20:74|72:126,1,127.679994739746,2|8,0:0|0:1,0:0:0:0:
285,45,39488,2,0,P|231:-1|232:113,1,255.359989479493,2|10,3:2|0:0,0:0:0:0:
502,217,39962,2,0,L|514:135,1,63.8399973698732,0|0,3:0|0:0,0:0:0:0:
367,16,40120,2,0,L|379:97,1,63.8399973698732,2|0,3:2|0:0,0:0:0:0:
448,304,40278,1,0,0:0:0:0:
448,304,40436,6,0,B|475:333|477:368|477:368|388:401|331:337,1,216.960000662109,6|2,3:2|0:3,0:0:0:0:
253,148,40909,1,0,0:0:0:0:
145,268,41067,2,0,L|30:286,1,108.480000331055,10|0,0:0|0:0,0:0:0:0:
243,358,41383,1,2,0:2:0:0:
117,138,41541,2,0,P|104:169|117:207,1,54.2400001655273,10|0,0:1|0:0,0:0:0:0:
322,293,41699,2,0,P|312:238|336:176,1,108.480000331055,2|10,0:2|0:1,0:0:0:0:
496,28,42015,2,0,B|509:106|509:106|490:172|490:172|504:245,1,216.960000662109,2|10,3:2|0:2,0:0:0:0:
407,376,42488,2,0,B|420:298|420:298|401:232|401:232|415:159,1,216.960000662109,0|2,3:0|0:2,0:0:0:0:
266,17,42962,6,0,B|208:4|148:35|186:69|129:107|61:69,1,216.960000662109,2|2,3:2|0:3,0:0:0:0:
13,237,43436,1,0,0:0:0:0:
228,199,43593,2,0,L|246:79,1,108.480000331055,10|0,0:2|0:0,0:0:0:0:
91,250,43909,2,0,L|109:369,1,108.480000331055,2|8,0:2|0:1,0:0:0:0:
325,205,44225,2,0,P|272:182|215:212,1,108.480000331055,2|8,0:2|0:1,0:0:0:0:
386,347,44541,2,0,P|399:240|423:108,1,216.960000662109,2|10,3:2|0:2,0:0:0:0:
284,42,45015,2,0,L|295:115,1,54.2400001655273,0|0,3:0|0:0,0:0:0:0:
153,187,45172,2,0,L|164:113,1,54.2400001655273,2|0,3:2|0:0,0:0:0:0:
22,30,45330,1,0,0:0:0:0:
22,30,45488,6,0,B|36:115|36:115|11:166|11:166|25:251,1,216.960000662109,2|2,3:2|0:3,0:0:0:0:
205,267,46120,2,0,P|183:200|128:187,1,108.480000331055,10|0,0:2|0:0,0:0:0:0:
250,335,46436,2,0,P|319:349|357:308,1,108.480000331055,2|8,0:2|0:1,0:0:0:0:
468,145,46751,2,0,L|351:126,1,108.480000331055,2|8,0:2|0:1,0:0:0:0:
175,29,47067,2,0,L|292:10,1,108.480000331055,2|0,3:2|0:0,0:0:0:0:
252,169,47383,1,10,0:2:0:0:
82,49,47541,2,0,P|58:96|71:148,1,108.480000331055,0|2,3:0|0:2,0:0:0:0:
14,314,48015,6,0,L|240:278,1,216.960000662109,2|2,3:2|0:3,0:0:0:0:
321,371,48488,1,0,0:0:0:0:
321,371,48646,2,0,L|213:353,1,108.480000331055,10|0,0:2|0:0,0:0:0:0:
348,215,48962,1,2,0:2:0:0:
348,215,49120,2,0,L|355:275,1,54.2400001655273,8|0,0:1|0:0,0:0:0:0:
425,234,49278,2,0,L|441:116,1,108.480000331055,2|8,0:2|0:1,0:0:0:0:
205,58,49593,2,0,L|221:175,1,108.480000331055,2|2,3:2|0:0,0:0:0:0:
320,56,49909,1,10,0:0:0:0:
118,100,50067,2,0,L|105:157,1,54.2400001655273,0|0,3:0|0:0,0:0:0:0:
222,285,50225,2,0,L|179:245,1,54.2400001655273,2|0,3:2|0:0,0:0:0:0:
42,318,50383,1,0,0:0:0:0:
42,318,50541,6,0,B|114:291|163:330|132:368|199:390|252:358,1,216.960000662109,2|2,3:2|0:3,0:0:0:0:
322,190,51015,1,0,0:0:0:0:
322,190,51172,2,0,L|340:305,1,108.480000331055,8|0,0:0|0:0,0:0:0:0:
512,211,51488,2,0,P|455:186|393:214,1,108.480000331055,2|8,0:2|0:1,0:0:0:0:
252,272,51804,2,0,P|199:282|152:258,1,108.480000331055,2|8,0:2|0:1,0:0:0:0:
100,85,52120,2,0,P|99:146|82:77,1,216.960000662109,2|10,3:2|0:2,0:0:0:0:
244,183,52593,2,0,B|262:115|262:115|233:59|233:59|254:8|326:14,1,216.960000662109,0|2,3:0|0:2,0:0:0:0:
442,99,53067,6,0,P|457:159|425:209,1,108.480000331055,2|2,3:2|0:2,0:0:0:0:
357,330,53383,1,2,0:3:0:0:
357,330,53541,1,2,0:2:0:0:
220,259,53699,2,0,B|186:251|158:269|173:284|142:306|103:288,1,108.480000331055,10|2,0:2|0:2,0:0:0:0:
13,206,54015,1,2,0:2:0:0:
13,206,54172,1,10,0:1:0:0:
140,102,54330,2,0,P|136:163|120:227,1,108.480000331055,2|10,0:2|0:1,0:0:0:0:
8,50,54646,2,0,P|112:27|243:12,1,216.960000662109,2|10,3:2|0:2,0:0:0:0:
314,170,55120,2,0,L|256:161,1,54.2400001655273,2|0,3:2|0:0,0:0:0:0:
392,21,55278,2,0,L|412:75,1,54.2400001655273,2|0,3:2|0:0,0:0:0:0:
475,278,55436,1,2,0:2:0:0:
475,278,55593,6,0,P|370:255|239:240,1,216.960000662109,2|2,3:2|0:3,0:0:0:0:
86,197,56067,1,0,0:0:0:0:
86,197,56225,2,0,P|67:264|83:300,1,108.480000331055,10|0,0:2|0:0,0:0:0:0:
228,162,56541,2,0,P|247:95|231:59,1,108.480000331055,2|8,0:2|0:1,0:0:0:0:
42,48,56857,2,0,P|90:97|129:102,1,108.480000331055,2|8,0:2|0:1,0:0:0:0:
338,18,57172,2,0,L|345:82,1,54.2400001655273,2|0,3:2|0:0,0:0:0:0:
353,147,57330,1,0,0:0:0:0:
464,72,57488,1,10,0:0:0:0:
374,224,57646,2,0,L|312:244,1,54.2400001655273,0|0,3:0|0:0,0:0:0:0:
250,265,57804,1,2,0:2:0:0:
130,174,57962,1,2,0:2:0:0:
112,364,58120,6,0,P|170:348|231:345,1,108.480000331055,2|0,3:2|0:0,0:0:0:0:
342,376,58436,1,2,0:3:0:0:
342,376,58593,1,0,0:0:0:0:
181,272,58751,2,0,P|122:256|61:253,1,108.480000331055,10|0,0:0|0:0,0:0:0:0:
199,91,59067,2,0,P|168:135|129:173,1,108.480000331055,2|8,0:0|0:1,0:0:0:0:
346,207,59383,2,0,P|287:191|226:188,1,108.480000331055,2|8,0:0|0:1,0:0:0:0:
361,36,59699,2,0,P|419:48|335:81,1,216.960000662109,2|10,3:2|0:0,0:0:0:0:
187,23,60172,2,0,L|176:88,1,54.2400001655273,0|0,3:0|0:0,0:0:0:0:
63,219,60330,2,0,L|52:153,1,54.2400001655273,2|0,3:2|0:0,0:0:0:0:
199,365,60488,1,0,0:0:0:0:
199,365,60646,6,0,P|327:337|458:323,1,255.359989479493,6|2,3:2|0:3,0:0:0:0:
495,100,61120,1,0,0:0:0:0:
290,188,61278,2,0,P|300:249|325:312,1,127.679994739746,10|2,0:2|0:2,0:0:0:0:
512,191,61593,1,2,0:2:0:0:
332,52,61751,1,10,0:1:0:0:
206,254,61909,2,0,B|159:248|159:248|123:265|123:265|80:260,1,127.679994739746,2|10,0:2|0:1,0:0:0:0:
123,56,62225,2,0,P|219:14|191:130,1,255.359989479493,2|10,3:2|0:2,0:0:0:0:
479,184,62699,2,0,P|383:142|411:258,1,255.359989479493,2|2,3:2|0:2,0:0:0:0:
95,351,63172,6,0,P|110:282|117:206,1,127.679994739746,2|2,3:2|0:2,0:0:0:0:
256,357,63488,1,2,0:3:0:0:
26,214,63646,1,2,0:2:0:0:
256,102,63804,2,0,P|263:165|277:227,1,127.679994739746,10|2,0:2|0:2,0:0:0:0:
475,371,64120,1,2,0:2:0:0:
475,371,64278,1,10,0:1:0:0:
416,102,64436,2,0,P|399:145|436:112,1,127.679994739746,2|10,0:2|0:1,0:0:0:0:
243,20,64751,2,0,B|180:3|97:39|150:87|70:133|6:93,1,255.359989479493,2|10,3:2|0:2,0:0:0:0:
99,309,65225,2,0,L|109:241,1,63.8399973698732,2|0,3:2|0:0,0:0:0:0:
295,112,65383,2,0,L|305:179,1,63.8399973698732,2|0,3:2|0:0,0:0:0:0:
474,361,65541,1,0,0:0:0:0:
474,361,65699,6,0,P|341:330|212:319,1,255.359989479493,2|2,3:2|0:3,0:0:0:0:
103,121,66172,1,2,0:2:0:0:
0,333,66330,2,0,P|60:358|134:326,1,127.679994739746,10|2,0:2|0:2,0:0:0:0:
274,185,66646,1,2,0:2:0:0:
68,269,66804,1,10,0:1:0:0:
288,384,66962,2,0,P|304:315|310:238,1,127.679994739746,2|10,0:2|0:1,0:0:0:0:
171,12,67278,2,0,B|148:103|148:103|171:170|171:170|139:311,1,255.359989479493,2|10,3:2|0:2,0:0:0:0:
405,303,67751,2,0,B|382:212|382:212|405:145|405:145|373:4,1,255.359989479493,2|0,3:2|0:0,0:0:0:0:
48,142,68225,6,0,L|69:278,1,127.679994739746,2|2,3:2|0:2,0:0:0:0:
315,135,68541,2,0,P|250:114|185:139,1,127.679994739746,2|0,0:3|0:2,0:0:0:0:
191,354,68857,2,0,P|256:375|321:350,1,127.679994739746,10|2,0:2|0:2,0:0:0:0:
414,127,69172,1,2,0:2:0:0:
251,293,69330,1,10,0:1:0:0:
489,368,69488,2,0,B|495:317|495:317|481:287|481:287|484:220,1,127.679994739746,2|10,0:2|0:1,0:0:0:0:
332,31,69804,2,0,B|275:5|204:41|236:86|157:132|96:96,1,255.359989479493,2|10,3:2|0:2,0:0:0:0:
311,216,70278,2,0,L|321:150,1,63.8399973698732,0|0,3:2|0:0,0:0:0:0:
64,56,70436,2,0,L|74:121,1,63.8399973698732,2|0,3:2|0:0,0:0:0:0:
96,345,70593,1,2,0:2:0:0:
96,345,70751,6,0,P|220:318|380:299,1,255.359989479493,2|2,3:2|0:3,0:0:0:0:
347,302,71383,1,10,0:0:0:0:
352,36,71541,2,0,P|276:79|268:127,1,127.679994739746,2|2,0:0|0:0,0:0:0:0:
426,343,71857,2,0,P|426:255|389:224,1,127.679994739746,10|2,0:1|0:0,0:0:0:0:
123,253,72172,1,10,0:1:0:0:
322,39,72330,2,0,B|333:134|333:134|307:188|307:188|318:302,1,255.359989479493,2|10,3:2|0:2,0:0:0:0:
77,363,72804,2,0,B|88:268|88:268|62:214|62:214|73:100,1,255.359989479493,2|0,3:2|0:0,0:0:0:0:
352,25,73278,6,0,P|416:75|308:71,1,255.359989479493,2|2,3:2|0:3,0:0:0:0:
465,279,73751,1,2,0:0:0:0:
362,78,73909,1,10,0:0:0:0:
220,276,74067,2,0,L|352:255,1,127.679994739746,2|2,0:0|0:0,0:0:0:0:
192,34,74383,2,0,P|156:97|174:153,1,127.679994739746,10|2,0:1|0:0,0:0:0:0:
322,326,74699,1,10,0:1:0:0:
91,363,74857,2,0,B|115:300|75:224|21:268|-25:201|24:120,1,255.359989479493,0|10,3:0|0:0,0:0:0:0:
256,104,75330,2,0,L|269:184,1,63.8399973698732,2|0,3:2|0:0,0:0:0:0:
42,64,75488,2,0,L|54:-16,1,63.8399973698732,2|0,3:2|0:0,0:0:0:0:
336,24,75646,1,2,0:0:0:0:
336,24,75804,6,0,P|364:152|379:297,1,255.359989479493,2|2,3:2|0:3,0:0:0:0:
168,361,76278,1,2,0:0:0:0:
128,142,76436,2,0,P|198:122|264:146,1,127.679994739746,10|2,0:0|0:0,0:0:0:0:
345,351,76751,1,2,0:0:0:0:
456,147,76909,1,10,0:1:0:0:
248,272,77067,2,0,P|180:249|115:259,1,127.679994739746,2|10,0:0|0:1,0:0:0:0:
87,9,77383,2,0,P|156:9|70:73,1,255.359989479493,2|10,3:0|0:0,0:0:0:0:
429,143,77857,2,0,P|360:143|446:207,1,255.359989479493,2|2,3:2|0:0,0:0:0:0:
272,21,78330,6,0,L|250:158,1,127.679994739746,2|2,3:2|0:0,0:0:0:0:
81,344,78646,2,0,L|59:206,1,127.679994739746,2|2,0:3|0:0,0:0:0:0:
363,318,78962,2,0,B|281:314|281:314|244:335|244:335|172:331,1,191.519992109619,10|0,0:0|0:0,0:0:0:0:
177,331,79278,1,0,0:0:0:0:
170,146,79436,2,0,P|232:126|300:151,1,127.679994739746,10|2,0:1|0:0,0:0:0:0:
433,376,79751,1,10,0:1:0:0:
484,89,79909,2,0,B|410:77|365:140|429:181|375:251|264:234,1,255.359989479493,2|10,3:2|0:0,0:0:0:0:
86,129,80383,2,0,L|73:207,1,63.8399973698732,2|0,3:2|0:0,0:0:0:0:
248,370,80541,2,0,L|235:291,1,63.8399973698732,2|0,3:2|0:0,0:0:0:0:
303,67,80699,1,2,0:2:0:0:
129,272,80857,5,2,0:2:0:0:
100,69,99488,6,0,L|110:138,1,50.8800000776367,2|0,0:2|0:2,0:0:0:0:
204,231,99804,2,0,P|216:193|219:131,1,79.6800011550293,2|0,0:2|0:0,0:0:0:0:
307,107,100120,1,2,0:2:0:0:
307,107,100278,1,2,0:0:0:0:
360,271,100436,2,0,P|328:247|301:217,1,79.6800011550293,2|0,0:2|0:0,0:0:0:0:
464,223,100751,2,0,P|456:285|437:345,1,119.520001732544,2|0,0:2|0:0,0:0:0:0:
463,369,101067,6,0,P|337:342|199:327,1,255.359989479493,6|2,3:2|0:3,0:0:0:0:
54,157,101541,1,0,0:0:0:0:
296,113,101699,2,0,P|288:187|275:243,1,127.679994739746,10|0,0:0|0:0,0:0:0:0:
429,97,102014,1,2,0:2:0:0:
192,66,102172,1,10,0:1:0:0:
376,256,102330,2,0,P|439:235|505:235,1,127.679994739746,2|10,0:2|0:1,0:0:0:0:
234,4,102646,2,0,B|219:92|219:92|243:151|243:151|224:269,1,255.359989479493,2|10,3:2|0:2,0:0:0:0:
25,376,103120,2,0,B|10:287|10:287|34:228|34:228|15:110,1,255.359989479493,0|2,3:0|0:2,0:0:0:0:
174,351,103593,6,0,P|241:372|299:342,1,127.679994739746,2|2,3:2|0:2,0:0:0:0:
459,160,103909,1,2,0:3:0:0:
227,252,104067,1,2,0:2:0:0:
425,365,104225,2,0,B|418:324|418:324|430:289|430:289|421:234,1,127.679994739746,10|0,0:2|0:0,0:0:0:0:
223,31,104541,2,0,B|216:71|216:71|228:106|228:106|219:161,1,127.679994739746,2|8,0:2|0:1,0:0:0:0:
512,52,104857,2,0,P|437:36|370:85,1,127.679994739746,2|8,0:2|0:1,0:0:0:0:
251,275,105172,2,0,P|121:247|-5:234,1,255.359989479493,2|10,3:2|0:2,0:0:0:0:
128,19,105646,2,0,L|138:83,1,63.8399973698732,0|0,3:0|0:0,0:0:0:0:
334,226,105804,2,0,L|344:161,1,63.8399973698732,2|0,3:2|0:0,0:0:0:0:
46,107,105962,1,0,0:0:0:0:
46,107,106120,6,0,P|92:154|240:83,1,255.359989479493,2|2,3:2|0:3,0:0:0:0:
456,14,106593,1,0,0:0:0:0:
459,246,106751,2,0,P|390:229|328:225,1,127.679994739746,10|0,0:2|0:0,0:0:0:0:
98,368,107067,2,0,P|167:351|229:347,1,127.679994739746,2|8,0:2|0:1,0:0:0:0:
239,84,107383,2,0,P|191:142|220:208,1,127.679994739746,2|8,0:2|0:1,0:0:0:0:
391,374,107699,2,0,B|406:275|406:275|444:225|444:225|464:103,1,255.359989479493,2|10,3:2|0:2,0:0:0:0:
256,0,108172,2,0,B|271:98|271:98|309:148|309:148|329:270,1,255.359989479493,0|0,3:0|0:0,0:0:0:0:
96,189,108646,6,0,P|38:161|135:155,1,255.359989479493,2|2,3:2|0:3,0:0:0:0:
51,345,109120,1,0,0:0:0:0:
240,191,109278,2,0,P|307:170|370:191,1,127.679994739746,10|0,0:2|0:0,0:0:0:0:
451,348,109593,1,2,0:2:0:0:
241,276,109751,1,8,0:1:0:0:
430,122,109909,2,0,P|451:189|430:252,1,127.679994739746,2|8,0:2|0:1,0:0:0:0:
201,75,110225,2,0,B|153:58|177:-35|308:-35|291:112,1,255.359989479493,2|10,3:2|0:0,0:0:0:0:
228,304,110699,2,0,L|161:293,1,63.8399973698732,0|0,3:0|0:0,0:0:0:0:
39,123,110857,2,0,L|105:112,1,63.8399973698732,2|0,3:2|0:0,0:0:0:0:
371,28,111014,1,2,0:2:0:0:
371,28,111172,6,0,P|360:155|332:306,1,255.359989479493,2|2,3:2|0:3,0:0:0:0:
464,151,111646,1,0,0:0:0:0:
208,177,111804,2,0,L|228:308,1,127.679994739746,8|0,0:0|0:0,0:0:0:0:
492,281,112120,2,0,P|428:233|358:251,1,127.679994739746,2|8,0:2|0:1,0:0:0:0:
217,378,112436,2,0,P|137:366|101:304,1,127.679994739746,2|8,0:2|0:1,0:0:0:0:
12,105,112751,2,0,B|84:67|154:123|108:147|179:202|249:159,1,255.359989479493,2|10,3:2|0:2,0:0:0:0:
488,4,113225,2,0,P|418:50|448:215,1,255.359989479493,0|2,3:0|0:2,0:0:0:0:
304,381,113699,6,0,P|318:312|327:234,1,127.679994739746,2|2,3:2|0:2,0:0:0:0:
495,381,114014,1,2,0:3:0:0:
240,261,114172,1,2,0:2:0:0:
482,113,114330,2,0,P|496:181|505:259,1,127.679994739746,10|2,0:2|0:2,0:0:0:0:
283,116,114646,1,2,0:2:0:0:
508,7,114804,1,10,0:1:0:0:
390,264,114962,2,0,P|321:244|242:240,1,127.679994739746,2|10,0:2|0:1,0:0:0:0:
21,356,115278,2,0,B|29:257|29:257|62:199|62:199|72:88,1,255.359989479493,2|10,3:2|0:2,0:0:0:0:
300,34,115751,2,0,L|310:103,1,63.8399973698732,2|0,3:2|0:0,0:0:0:0:
134,299,115909,2,0,L|144:229,1,63.8399973698732,2|0,3:2|0:0,0:0:0:0:
393,56,116067,1,2,0:2:0:0:
393,56,116225,6,0,P|392:123|224:135,1,255.359989479493,2|2,3:2|0:3,0:0:0:0:
46,19,116699,1,2,0:2:0:0:
18,257,116857,2,0,P|79:226|154:241,1,127.679994739746,10|0,0:2|0:0,0:0:0:0:
341,359,117172,2,0,P|283:321|259:249,1,127.679994739746,2|8,0:2|0:1,0:0:0:0:
267,33,117488,2,0,P|263:101|212:158,1,127.679994739746,2|8,0:2|0:1,0:0:0:0:
23,289,117804,2,0,P|149:262|298:245,1,255.359989479493,2|10,3:2|0:0,0:0:0:0:
497,62,118278,2,0,P|370:35|221:18,1,255.359989479493,0|2,3:0|0:2,0:0:0:0:
404,278,118751,6,0,P|453:234|438:152,1,127.679994739746,2|2,3:2|0:2,0:0:0:0:
245,20,119067,1,2,0:3:0:0:
304,238,119225,1,2,0:0:0:0:
497,62,119383,2,0,P|429:63|363:83,1,127.679994739746,10|0,0:0|0:0,0:0:0:0:
378,384,119699,2,0,P|410:324|426:257,1,127.679994739746,2|8,0:0|0:1,0:0:0:0:
141,106,120014,2,0,P|176:164|225:210,1,127.679994739746,2|8,0:0|0:1,0:0:0:0:
502,30,120330,2,0,B|402:39|402:39|353:82|353:82|236:92,1,255.359989479493,2|10,3:2|0:0,0:0:0:0:
98,283,120804,2,0,L|108:214,1,63.8399973698732,0|0,3:0|0:0,0:0:0:0:
364,99,120962,2,0,L|374:167,1,63.8399973698732,2|0,3:2|0:0,0:0:0:0:
468,363,121120,1,0,0:0:0:0:
468,363,121278,6,0,B|428:323|428:263|469:219|469:219|515:153|471:79|378:73|326:124|335:183|335:183|283:113|167:145|150:255|217:317|285:306|285:306|330:298|373:309|398:365,1,921.599971875001,2|0,0:0|0:0,0:0:0:0:
