osu file format v14

[General]
AudioFilename: audio.mp3
AudioLeadIn: 0
PreviewTime: 99488
Countdown: 0
SampleSet: Soft
StackLeniency: 0.4
Mode: 0
LetterboxInBreaks: 0
WidescreenStoryboard: 0

[Editor]
DistanceSpacing: 1.1
BeatDivisor: 4
GridSize: 32
TimelineZoom: 2.799999

[Metadata]
Title:stay with me
TitleUnicode:stay with me
Artist:1nonly
ArtistUnicode:1nonly
Creator:Alumetri
Version:Collab Normal
Source:
Tags:NateGoyard 真夜中のドア Miki Matsubara 松原 みき hip hop rap Maaadbot Hantrik daycore gordon123 schoolboy komore english japanese
BeatmapID:2693254
BeatmapSetID:1282912

[Difficulty]
HPDrainRate:3
CircleSize:3
OverallDifficulty:4
ApproachRate:5
SliderMultiplier:1
SliderTickRate:1

[Events]
//Background and Video events
0,0,"daseas34aw.jpg",0,0
//Break Periods
2,81057,99867
//Storyboard Layer 0 (Background)
//Storyboard Layer 1 (Fail)
//Storyboard Layer 2 (Pass)
//Storyboard Layer 3 (Foreground)
//Storyboard Layer 4 (Overlay)
//Storyboard Sound Samples

[TimingPoints]
15,631.578947368421,4,2,1,20,1,0
15,-50,4,2,1,20,0,0
18962,-50,4,2,1,100,0,0
19909,-50,4,2,1,50,0,0
20067,-50,4,2,1,50,0,0
20225,-50,4,2,1,85,0,1
40436,-50,4,2,1,70,0,0
60646,-50,4,2,1,85,0,1
80857,-50,4,2,1,60,0,0
101067,-50,4,2,1,85,0,1
121278,-50,4,2,1,40,0,0
121357,-50,4,2,1,5,0,0
131383,-50,4,2,1,10,0,0
135172,-50,4,2,1,40,0,0
137699,-50,4,2,1,40,0,0
138962,-50,4,2,1,40,0,0

[Colours]
Combo1 : 216,216,235
Combo2 : 187,255,255
Combo3 : 255,255,204
Combo4 : 255,182,147

[HitObjects]
147,24,20225,6,0,P|103:32|89:96,1,100,6|2,3:2|0:3,0:0:0:0:
158,160,20857,2,0,L|159:273,1,100,10|2,0:0|0:2,0:0:0:0:
120,298,21330,1,10,0:1:0:0:
215,352,21646,1,10,0:1:0:0:
215,352,21804,2,0,P|267:333|311:357,1,100,2|10,3:2|0:2,0:0:0:0:
355,328,22278,2,0,P|400:345|445:326,1,100,0|2,3:0|0:2,0:0:0:0:
461,274,22751,5,2,3:2:0:0:
382,196,23067,1,2,0:3:0:0:
470,130,23383,2,0,P|430:96|373:87,1,100,10|2,0:2|0:2,0:0:0:0:
330,99,23857,1,8,0:1:0:0:
382,196,24172,1,8,0:1:0:0:
382,196,24330,2,0,P|322:210|275:196,1,100,2|10,3:2|0:2,0:0:0:0:
246,162,24804,1,0,3:0:0:0:
246,162,24962,1,2,3:2:0:0:
136,172,25278,6,0,P|140:124|184:67,1,100,2|2,3:2|0:3,0:0:0:0:
272,49,25909,2,0,L|385:64,1,100,10|2,0:2|0:2,0:0:0:0:
419,34,26383,1,8,0:1:0:0:
473,135,26699,1,8,0:1:0:0:
473,135,26857,2,0,P|455:176|451:248,1,100,2|10,3:2|0:2,0:0:0:0:
425,280,27330,2,0,P|450:317|444:380,1,100,0|0,3:0|0:0,0:0:0:0:
394,382,27804,5,2,3:2:0:0:
308,313,28120,1,2,0:3:0:0:
199,329,28436,2,0,B|148:340|148:340|112:304,1,100,10|2,0:2|0:2,0:0:0:0:
59,309,28909,2,0,P|66:275|66:199,1,100,8|8,0:1|0:1,0:0:0:0:
35,164,29383,2,0,P|24:127|63:72,1,100,2|10,3:2|0:0,0:0:0:0:
96,42,29857,1,0,3:0:0:0:
96,42,30015,1,2,3:2:0:0:
204,59,30330,6,0,P|190:94|181:161,1,100,2|2,3:2|0:3,0:0:0:0:
246,243,30962,2,0,P|283:237|345:211,1,100,8|2,0:0|0:2,0:0:0:0:
373,168,31436,1,8,0:1:0:0:
434,258,31751,1,8,0:1:0:0:
434,258,31909,2,0,P|469:216|481:164,1,100,2|10,3:2|0:2,0:0:0:0:
505,123,32383,2,0,B|467:111|478:71|418:63,1,100,0|2,3:0|0:2,0:0:0:0:
393,20,32857,6,0,P|367:54|304:54,1,100,2|2,3:2|0:3,0:0:0:0:
206,85,33488,2,0,B|248:113|248:113|252:171,1,100,10|2,0:2|0:2,0:0:0:0:
282,208,33962,2,0,P|334:211|355:189,2,50,10|2|10,0:1|0:2|0:1,0:0:0:0:
243,247,34436,2,0,P|201:259|136:236,1,100,2|10,3:2|0:2,0:0:0:0:
122,203,34909,1,2,3:2:0:0:
122,203,35067,1,2,3:2:0:0:
21,246,35383,6,0,P|13:186|36:135,1,100,2|2,3:2|0:3,0:0:0:0:
18,99,35857,1,2,0:2:0:0:
18,99,36015,2,0,B|66:106|66:106|107:72,1,100,10|2,0:2|0:2,0:0:0:0:
145,34,36488,1,8,0:1:0:0:
239,100,36804,1,8,0:1:0:0:
239,100,36962,2,0,L|341:78,1,100,2|10,3:2|0:0,0:0:0:0:
390,90,37436,2,0,B|369:137|369:137|403:188,1,100,0|2,3:0|0:2,0:0:0:0:
359,218,37909,6,0,P|309:210|265:250,1,100,2|2,3:2|0:3,0:0:0:0:
199,321,38541,2,0,L|88:303,1,100,10|2,0:0|0:0,0:0:0:0:
46,291,39015,2,0,L|36:355,2,50,8|2|8,0:1|0:0|0:1,0:0:0:0:
55,236,39488,2,0,P|92:180|127:185,1,100,2|10,3:2|0:0,0:0:0:0:
172,208,39962,1,0,3:0:0:0:
172,208,40120,1,2,3:2:0:0:
259,250,40436,6,0,P|297:230|398:330,1,200,6|10,3:2|0:0,0:0:0:0:
239,359,41541,1,10,0:1:0:0:
259,250,41857,1,10,0:1:0:0:
259,250,42015,2,0,P|237:204|253:150,1,100,2|10,3:2|0:2,0:0:0:0:
301,148,42488,2,0,L|405:160,1,100,0|2,3:0|0:2,0:0:0:0:
439,119,42962,5,2,3:2:0:0:
231,47,43593,2,0,P|206:99|149:117,1,100,10|2,0:2|0:2,0:0:0:0:
116,102,44067,1,8,0:1:0:0:
166,199,44383,1,8,0:1:0:0:
166,199,44541,2,0,P|137:233|143:291,1,100,2|10,3:2|0:2,0:0:0:0:
187,324,45015,1,0,3:0:0:0:
187,324,45172,1,2,3:2:0:0:
288,280,45488,6,0,P|345:309|382:364,1,100,2|2,3:2|0:3,0:0:0:0:
458,272,46120,1,10,0:2:0:0:
425,168,46436,1,2,0:2:0:0:
425,168,46593,2,0,P|428:133|410:62,1,100,8|8,0:1|0:1,0:0:0:0:
447,26,47067,1,2,3:2:0:0:
337,15,47383,1,10,0:2:0:0:
337,15,47541,2,0,P|305:69|308:134,1,100,0|0,3:0|0:0,0:0:0:0:
266,148,48015,6,0,P|296:202|354:232,1,100,2|2,3:2|0:3,0:0:0:0:
424,173,48646,1,10,0:2:0:0:
492,267,48962,1,2,0:2:0:0:
492,267,49120,2,0,P|475:323|420:342,1,100,8|8,0:1|0:1,0:0:0:0:
397,375,49593,2,0,L|287:354,1,100,2|10,3:2|0:0,0:0:0:0:
248,368,50067,1,0,3:0:0:0:
248,368,50225,1,2,3:2:0:0:
219,261,50541,6,0,B|162:272|144:323|144:323|120:272|53:266,1,200,2|8,3:2|0:0,0:0:0:0:
159,131,51646,1,8,0:1:0:0:
46,113,51962,1,8,0:1:0:0:
46,113,52120,2,0,P|24:67|40:13,1,100,2|10,3:2|0:2,0:0:0:0:
87,6,52593,2,0,B|130:32|130:32|191:18,1,100,0|2,3:0|0:2,0:0:0:0:
231,6,53067,5,2,3:2:0:0:
335,199,53699,2,0,P|360:251|417:269,1,100,10|2,0:2|0:2,0:0:0:0:
445,242,54172,1,10,0:1:0:0:
490,141,54488,1,10,0:1:0:0:
490,141,54646,2,0,L|464:31,1,100,2|10,3:2|0:2,0:0:0:0:
414,27,55120,1,2,3:2:0:0:
414,27,55278,1,2,3:2:0:0:
318,81,55593,6,0,P|263:26|204:8,1,100,2|2,3:2|0:3,0:0:0:0:
158,87,56225,1,10,0:2:0:0:
200,194,56541,1,2,0:2:0:0:
200,194,56699,2,0,P|216:246|213:311,1,100,8|8,0:1|0:1,0:0:0:0:
184,335,57172,1,2,3:2:0:0:
76,356,57488,1,10,0:0:0:0:
76,356,57646,2,0,P|58:277|66:234,1,100,0|2,3:0|0:2,0:0:0:0:
89,212,58120,6,0,P|74:161|20:122,1,100,2|2,3:2|0:3,0:0:0:0:
19,21,58751,1,10,0:0:0:0:
131,43,59067,1,2,0:0:0:0:
131,43,59225,2,0,P|195:26|248:41,1,100,8|8,0:1|0:1,0:0:0:0:
260,75,59699,2,0,L|370:54,1,100,2|10,3:2|0:0,0:0:0:0:
396,17,60172,1,0,3:0:0:0:
396,17,60330,1,2,3:2:0:0:
477,90,60646,6,0,P|459:146|457:213,1,100,6|2,3:2|0:3,0:0:0:0:
432,239,61120,1,0,0:0:0:0:
432,239,61278,1,10,0:2:0:0:
468,342,61593,1,2,0:2:0:0:
362,311,61909,2,0,L|242:315,1,100,2|2,0:2|3:2,0:0:0:0:
206,317,62383,2,0,L|213:374,2,50,2|10|2,0:2|0:2|3:2,0:0:0:0:
256,220,63015,1,2,0:2:0:0:
256,220,63172,6,0,B|250:166|250:166|271:102,1,100,2|2,3:2|0:3,0:0:0:0:
290,73,63646,1,2,0:2:0:0:
290,73,63804,2,0,P|217:88|171:89,1,100,10|2,0:2|0:2,0:0:0:0:
85,57,64436,2,0,L|98:179,1,100,2|2,0:2|3:2,0:0:0:0:
72,208,64909,1,2,0:2:0:0:
72,208,65067,2,0,P|40:203|0:202,2,50,10|2|2,0:2|3:2|3:2,0:0:0:0:
119,307,65699,6,0,P|161:293|229:296,1,100,2|2,3:2|0:3,0:0:0:0:
322,322,66330,2,0,P|365:332|432:324,1,100,10|2,0:2|0:2,0:0:0:0:
470,304,66804,1,10,0:1:0:0:
470,304,66962,1,2,0:2:0:0:
422,204,67278,1,2,3:2:0:0:
444,96,67593,2,0,L|495:64,2,50,10|2|2,0:2|3:2|0:2,0:0:0:0:
337,126,68225,6,0,B|288:142|290:104|211:123,1,100,2|2,3:2|0:3,0:0:0:0:
156,191,68857,2,0,B|118:212|118:212|54:207,1,100,10|2,0:2|0:2,0:0:0:0:
6,202,69330,1,10,0:1:0:0:
6,202,69488,1,2,0:2:0:0:
34,95,69804,2,0,B|72:74|72:74|136:79,1,100,2|10,3:2|0:2,0:0:0:0:
183,83,70278,2,0,L|242:89,1,50,0|2,3:2|3:2,0:0:0:0:
338,56,70751,6,0,B|352:114|312:103|331:173,1,100,2|2,3:2|0:3,0:0:0:0:
365,256,71383,2,0,L|348:322,2,50,10|2|2,0:0|0:0|0:0,0:0:0:0:
419,247,71857,1,10,0:1:0:0:
419,247,72014,2,0,B|459:221|459:221|477:133,1,100,2|2,0:0|3:2,0:0:0:0:
491,61,72646,2,0,L|502:2,2,50,10|2|2,0:2|3:2|0:0,0:0:0:0:
389,103,73278,6,0,P|333:115|282:108,1,100,2|2,3:2|0:3,0:0:0:0:
243,95,73751,1,2,0:0:0:0:
243,95,73909,2,0,P|187:83|136:90,1,100,10|2,0:0|0:0,0:0:0:0:
89,89,74383,2,0,L|99:226,1,100,10|10,0:1|0:1,0:0:0:0:
104,243,74857,1,0,3:0:0:0:
59,343,75172,2,0,L|6:348,2,50,10|2|2,0:0|3:2|3:2,0:0:0:0:
168,332,75804,6,0,B|209:341|209:341|289:321,1,100,2|2,3:2|0:3,0:0:0:0:
291,220,76436,2,0,B|255:196|255:196|198:189,1,100,10|2,0:0|0:0,0:0:0:0:
147,195,76909,1,10,0:1:0:0:
147,195,77067,2,0,P|119:221|94:234,2,50,2|10|2,0:0|0:1|3:0,0:0:0:0:
198,97,77699,1,10,0:0:0:0:
294,44,78014,1,2,0:0:0:0:
401,64,78330,6,0,B|409:109|370:119|386:176,1,100,2|2,3:2|0:3,0:0:0:0:
458,241,78962,2,0,P|409:267|345:262,1,100,10|0,0:0|0:0,0:0:0:0:
312,252,79436,1,10,0:1:0:0:
312,252,79593,2,0,P|262:244|215:260,1,100,2|2,0:0|3:2,0:0:0:0:
117,309,80225,2,0,L|60:329,2,50,10|2|2,0:0|3:2|3:2,0:0:0:0:
130,199,80857,5,2,0:2:0:0:
298,254,101067,6,0,P|284:190|316:124,1,100,6|2,3:2|0:3,0:0:0:0:
296,47,101699,2,0,B|344:63|344:63|399:43,1,100,10|2,0:0|0:2,0:0:0:0:
440,23,102172,1,10,0:1:0:0:
492,119,102488,1,10,0:1:0:0:
492,119,102646,2,0,P|463:172|458:226,1,100,2|10,3:2|0:2,0:0:0:0:
445,264,103120,2,0,P|400:283|354:266,1,100,0|2,3:0|0:2,0:0:0:0:
317,225,103593,5,2,3:2:0:0:
218,175,103909,1,2,0:3:0:0:
150,261,104225,2,0,P|100:253|61:193,1,100,10|2,0:2|0:2,0:0:0:0:
87,165,104699,1,8,0:1:0:0:
31,70,105014,1,8,0:1:0:0:
31,70,105172,2,0,B|52:63|81:72|81:72|94:47|145:22,1,100,2|10,3:2|0:2,0:0:0:0:
168,69,105646,1,0,3:0:0:0:
168,69,105804,1,2,3:2:0:0:
224,163,106120,6,0,P|207:230|224:282,1,100,2|2,3:2|0:3,0:0:0:0:
297,329,106751,2,0,L|410:344,1,100,10|2,0:2|0:2,0:0:0:0:
438,306,107225,1,8,0:1:0:0:
408,205,107541,1,8,0:1:0:0:
408,205,107699,2,0,P|427:159|431:109,1,100,2|10,3:2|0:2,0:0:0:0:
401,63,108172,2,0,B|349:69|361:28|293:36,1,100,0|0,3:0|0:0,0:0:0:0:
265,70,108646,5,2,3:2:0:0:
165,117,108962,1,2,0:3:0:0:
155,226,109278,2,0,B|188:259|188:259|239:248,1,100,10|2,0:2|0:2,0:0:0:0:
292,232,109751,2,0,P|310:294|302:345,1,100,8|8,0:1|0:1,0:0:0:0:
259,357,110225,2,0,L|131:340,1,100,2|10,3:2|0:0,0:0:0:0:
114,372,110699,1,0,3:0:0:0:
114,372,110857,1,2,3:2:0:0:
43,287,111172,6,0,P|48:237|66:190,1,100,2|2,3:2|0:3,0:0:0:0:
14,92,111804,2,0,P|51:86|113:60,1,100,8|2,0:0|0:2,0:0:0:0:
158,38,112278,1,8,0:1:0:0:
254,101,112593,1,8,0:1:0:0:
254,101,112751,2,0,P|289:143|301:195,1,100,2|10,3:2|0:2,0:0:0:0:
344,220,113225,2,0,P|362:168|401:132,1,100,0|2,3:0|0:2,0:0:0:0:
447,121,113699,6,0,L|448:230,1,100,2|2,3:2|0:3,0:0:0:0:
453,330,114330,2,0,B|411:356|411:356|337:334,1,100,10|2,0:2|0:2,0:0:0:0:
311,319,114804,2,0,P|303:343|309:375,2,50,10|2|10,0:1|0:2|0:1,0:0:0:0:
330,267,115278,2,0,L|323:162,1,100,2|10,3:2|0:2,0:0:0:0:
294,126,115751,1,2,3:2:0:0:
294,126,115909,1,2,3:2:0:0:
195,174,116225,6,0,P|187:114|210:63,1,100,2|2,3:2|0:3,0:0:0:0:
232,35,116699,1,2,0:2:0:0:
232,35,116857,2,0,B|184:42|184:42|143:8,1,100,10|2,0:2|0:2,0:0:0:0:
96,35,117330,1,8,0:1:0:0:
26,122,117646,1,8,0:1:0:0:
26,122,117804,2,0,L|48:224,1,100,2|10,3:2|0:0,0:0:0:0:
71,269,118278,2,0,B|83:292|78:317|78:317|110:324|130:351,1,100,0|2,3:0|0:2,0:0:0:0:
176,337,118751,6,0,L|300:327,1,100,2|2,3:2|0:3,0:0:0:0:
344,242,119383,2,0,L|443:250,1,100,10|2,0:0|0:0,0:0:0:0:
498,260,119857,2,0,L|507:316,2,50,8|2|8,0:1|0:0|0:1,0:0:0:0:
507,205,120330,2,0,P|487:138|447:117,1,100,2|10,3:2|0:0,0:0:0:0:
414,136,120804,1,0,3:0:0:0:
414,136,120962,1,2,3:2:0:0:
256,192,121278,12,0,131383,0:0:0:0:
