osu file format v14

[General]
AudioFilename: audio.mp3
AudioLeadIn: 0
PreviewTime: -1
Countdown: 0
SampleSet: Soft
StackLeniency: 0.7
Mode: 0
LetterboxInBreaks: 0
WidescreenStoryboard: 0

[Editor]
DistanceSpacing: 1.1
BeatDivisor: 4
GridSize: 4
TimelineZoom: 1.5

[Metadata]
Title:PSMD - Dark Matter Suite Remix
TitleUnicode:PSMD - Dark Matter Suite Remix
Artist:1f1n1ty + LOrbSheddy
ArtistUnicode:1f1n1ty + LOrbSheddy
Creator:Basherman
Version:
Source:
Tags:
BeatmapID:1558647
BeatmapSetID:738565

[Difficulty]
HPDrainRate:6
CircleSize:3.6
OverallDifficulty:8
ApproachRate:9.4
SliderMultiplier:1.6
SliderTickRate:1

[Events]
//Background and Video events
//Break Periods
//Storyboard Layer 0 (Background)
//Storyboard Layer 1 (Fail)
//Storyboard Layer 2 (Pass)
//Storyboard Layer 3 (Foreground)
//Storyboard Sound Samples

[TimingPoints]
3627,1065.4354967593,4,1,0,100,1,0
17042,555.555555555556,2,1,0,5,1,0
54819,348.837209302326,4,1,0,5,1,0
130167,375,4,1,0,5,1,0
130917,400,4,1,0,5,1,0
131717,428.571428571429,4,1,0,5,1,0
132145,454.545454545455,4,1,0,5,1,0
132599,483.870967741935,4,1,0,5,1,0
133082,517.241379310345,4,1,0,5,1,0
133599,555.555555555556,4,1,0,5,1,0
169154,594.059405940594,3,1,0,5,1,0
170936,612.244897959184,3,1,0,5,1,0
172772,631.578947368421,3,1,0,5,1,0
174013,638.297872340426,3,1,0,5,1,0
174651,697.674418604651,3,1,0,5,1,0
176744,750,3,1,0,5,1,0
178244,779.220779220779,3,1,0,5,1,0
179023,800,3,1,0,5,1,0
181423,833.333333333333,3,1,0,5,1,0
183923,895.522388059701,3,1,0,5,1,0
184818,923.076923076923,3,1,0,5,1,0
185741,952.380952380952,3,1,0,5,1,0
186693,596.421471172962,4,1,0,5,1,0
187183,555.555555555556,4,1,0,55,1,0
219405,-100,4,1,0,5,0,0
219926,-100,4,1,0,55,0,0
221720,-100,4,1,0,5,0,0
221812,-80,4,1,0,55,0,0
221905,-80,4,1,0,5,0,0
221997,-66.6666666666667,4,1,0,55,0,0
222090,-66.6666666666667,4,1,0,5,0,0
222183,-50,4,1,0,55,0,0
222275,-50,4,1,0,5,0,0
222738,-100,4,1,0,55,0,0
228294,-100,4,1,0,5,0,0
228814,-100,4,1,0,55,0,0
230608,-100,4,1,0,5,0,0
230701,-80,4,1,0,55,0,0
230794,-80,4,1,0,5,0,0
230886,-66.6666666666667,4,1,0,55,0,0
230979,-66.6666666666667,4,1,0,5,0,0
231071,-50,4,1,0,55,0,0
231164,-50,4,1,0,5,0,0
231349,-66.6666666666667,4,1,0,55,0,0
232738,-57.1428571428571,4,1,0,55,0,0
234405,-50,4,1,0,55,0,0
236071,-80,4,1,0,55,0,0
237183,-100,4,1,0,5,0,0
237703,-100,4,1,0,55,0,0
239405,-66.6666666666667,4,1,0,55,0,0
239497,-66.6666666666667,4,1,0,5,0,0
239590,-57.1428571428571,4,1,0,55,0,0
239683,-57.1428571428571,4,1,0,5,0,0
239775,-50,4,1,0,55,0,0
239868,-50,4,1,0,5,0,0
239960,-40,4,1,0,55,0,0
240099,-40,4,1,0,5,0,0
240238,-57.1428571428571,4,1,0,55,0,0
240516,-66.6666666666667,4,1,0,55,0,0
240933,-50,4,1,0,55,0,0
241627,-57.1428571428571,4,1,0,55,0,0
244405,-66.6666666666667,4,1,0,55,0,0
244960,-80,4,1,0,55,0,0
246071,-100,4,1,0,5,0,0
246592,-100,4,1,0,55,0,0
246905,-80,4,1,0,55,0,0
248294,-80,4,1,0,55,0,0
248386,-80,4,1,0,5,0,0
248479,-66.6666666666667,4,1,0,55,0,0
248571,-66.6666666666667,4,1,0,15,0,0
248664,-57.1428571428571,4,1,0,55,0,0
248757,-57.1428571428571,4,1,0,5,0,0
248849,-45,4,1,0,55,0,0
248988,-45,4,1,0,5,0,0
249266,-57.1428571428571,4,1,0,55,0,0
250516,-66.6666666666667,4,1,0,55,0,0
253849,-100,4,1,0,55,0,0
254960,-100,4,1,0,5,0,0
255481,-100,4,1,0,55,0,0
259497,-100,4,1,0,5,0,0
259590,-80,4,1,0,55,0,0
259683,-80,4,1,0,5,0,0
259775,-66.6666666666667,4,1,0,55,0,0
259868,-66.6666666666667,4,1,0,5,0,0
259960,-50,4,1,0,55,0,0
260099,-50,4,1,0,5,0,0
260238,-100,4,1,0,55,0,0
262738,-80,4,1,0,55,0,0
262751,540.540540540541,4,1,0,55,1,0
263156,-80,4,1,0,55,0,0
263832,514.54004407893,4,1,0,55,1,0
264861,489.604073505892,4,1,0,55,1,0
264861,-66.6666666666667,4,1,0,55,0,0
266819,457.446078543492,4,1,0,55,1,0
266819,-50,4,1,0,55,0,0
270478,442.543147956926,4,1,0,55,1,0
272248,556.544968833482,4,1,0,55,1,0
273707,374.200147185391,4,1,0,55,1,0
273707,-66.6666666666667,4,2,0,55,0,0
279694,-100,4,2,0,55,0,0
285707,412.167175006183,4,1,0,55,1,0
291577,349.999125002188,4,1,0,55,1,0
292191,356.741522929561,4,1,0,100,1,0
311455,394.000682934517,4,1,0,100,1,0
312255,827.597622036166,4,1,0,100,1,0
325496,824.594917746657,4,1,0,100,1,0
338689,833.101916134407,4,1,0,100,1,0
345353,851.800848961513,4,1,0,100,1,0
352178,900.900900900901,4,1,0,100,1,0
355781,965.204382027894,4,1,0,100,1,0
359641,1010.42420976407,4,1,0,100,1,0
361661,1065.4354967593,4,1,0,100,1,0
362726,1133.42274779455,4,1,0,100,1,0
363859,1046.13453290093,4,1,0,100,1,0
364905,1141.13999885886,4,1,0,100,1,0
366046,1120.13999885886,4,1,0,100,1,0
367166,1178.43999885886,4,1,0,100,1,0
371879,1174.33999885886,4,1,0,100,1,0
376576,1332.33999885886,4,1,0,100,1,0

[HitObjects]
124,60,217739,5,0,0:0:0:0:
112,161,217878,1,0,0:0:0:0:
210,117,218017,1,0,0:0:0:0:
328,80,218295,6,0,P|308:124|336:204,1,120
424,188,218989,2,0,P|428:220|420:244,1,40
328,288,219406,2,0,L|320:300,16,10,0|0|0|0|0|0|0|0|0|0|0|0|0|0|0|0|2,0:0|0:0|0:0|0:0|0:0|0:0|0:0|0:0|0:0|0:0|0:0|0:0|0:0|0:0|0:0|0:0|0:0,0:0:0:0:
176,300,220239,6,0,P|180:280|176:252,1,40
96,248,220517,2,0,P|88:184|108:128,1,120
192,144,221211,2,0,P|196:120|192:96,1,40
264,192,221628,6,0,L|268:152,1,40,0|0,2:0|2:0,2:0:0:0:
348,104,221812,2,0,L|348:160,1,50
412,232,221997,2,0,L|420:173,1,60.0000022888185
488,84,222183,2,0,P|500:136|504:188,1,106.666666666667,2|0,0:0|0:0,0:0:0:0:
440,296,222739,6,0,P|380:276|324:276,1,120
260,340,223433,2,0,P|240:340|220:332,1,40
107,320,223850,6,0,P|133:259|129:207,1,120
116,196,224406,1,0,0:0:0:0:
108,48,224961,6,0,P|156:56|208:52,1,80
220,37,225378,2,0,P|198:125|211:192,1,160
232,204,226072,5,0,0:0:0:0:
417,253,226211,1,0,0:0:0:0:
349,136,226350,1,0,0:0:0:0:
299,321,226489,1,0,0:0:0:0:
228,96,226627,6,0,L|160:88,1,40
84,72,226905,5,0,0:0:0:0:
104,104,226997,1,0,0:0:0:0:
112,140,227090,1,0,0:0:0:0:
108,180,227183,6,0,P|92:220|96:264,1,80
168,304,227600,2,0,P|184:270|184:229,1,80
176,216,228017,1,0,0:0:0:0:
264,160,228295,2,0,L|276:152,16,10,0|0|0|0|0|0|0|0|0|0|0|0|0|0|0|0|2,0:0|0:0|0:0|0:0|0:0|0:0|0:0|0:0|0:0|0:0|0:0|0:0|0:0|0:0|0:0|0:0|0:0,0:0:0:0:
368,84,229128,5,0,0:0:0:0:
368,84,229267,1,0,0:0:0:0:
368,84,229406,2,0,P|384:120|384:172,1,80
476,192,229822,2,0,P|456:228|424:256,1,80
336,236,230239,1,0,0:0:0:0:
248,188,230517,6,0,L|244:228,1,40
164,276,230701,2,0,L|164:220,1,50
100,148,230886,2,0,L|91:206,1,60.0000022888185
24,296,231072,2,0,P|11:243|7:191,1,106.666666666667,2|0,0:0|0:0,0:0:0:0:
28,60,231350,6,0,P|60:76|120:68,1,60.0000022888184
100,72,231628,1,0,0:0:0:0:
253,64,231906,1,0,0:0:0:0:
288,56,232045,1,0,0:0:0:0:
155,152,232322,1,0,0:0:0:0:
116,143,232461,1,0,0:0:0:0:
280,160,232739,6,0,P|284:221|253:292,1,140.000001335144
232,304,233156,1,0,0:0:0:0:
452,268,233433,1,0,0:0:0:0:
372,188,233572,1,0,0:0:0:0:
352,48,233850,6,0,B|297:60|268:40|268:40|239:60|239:60|202:34|156:56,1,210.000002002716
144,63,234406,2,0,P|55:55|118:131,1,240
124,124,234961,1,0,0:0:0:0:
128,116,235100,1,0,0:0:0:0:
320,112,235377,5,0,0:0:0:0:
320,112,235446,1,0,0:0:0:0:
320,112,235517,2,0,P|340:148|336:196,1,80
440,176,235795,2,0,P|432:216|392:260,1,80
312,320,236071,6,0,P|232:336|184:304,1,100
200,320,236488,1,0,0:0:0:0:
224,232,236766,2,0,P|192:224|152:232,1,50
96,272,237183,2,0,L|87:283,16,10,0|0|0|0|0|0|0|0|0|0|0|0|0|0|0|0|2,0:0|0:0|0:0|0:0|0:0|0:0|0:0|0:0|0:0|0:0|0:0|0:0|0:0|0:0|0:0|0:0|0:0,0:0:0:0:
192,208,238016,5,0,0:0:0:0:
192,208,238155,1,0,0:0:0:0:
192,208,238294,2,0,P|200:160|160:120,1,80
168,120,238710,1,0,0:0:0:0:
352,80,238988,1,0,0:0:0:0:
328,176,239127,1,0,0:0:0:0:
336,312,239405,6,0,P|312:320|272:312,1,60.0000022888185
216,368,239590,2,0,P|195:352|176:312,1,70.000000667572
80,328,239775,2,0,P|80:302|112:256,1,80
56,192,239960,2,0,P|77:177|176:192,1,133.333333333333,2|0,0:0|0:0,0:0:0:0:
208,280,240238,6,0,P|256:296|304:280,1,70.000000667572
376,336,240516,2,0,P|392:288|368:216,1,120.000004577637
352,208,240933,2,0,P|312:128|336:56,1,160
352,48,241349,1,0,0:0:0:0:
216,88,241627,6,0,P|216:168|136:264,1,210.000002002716
104,264,242183,1,0,0:0:0:0:
88,152,242738,6,0,P|82:70|155:125,1,210.000002002716
160,136,243294,2,0,P|229:185|229:99,1,210.000002002716
216,96,243849,5,0,0:0:0:0:
162,299,243988,1,0,0:0:0:0:
288,224,244127,1,0,0:0:0:0:
87,169,244266,1,0,0:0:0:0:
392,112,244404,6,0,P|355:97|320:96,1,70.000000667572
120,88,244682,5,0,0:0:0:0:
98,123,244774,1,0,0:0:0:0:
89,162,244867,1,0,0:0:0:0:
88,200,244960,6,0,P|105:244|96:300,1,100
84,312,245377,1,0,0:0:0:0:
208,328,245655,2,0,P|200:306|206:274,1,50
280,248,246071,2,0,L|292:254,16,10,0|0|0|0|0|0|0|0|0|0|0|0|0|0|0|0|2,0:0|0:0|0:0|0:0|0:0|0:0|0:0|0:0|0:0|0:0|0:0|0:0|0:0|0:0|0:0|0:0|0:0,0:0:0:0:
192,192,246905,5,0,0:0:0:0:
192,192,247044,1,0,0:0:0:0:
192,192,247183,2,0,P|220:162|276:160,1,100
288,176,247599,1,0,0:0:0:0:
280,72,247877,2,0,P|312:80|328:80,1,50
424,80,248294,6,0,P|431:101|424:137,1,50
474,187,248479,2,0,P|459:205|423:222,1,60.0000022888185
438,310,248664,2,0,P|414:310|373:281,1,70.000000667572
316,331,248849,2,0,P|302:312|316:223,1,118.518518518519,2|0,0:0|0:0,0:0:0:0:
364,168,249266,5,0,0:0:0:0:
152,120,249405,2,0,P|108:164|124:248,1,140.000001335144
20,256,249821,2,0,P|37:314|112:348,1,140.000001335144,0|0,0:0|0:0,2:0:0:0:
284,336,250516,6,0,P|326:301|320:224,1,120.000004577637
264,124,250933,2,0,P|222:159|228:236,1,120.000004577637
240,232,251349,1,0,0:0:0:0:
448,240,251627,5,0,0:0:0:0:
405,305,251766,1,0,0:0:0:0:
335,340,251905,1,0,0:0:0:0:
256,336,252044,1,0,0:0:0:0:
48,272,252183,5,0,0:0:0:0:
105,212,252322,1,0,0:0:0:0:
184,189,252461,1,0,0:0:0:0:
265,206,252600,1,0,0:0:0:0:
384,352,252738,5,0,0:0:0:0:
457,283,252877,1,0,0:0:0:0:
485,187,253016,1,0,0:0:0:0:
464,89,253155,1,0,0:0:0:0:
464,89,253224,1,0,0:0:0:0:
464,89,253294,2,0,P|432:84|400:89,1,60.0000022888184
248,132,253571,2,0,P|280:140|312:132,1,60.0000022888184
368,48,253849,6,0,P|412:92|408:160,1,120
396,164,254405,1,0,0:0:0:0:
248,180,254683,1,0,0:0:0:0:
248,180,254821,1,0,0:0:0:0:
248,180,254960,2,0,L|240:192,16,10,0|0|0|0|0|0|0|0|0|0|0|0|0|0|0|0|2,0:0|0:0|0:0|0:0|0:0|0:0|0:0|0:0|0:0|0:0|0:0|0:0|0:0|0:0|0:0|0:0|0:0,0:0:0:0:
400,192,255794,5,0,0:0:0:0:
400,192,255933,1,0,0:0:0:0:
400,192,256071,2,0,P|396:252|344:280,2,120
384,160,256997,5,0,0:0:0:0:
360,128,257090,1,0,0:0:0:0:
325,104,257183,1,0,0:0:0:0:
277,95,257275,1,0,0:0:0:0:
235,105,257368,1,0,0:0:0:0:
203,134,257460,1,0,0:0:0:0:
187,171,257553,1,0,0:0:0:0:
165,201,257645,1,0,0:0:0:0:
131,217,257738,1,0,0:0:0:0:
93,218,257831,1,0,0:0:0:0:
57,206,257923,1,0,0:0:0:0:
37,182,258016,1,0,0:0:0:0:
29,154,258108,1,0,0:0:0:0:
29,131,258201,1,0,0:0:0:0:
40,108,258294,6,0,P|88:96|140:144,1,120
136,160,258849,1,0,0:0:0:0:
96,288,259127,1,0,0:0:0:0:
96,288,259266,1,0,0:0:0:0:
96,288,259405,6,0,P|120:296|144:296,1,40
320,288,259590,2,0,P|296:296|272:296,1,50
80,288,259775,2,0,P|108:297|152:288,1,60.0000022888185
336,288,259960,2,0,P|280:296|228:284,1,106.666666666667,2|0,0:0|0:0,0:0:0:0:
180,196,260238,5,0,0:0:0:0:
180,196,260377,1,0,0:0:0:0:
180,196,260516,2,0,P|224:176|292:188,2,120
172,220,261442,5,0,0:0:0:0:
165,256,261534,1,0,0:0:0:0:
171,293,261627,1,0,0:0:0:0:
190,326,261720,1,0,0:0:0:0:
223,349,261812,1,0,0:0:0:0:
258,353,261905,1,0,0:0:0:0:
290,347,261997,1,0,0:0:0:0:
317,319,262090,1,0,0:0:0:0:
330,293,262183,1,0,0:0:0:0:
331,260,262275,1,0,0:0:0:0:
322,238,262368,1,0,0:0:0:0:
306,210,262460,1,0,0:0:0:0:
299,186,262553,1,0,0:0:0:0:
299,165,262645,1,0,0:0:0:0:
308,144,262738,6,0,P|364:124|416:148,1,100
336,292,263156,2,0,P|290:253|285:196,1,100
452,200,263561,2,0,P|441:259|394:292,1,100
304,340,264089,5,0,0:0:0:0:
288,320,264175,1,0,0:0:0:0:
280,292,264260,1,0,0:0:0:0:
280,268,264346,1,0,0:0:0:0:
288,240,264432,1,0,0:0:0:0:
300,217,264518,1,0,0:0:0:0:
312,196,264603,1,0,0:0:0:0:
322,167,264689,1,0,0:0:0:0:
324,142,264775,1,0,0:0:0:0:
320,118,264861,6,0,P|260:96|200:112,1,120.000004577637
148,40,265228,2,0,P|108:90|105:152,1,120.000004577637
24,184,265595,2,0,P|59:237|117:259,1,120.000004577637
152,172,266085,5,0,0:0:0:0:
180,150,266166,1,0,0:0:0:0:
220,138,266248,1,0,0:0:0:0:
255,138,266329,1,0,0:0:0:0:
295,150,266411,1,0,0:0:0:0:
328,167,266493,1,0,0:0:0:0:
358,184,266574,1,0,0:0:0:0:
400,198,266656,1,0,0:0:0:0:
436,201,266737,1,0,0:0:0:0:
470,195,266819,6,0,P|487:137|441:45,1,160
404,132,267162,2,0,P|354:97|252:113,1,160
320,180,267505,2,0,P|272:216|255:318,1,160
360,276,268076,1,0,0:0:0:0:
276,59,268420,1,0,0:0:0:0:
131,240,268877,5,0,0:0:0:0:
256,192,270478,5,0,0:0:0:0:
352,192,270920,1,0,0:0:0:0:
256,288,271363,1,0,0:0:0:0:
160,192,271805,1,0,0:0:0:0:
256,96,272248,1,0,0:0:0:0:
339,240,272804,1,0,0:0:0:0:
172,239,273361,1,0,0:0:0:0:
228,108,273707,6,0,P|300:80|260:145,2,180.000006866455
160,184,274455,1,0,0:0:0:0:
212,296,274829,1,0,0:0:0:0:
336,344,275016,5,0,0:0:0:0:
336,344,275110,1,0,0:0:0:0:
336,344,275203,2,0,P|376:272|392:148,2,180.000006866455
260,292,275952,2,0,P|240:232|252:160,1,120.000004577637
320,248,276326,2,0,P|339:191|334:132,1,120.000004577637
320,116,276607,1,0,0:0:0:0:
296,104,276700,6,0,P|216:96|128:160,2,180.000006866455
404,180,277449,2,0,P|331:230|243:224,2,180.000006866455
284,36,278197,2,0,P|309:120|281:180,1,120.000004577637
108,52,278478,2,0,P|191:79|225:136,1,120.000004577637
48,224,278758,2,0,P|100:152|164:138,1,120.000004577637
155,235,279132,5,0,0:0:0:0:
343,257,279320,1,0,0:0:0:0:
268,83,279507,1,0,0:0:0:0:
268,83,279600,1,0,0:0:0:0:
268,83,279694,5,0,0:0:0:0:
52,196,280068,1,0,0:0:0:0:
56,236,280161,1,0,0:0:0:0:
76,268,280255,1,0,0:0:0:0:
108,288,280349,1,0,0:0:0:0:
148,288,280442,2,0,P|188:268|216:240,1,80
