osu file format v14

[General]
AudioFilename: 693041_Dark-Matter-Suite-1f1n1ty-.mp3
AudioLeadIn: 0
PreviewTime: -1
Countdown: 0
SampleSet: Soft
StackLeniency: 0.7
Mode: 0
LetterboxInBreaks: 1
WidescreenStoryboard: 1

[Editor]
DistanceSpacing: 0.5
BeatDivisor: 4
GridSize: 8
TimelineZoom: 2.5

[Metadata]
Title:Dark Matter Suite (Remix)
TitleUnicode:Dark Matter Suite (Remix)
Artist:1f1n1ty & LOrbSheddy
ArtistUnicode:1f1n1ty & LOrbSheddy
Creator:Shan3ng
Version:Lighting
Source:
Tags:dubstep dnb remix electronic
BeatmapID:1400914
BeatmapSetID:661764

[Difficulty]
HPDrainRate:5
CircleSize:4
OverallDifficulty:7
ApproachRate:9
SliderMultiplier:2
SliderTickRate:2

[Events]
//Background and Video events
0,0,"The Farewell.jpg",0,0
//Break Periods
//Storyboard Layer 0 (Background)
//Storyboard Layer 1 (Fail)
//Storyboard Layer 2 (Pass)
//Storyboard Layer 3 (Foreground)
//Storyboard Sound Samples

[TimingPoints]
8888,555.555555555556,4,2,0,25,1,0
8888,-133.333333333333,4,2,0,25,0,0
42499,-100,4,2,0,25,0,0
46665,-100,4,2,0,40,0,0
46666,697.674418604651,4,2,0,40,1,0
51549,352.941176470588,4,2,0,40,1,0
52254,697.674418604651,4,2,0,40,1,0
52951,-83.3333333333333,4,2,0,40,0,0
57137,697.674418604651,4,2,0,40,1,0
63412,350.877192982456,4,2,0,60,1,0
69026,347.820761245675,4,2,0,50,1,1
69026,-83.3333333333333,4,2,0,50,0,1
80156,821.917808219178,4,2,0,60,1,0
80875,347.826086956522,4,2,0,60,1,1
101048,821.917808219178,4,2,0,60,1,0
102178,347.826086956522,4,2,0,60,1,1
113656,444.444444444444,4,2,0,60,1,0
114357,347.826086956522,4,2,0,60,1,1
122009,375,4,2,0,60,1,0
122759,400,4,2,0,60,1,0
123559,480,4,2,0,60,1,0
125559,1200,4,2,0,60,1,0
143218,555.555555555556,4,2,1,60,1,0
160995,705.882352941176,4,2,1,60,1,0
178618,1063.82978723404,4,2,0,60,1,0
185000,571.428571428571,4,2,0,10,1,0
194071,571.428571428571,4,2,0,10,1,0
196356,555.555555555556,4,2,0,25,1,0
203495,510.63829787234,4,2,0,60,1,0
210134,552.995391705069,4,2,0,60,1,0
213451,206.896551724138,4,2,0,60,1,0
213655,230.769230769231,4,2,0,60,1,0
213788,260.869565217391,4,2,0,60,1,0
214032,618.556701030928,4,2,0,100,1,0
214650,552.995391705069,4,2,0,60,1,0
222391,206.896551724138,4,2,0,60,1,0
222597,230.769230769231,4,2,0,60,1,0
222693,260.869565217391,4,2,0,60,1,0
222958,618.556701030928,4,2,0,100,1,0
223551,552.995391705069,4,2,0,60,1,0
231292,206.896551724138,4,2,0,60,1,0
231498,230.769230769231,4,2,0,60,1,0
231594,260.869565217391,4,2,0,60,1,0
231850,618.556701030928,4,2,0,100,1,0
232422,552.995391705069,4,2,0,60,1,0
240168,206.896551724138,4,2,0,60,1,0
240378,230.769230769231,4,2,0,60,1,0
240475,260.869565217391,4,2,0,60,1,0
240747,618.556701030928,4,2,0,100,1,0
241314,550.45871559633,4,2,0,60,1,0
254544,400,4,2,0,60,1,0
256778,342.857142857143,4,2,0,60,1,0
258706,307.692307692308,4,2,0,60,1,0
260862,1578.94736842105,4,2,0,60,1,0
262354,444.444444444444,4,2,0,30,1,0
265555,342.857142857143,4,2,0,40,1,0
271555,375,4,2,0,60,1,1
277555,645.161290322581,4,2,0,60,1,0
283367,1111.11111111111,4,2,0,60,1,0
284057,356.294536817102,4,2,0,60,1,1
303997,788,4,2,0,60,1,0
317393,549.555555555556,4,2,0,40,1,0
355742,927.376923076923,4,2,0,30,1,0
363820,1111.11111111111,4,2,0,30,1,0
371597,4028,4,2,0,30,1,0

[Colours]
Combo1 : 255,128,64
Combo2 : 192,192,192
Combo3 : 128,128,192
Combo4 : 153,51,255
Combo5 : 231,41,184
Combo6 : 26,116,242
Combo7 : 255,40,40

[HitObjects]
48,240,8888,6,0,P|72:296|184:309,1,150.000005722046
152,320,9999,1,0,0:0:0:0:
336,304,11110,5,0,0:0:0:0:
448,80,11665,102,0,B|464:120|464:120|440:112|376:112|360:184,1,150.000005722046
371,154,12776,1,0,0:0:0:0:
200,256,13332,86,0,P|239:311|328:302,1,150.000005722046
96,112,14258,101,0,0:0:0:0:
96,112,14443,2,0,P|64:152|120:216,1,150.000005722046
200,88,15554,5,0,0:0:0:0:
352,104,16110,1,0,0:0:0:0:
424,240,16665,1,0,0:0:0:0:
296,320,17221,1,0,0:0:0:0:
296,320,17776,86,0,B|272:288|272:288|240:344|152:320,1,150.000005722046
40,216,18702,1,0,0:0:0:0:
40,216,18888,2,0,B|96:136|96:136|160:120,1,150.000005722046
360,104,19999,5,0,0:0:0:0:
176,72,20554,1,0,0:0:0:0:
240,208,21110,1,0,0:0:0:0:
144,312,21480,85,0,0:0:0:0:
144,312,21665,2,0,L|162:151,1,150.000005722046
408,176,22776,1,0,0:0:0:0:
208,56,23147,1,0,0:0:0:0:
208,56,23332,2,0,P|152:88|167:173,1,150.000005722046
224,128,24073,6,0,L|240:184,1,50.0000019073487
216,304,24443,2,0,L|208:232,5,50.0000019073487
256,88,25554,2,0,L|264:160,5,50.0000019073487
384,296,26665,86,0,B|424:328|390:219|390:219|344:160,1,150.000005722046
280,64,27776,2,0,B|304:112|224:144|224:144|240:184,1,150.000005722046
280,320,28702,1,0,0:0:0:0:
280,320,28888,1,0,0:0:0:0:
304,248,29443,5,0,0:0:0:0:
160,72,29999,1,0,0:0:0:0:
352,184,30554,1,0,0:0:0:0:
144,104,30925,85,0,0:0:0:0:
144,104,31110,2,0,B|176:136|176:136|112:192|168:224|200:200,1,150.000005722046
384,120,32036,5,0,0:0:0:0:
384,120,32221,2,0,B|400:184|400:184|352:264,1,150.000005722046
144,320,33332,85,0,0:0:0:0:
280,80,33909,1,0,0:0:0:0:
136,120,34443,1,0,0:0:0:0:
280,152,34999,1,0,0:0:0:0:
168,144,35369,5,0,0:0:0:0:
168,144,35554,2,0,P|176:88|88:72,1,150.000005722046
176,192,36480,85,0,0:0:0:0:
176,192,36665,2,0,P|232:240|280:192,1,150.000005722046
384,88,37776,5,0,0:0:0:0:
368,240,38332,1,0,0:0:0:0:
272,128,38888,1,0,0:0:0:0:
240,272,39443,1,0,0:0:0:0:
160,192,39813,85,0,0:0:0:0:
160,192,39999,2,0,B|120:216|120:216|176:312,1,150.000005722046
336,279,40925,5,0,0:0:0:0:
336,279,41110,2,0,B|392:312|432:272|440:200|328:192|328:192|432:144,1,300.000011444092
405,156,42406,85,0,0:0:0:0:
405,156,42591,1,0,0:0:0:0:
296,64,42776,2,0,L|296:120,3,33.3333333333333
208,128,43147,1,0,0:0:0:0:
208,128,43239,102,0,L|208:200,1,66.6666666666667
288,208,43610,6,0,L|288:272,1,33.3333333333333
152,80,43888,2,0,L|152:144,3,33.3333333333333
152,328,44258,2,0,L|152:280,1,33.3333333333333
184,80,44536,85,0,0:0:0:0:
184,80,44721,2,0,L|184:144,1,33.3333333333333
304,200,44999,1,0,0:0:0:0:
304,200,45184,2,0,L|304:256,1,33.3333333333333
272,120,45462,2,0,L|270:181,1,33.3333333333333
192,96,45739,2,0,L|192:144,1,33.3333333333333
120,144,46018,5,0,0:0:0:0:
120,144,46110,2,0,L|120:200,1,33.3333333333333
216,336,46295,2,0,L|216:280,1,33.3333333333333
296,136,46480,2,0,L|296:184,1,33.3333333333333
384,216,46666,86,0,P|392:264|272:256,1,200
272,176,47538,1,0,0:0:0:0:
272,176,47712,2,0,B|232:120|152:136,1,100
144,288,48759,6,0,B|200:280|200:280|224:224|224:224|296:216,1,175
304,216,49456,1,0,0:0:0:0:
328,216,49543,1,0,0:0:0:0:
352,216,49631,1,0,0:0:0:0:
376,216,49718,1,0,0:0:0:0:
400,216,49805,1,0,0:0:0:0:
424,208,49892,1,0,0:0:0:0:
440,192,49979,1,0,0:0:0:0:
344,288,50154,85,0,0:0:0:0:
344,288,50503,1,0,0:0:0:0:
144,248,50852,5,0,0:0:0:0:
144,248,50939,1,0,0:0:0:0:
144,248,51026,1,0,0:0:0:0:
272,96,51549,86,0,L|296:160,2,50
448,264,51901,2,0,L|424:200,2,50
296,64,52254,5,0,0:0:0:0:
304,80,52341,1,0,0:0:0:0:
312,96,52428,1,0,0:0:0:0:
320,112,52515,1,0,0:0:0:0:
328,128,52602,1,0,0:0:0:0:
336,144,52690,1,0,0:0:0:0:
344,160,52777,1,0,0:0:0:0:
200,240,52951,86,0,B|264:216|264:216|112:200|144:64,1,239.999992675781
139,121,53823,1,0,0:0:0:0:
312,80,54347,1,0,0:0:0:0:
280,192,54870,6,0,L|272:232,1,29.9999990844727
264,240,55044,1,0,0:0:0:0:
256,256,55131,1,0,0:0:0:0:
248,272,55219,1,0,0:0:0:0:
240,288,55306,1,0,0:0:0:0:
232,304,55393,1,0,0:0:0:0:
224,320,55480,1,0,0:0:0:0:
216,336,55567,1,0,0:0:0:0:
112,248,55742,85,0,0:0:0:0:
144,128,56091,2,0,P|168:192|160:248,1,119.999996337891
162,242,56527,1,0,0:0:0:0:
162,242,56614,1,0,0:0:0:0:
162,242,57137,5,0,0:0:0:0:
248,288,57485,1,0,0:0:0:0:
360,304,57834,86,0,L|360:264,3,25
288,232,58183,2,0,L|288:192,1,25
368,176,58357,2,0,L|368:128,1,25
288,48,58532,6,0,L|288:72,3,25
208,136,58881,2,0,L|208:176,1,25
304,192,59055,2,0,L|304:240,1,25
240,320,59230,86,0,L|240:280,3,25
152,224,59578,2,0,L|152:192,1,25
264,176,59753,2,0,L|264:136,1,25
184,48,59927,6,0,L|184:96,3,25
96,160,60276,2,0,L|96:200,1,25
216,208,60450,2,0,L|216:256,1,25
328,336,60625,86,0,L|328:288,3,25
216,233,60974,2,0,L|216:201,1,25
336,144,61148,2,0,L|336:96,1,25
416,192,61323,6,0,L|376:192,3,25
328,296,61671,2,0,L|296:296,1,25
264,176,61846,2,0,L|224:176,1,25
48,152,62020,86,0,L|88:152,3,25
136,264,62369,2,0,L|176:264,1,25
208,144,62543,2,0,L|248:144,1,25
416,96,62718,6,0,L|392:128,3,25
280,136,63067,2,0,L|256:168,1,25
344,256,63241,2,0,L|328:280,1,25
40,288,63416,86,0,P|96:296|160:256,1,100
104,184,63762,2,0,L|160:80,1,100
240,40,64113,6,0,P|272:88|320:72,1,100
400,56,64464,2,0,P|432:96|408:144,1,100
320,152,64815,102,0,L|296:264,1,100
368,328,65166,2,0,L|392:216,1,100
288,216,65517,86,0,B|280:152|280:152|240:120,1,100
152,152,65868,2,0,B|104:104|104:104|72:112,1,100
80,208,66219,101,0,0:0:0:0:
80,208,66394,2,0,P|96:264|136:296,1,100
304,280,66745,5,0,0:0:0:0:
304,280,66920,2,0,P|312:208|288:176,1,100
152,80,67271,1,0,0:0:0:0:
152,80,67447,102,0,L|192:184,1,100
200,208,67710,1,0,0:0:0:0:
208,240,67797,1,0,0:0:0:0:
216,272,67885,1,0,0:0:0:0:
320,344,68148,85,0,0:0:0:0:
320,344,68236,1,0,0:0:0:0:
320,344,68324,1,0,0:0:0:0:
288,176,68499,2,0,P|288:120|344:88,1,100
352,96,68762,1,0,0:0:0:0:
384,112,68850,1,0,0:0:0:0:
400,144,68938,1,0,0:0:0:0:
392,176,69026,22,0,L|312:288,1,119.999996337891
144,312,69373,1,0,0:0:0:0:
144,312,69460,1,0,0:0:0:0:
144,312,69547,1,0,0:0:0:0:
152,136,69721,1,0,0:0:0:0:
152,136,69895,1,0,0:0:0:0:
192,248,70069,2,0,P|208:320|240:352,1,119.999996337891
296,248,70417,6,0,L|272:120,1,119.999996337891
336,24,70678,1,0,0:0:0:0:
336,24,70765,2,0,B|336:96|336:96|288:152,1,119.999996337891
67,146,71112,2,0,P|63:206|90:277,1,119.999996337891
173,340,71460,2,0,B|246:355|246:355|271:296,1,119.999996337891
252,93,71808,6,0,L|161:172,1,119.999996337891
161,171,72156,1,0,0:0:0:0:
213,279,72330,1,0,0:0:0:0:
416,174,72504,1,0,0:0:0:0:
416,174,72678,2,0,B|411:247|411:247|359:287,1,119.999996337891
204,335,73025,1,0,0:0:0:0:
55,233,73199,1,0,0:0:0:0:
217,311,73460,69,0,0:0:0:0:
217,311,73547,2,0,P|141:303|101:263,1,119.999996337891
192,114,73895,2,0,B|239:156|239:156|301:133,1,119.999996337891
396,168,74243,1,0,0:0:0:0:
396,168,74417,2,0,P|378:241|403:305,1,119.999996337891
221,351,74765,1,0,0:0:0:0:
96,248,74938,5,0,0:0:0:0:
104,216,75025,1,0,0:0:0:0:
112,184,75112,1,0,0:0:0:0:
120,152,75199,1,0,0:0:0:0:
128,120,75286,1,0,0:0:0:0:
240,64,75460,1,0,0:0:0:0:
352,240,75634,5,0,0:0:0:0:
328,256,75721,1,0,0:0:0:0:
304,272,75808,1,0,0:0:0:0:
280,288,75895,1,0,0:0:0:0:
256,304,75982,1,0,0:0:0:0:
136,264,76156,1,0,0:0:0:0:
88,88,76330,69,0,0:0:0:0:
120,96,76417,1,0,0:0:0:0:
152,104,76504,1,0,0:0:0:0:
184,112,76591,1,0,0:0:0:0:
216,120,76678,1,0,0:0:0:0:
336,72,76851,1,0,0:0:0:0:
432,136,77025,6,0,L|401:201,1,59.9999981689454
320,176,77199,2,0,L|293:237,2,59.9999981689454
168,328,77547,1,0,0:0:0:0:
296,320,77721,5,0,0:0:0:0:
312,296,77808,1,0,0:0:0:0:
328,272,77895,1,0,0:0:0:0:
344,248,77982,1,0,0:0:0:0:
360,224,78069,1,0,0:0:0:0:
360,96,78243,1,0,0:0:0:0:
208,64,78417,69,0,0:0:0:0:
192,88,78504,1,0,0:0:0:0:
176,112,78591,1,0,0:0:0:0:
160,136,78678,1,0,0:0:0:0:
144,160,78764,1,0,0:0:0:0:
283,104,78938,1,0,0:0:0:0:
283,104,79112,6,0,L|246:163,4,59.9999981689454
161,111,79547,2,0,L|116:178,2,59.9999981689454
221,216,79808,2,0,L|185:271,2,59.9999981689454
283,295,80156,54,0,L|358:175,1,125
250,41,80875,54,0,P|180:68|146:102,1,100
69,193,81222,1,0,0:0:0:0:
69,193,81396,1,0,0:0:0:0:
119,334,81570,2,0,B|127:300|127:300|203:288|201:186,1,150
198,221,81918,2,0,L|285:317,1,100
416,288,82266,1,0,0:0:0:0:
416,288,82440,1,0,0:0:0:0:
422,138,82614,70,0,L|349:199,1,50
313,141,82788,2,0,L|244:192,1,50
309,236,82961,2,0,P|271:291|219:314,1,100
61,259,83309,2,0,L|43:188,1,50
120,185,83483,2,0,L|103:105,2,50
189,51,83831,6,0,P|241:36|296:43,1,100
293,69,84092,1,0,0:0:0:0:
296,98,84179,1,0,0:0:0:0:
297,127,84266,1,0,0:0:0:0:
298,156,84353,2,0,L|239:285,1,100
84,263,84614,1,0,0:0:0:0:
84,263,84701,2,0,P|116:198|113:151,1,100
233,307,85048,6,0,L|276:276,2,50
358,223,85396,1,0,0:0:0:0:
352,73,85570,1,0,0:0:0:0:
420,206,85744,2,0,B|375:273|375:273|326:287,1,100
205,282,86092,70,0,L|153:258,4,50
158,86,86614,1,0,0:0:0:0:
158,86,86788,6,0,L|222:118,4,50
369,163,87309,1,0,0:0:0:0:
369,163,87396,1,0,0:0:0:0:
369,163,87483,1,0,0:0:0:0:
337,309,87657,2,0,L|352:256,2,50
348,158,88005,5,0,0:0:0:0:
216,85,88179,1,0,0:0:0:0:
216,85,88353,1,0,0:0:0:0:
97,177,88527,1,0,0:0:0:0:
247,173,88701,1,0,0:0:0:0:
247,173,88875,70,0,L|206:216,4,50
321,303,89396,1,0,0:0:0:0:
321,303,89570,6,0,L|367:239,4,50
316,152,90092,1,0,0:0:0:0:
316,152,90266,6,0,L|283:101,3,50
202,143,90614,2,0,L|146:107,3,50
85,106,90961,1,0,0:0:0:0:
85,136,91048,1,0,0:0:0:0:
85,166,91135,1,0,0:0:0:0:
85,196,91222,1,0,0:0:0:0:
85,226,91309,1,0,0:0:0:0:
263,315,91657,37,0,0:0:0:0:
400,169,92005,1,0,0:0:0:0:
218,254,92353,1,0,0:0:0:0:
258,58,92701,2,0,B|284:77|284:77|214:168|96:140,1,200
130,266,93396,2,0,B|166:308|166:308|186:199|186:199|258:197,1,200
219,198,94005,1,0,0:0:0:0:
407,320,94266,5,0,0:0:0:0:
407,320,94353,1,0,0:0:0:0:
407,320,94440,2,0,L|470:233,1,100
315,219,94788,2,0,P|268:291|216:295,1,100
144,239,95048,1,0,0:0:0:0:
144,239,95135,2,0,P|76:227|46:189,1,100
156,110,95396,1,0,0:0:0:0:
156,110,95483,2,0,L|252:47,1,100
373,123,95831,1,0,0:0:0:0:
142,314,96179,86,0,B|176:328|176:328|184:312|184:312|192:328|192:328|200:312|200:312|208:328|208:328|229:313|230:313|293:251,1,200
276,267,96788,1,0,0:0:0:0:
143,85,97048,1,0,0:0:0:0:
136,234,97222,2,0,P|156:166|130:120,1,100
297,144,97570,2,0,P|291:80|316:34,1,100
383,177,97918,2,0,L|389:285,1,100
238,263,98266,2,0,L|164:339,1,100
168,334,98614,1,0,0:0:0:0:
222,159,98961,6,0,B|256:128|256:128|272:136|272:136|288:128|288:128|304:136|304:136|320:128|320:128|336:136|336:136|406:67,1,200
381,90,99570,1,0,0:0:0:0:
345,287,99918,2,0,L|278:296,3,50
261,202,100266,2,0,L|196:203,3,50
173,168,100614,1,0,0:0:0:0:
170,143,100701,1,0,0:0:0:0:
173,118,100788,1,0,0:0:0:0:
181,94,100875,1,0,0:0:0:0:
195,73,100961,1,0,0:0:0:0:
210,61,101048,86,0,L|332:203,1,150
376,272,101818,1,0,0:0:0:0:
376,272,101921,1,0,0:0:0:0:
371,269,102024,2,0,L|336:296,1,37.5
278,305,102264,1,0,0:0:0:0:
228,312,102351,1,0,0:0:0:0:
178,316,102438,1,0,0:0:0:0:
55,158,102525,2,0,L|184:138,1,100
