osu file format v14

[General]
AudioFilename: audio.mp3
AudioLeadIn: 0
PreviewTime: 69021
Countdown: 0
SampleSet: Normal
StackLeniency: 0.7
Mode: 1
LetterboxInBreaks: 0
WidescreenStoryboard: 0

[Editor]
Bookmarks: 22,1433,12727,24021,29668,35315,57903,63903,69198,80492,81904,104492
DistanceSpacing: 1.1
BeatDivisor: 4
GridSize: 8
TimelineZoom: 2.2

[Metadata]
Title:Mistake
TitleUnicode:Mistake
Artist:1Booth
ArtistUnicode:1Booth
Creator:Slim-san
Version:My Mistake
Source:
Tags:english indie pop emo yungspoiler alternative midwest BlackBq BlackBN lukebooth luke rock alt lyle forest green indie-pop hyperpop
BeatmapID:3511121
BeatmapSetID:1718135

[Difficulty]
HPDrainRate:5.5
CircleSize:4.2
OverallDifficulty:5.5
ApproachRate:9
SliderMultiplier:1.4
SliderTickRate:1

[Events]
//Background and Video events
0,0,"68893230_p0.jpg",0,-100
//Break Periods
//Storyboard Layer 0 (Background)
//Storyboard Layer 1 (Fail)
//Storyboard Layer 2 (Pass)
//Storyboard Layer 3 (Foreground)
//Storyboard Layer 4 (Overlay)
//Storyboard Sound Samples

[TimingPoints]
22,352.941176470588,4,1,0,40,1,0
22,-100,4,1,0,40,0,0
1433,-99.9999999999999,4,1,0,55,0,0
12727,-95.2380952380952,4,1,0,70,0,0
23845,-96.1538461538461,4,1,0,60,0,0
23904,-97.0873786407767,4,1,0,55,0,0
23963,-98.0392156862745,4,1,0,50,0,0
24021,-99.9999999999999,4,1,0,45,0,0
24373,-99.9999999999999,4,1,0,40,0,0
34433,-98.0392156862745,4,1,0,40,0,0
34785,-96.1538461538461,4,1,0,60,0,0
34962,-94.3396226415094,4,1,0,60,0,0
35138,-92.5925925925926,4,1,0,60,0,0
35316,-90.9090909090909,4,1,0,80,0,1
57551,-90.9090909090909,4,1,0,70,0,1
57727,-92.5925925925926,4,1,0,60,0,0
57785,-94.3396226415094,4,1,0,55,0,0
57844,-96.1538461538461,4,1,0,50,0,0
57904,-98.0392156862745,4,1,0,45,0,0
58256,-100,4,1,0,40,0,0
62138,-100,4,1,0,45,0,0
62491,-100,4,1,0,50,0,0
62845,-100,4,1,0,50,0,0
63639,-100,4,1,0,55,0,0
63904,-100,4,1,0,50,0,0
68844,-95.2380952380952,4,1,0,60,0,0
78903,-95.2380952380952,4,1,0,60,0,0
79257,-95.2380952380952,4,1,0,55,0,0
79610,-95.2380952380952,4,1,0,50,0,0
80139,-95.2380952380952,4,1,0,50,0,0
80316,-95.2380952380952,4,1,0,55,0,0
80492,-95.2380952380952,4,1,0,60,0,0
81904,-90.9090909090909,4,1,0,80,0,1
104139,-90.9090909090909,4,1,0,65,0,1
104316,-91.743119266055,4,1,0,60,0,0
104374,-91.743119266055,4,1,0,55,0,0
104433,-92.5925925925926,4,1,0,50,0,0
104492,-92.5925925925926,4,1,0,45,0,0
104668,-93.4579439252336,4,1,0,40,0,0
104845,-93.4579439252336,4,1,0,40,0,0
105021,-94.3396226415094,4,1,0,40,0,0
105197,-94.3396226415094,4,1,0,40,0,0
105374,-95.2380952380952,4,1,0,40,0,0
105550,-95.2380952380952,4,1,0,40,0,0
105727,-96.1538461538461,4,1,0,40,0,0
105903,-96.1538461538461,4,1,0,40,0,0
106256,-97.0873786407767,4,1,0,40,0,0
106609,-97.0873786407767,4,1,0,40,0,0
106962,-98.0392156862745,4,1,0,40,0,0
107315,-98.0392156862745,4,1,0,40,0,0
107403,-99.009900990099,4,1,0,40,0,0
107492,-99.009900990099,4,1,0,40,0,0
107668,-100,4,1,0,40,0,0
107845,-100,4,1,0,40,0,0
108021,-101.010101010101,4,1,0,40,0,0
108197,-101.010101010101,4,1,0,40,0,0
108374,-102.040816326531,4,1,0,40,0,0
108550,-102.040816326531,4,1,0,40,0,0
108727,-103.092783505155,4,1,0,40,0,0
109080,-103.092783505155,4,1,0,40,0,0
109433,-104.166666666667,4,1,0,40,0,0
109786,-104.166666666667,4,1,0,40,0,0
110139,-105.263157894737,4,1,0,40,0,0
110315,-105.263157894737,4,1,0,40,0,0
110492,-106.382978723404,4,1,0,40,0,0
110668,-106.382978723404,4,1,0,40,0,0
111197,-107.52688172043,4,1,0,40,0,0
111374,-107.52688172043,4,1,0,40,0,0
111550,-108.695652173913,4,1,0,40,0,0
111727,-108.695652173913,4,1,0,40,0,0
111903,-109.89010989011,4,1,0,40,0,0
112256,-109.89010989011,4,1,0,40,0,0
112609,-111.111111111111,4,1,0,40,0,0
115432,-111.111111111111,4,1,0,60,0,0

[HitObjects]
115,181,22,5,8,0:0:0:0:
144,254,198,1,0,0:0:0:0:
276,169,374,1,8,0:0:0:0:
201,194,551,1,0,0:0:0:0:
228,322,727,1,8,0:0:0:0:
257,249,904,1,0,0:0:0:0:
212,114,1080,1,8,0:0:0:0:
288,115,1433,1,8,0:0:0:0:
257,249,1610,1,0,0:0:0:0:
143,190,1786,1,0,0:0:0:0:
177,357,1963,1,0,0:0:0:0:
76,363,2139,1,8,0:0:0:0:
311,313,2316,1,0,0:0:0:0:
372,204,2492,1,8,0:0:0:0:
427,341,2669,1,0,0:0:0:0:
260,130,2845,1,8,0:0:0:0:
217,158,2933,1,0,0:0:0:0:
227,150,3021,1,0,0:0:0:0:
256,162,3198,1,4,0:0:0:0:
231,156,3551,1,8,0:0:0:0:
226,172,3639,1,8,0:0:0:0:
226,172,3727,1,8,0:0:0:0:
237,160,3904,1,4,0:0:0:0:
133,86,4257,1,0,0:0:0:0:
213,175,4433,1,8,0:0:0:0:
223,185,4610,1,0,0:0:0:0:
261,275,4786,1,0,0:0:0:0:
316,152,4963,1,8,0:0:0:0:
299,160,5051,1,0,0:0:0:0:
315,144,5139,1,8,0:0:0:0:
233,181,5316,1,0,0:0:0:0:
233,180,5492,1,0,0:0:0:0:
212,167,5669,1,8,0:0:0:0:
240,178,5757,1,0,0:0:0:0:
240,178,5845,1,0,0:0:0:0:
330,133,6021,1,4,0:0:0:0:
451,216,6374,1,0,0:0:0:0:
266,176,6463,1,8,0:0:0:0:
262,177,6551,1,0,0:0:0:0:
256,181,6727,1,12,0:0:0:0:
252,176,7080,1,8,0:0:0:0:
252,176,7257,1,0,0:0:0:0:
250,178,7345,1,0,0:0:0:0:
256,174,7433,1,8,0:0:0:0:
253,175,7610,1,0,0:0:0:0:
246,178,7786,1,8,0:0:0:0:
248,171,7963,1,0,0:0:0:0:
252,176,8139,1,8,0:0:0:0:
252,176,8227,1,8,0:0:0:0:
253,175,8316,1,0,0:0:0:0:
256,174,8492,1,0,0:0:0:0:
251,171,8669,1,0,0:0:0:0:
253,176,8845,1,8,0:0:0:0:
253,175,9198,1,8,0:0:0:0:
247,179,9374,1,8,0:0:0:0:
249,182,9551,1,0,0:0:0:0:
253,176,9727,1,0,0:0:0:0:
239,182,9904,1,8,0:0:0:0:
231,187,9992,1,0,0:0:0:0:
231,187,10080,1,8,0:0:0:0:
254,185,10257,1,8,0:0:0:0:
230,184,10433,1,0,0:0:0:0:
236,182,10610,1,8,0:0:0:0:
227,181,10786,1,0,0:0:0:0:
227,181,10963,1,0,0:0:0:0:
213,181,11139,1,0,0:0:0:0:
208,186,11316,1,8,0:0:0:0:
230,184,11404,1,0,0:0:0:0:
228,182,11492,1,0,0:0:0:0:
227,181,11669,1,0,0:0:0:0:
231,176,11845,1,8,0:0:0:0:
221,174,12021,1,0,0:0:0:0:
238,157,12198,1,8,0:0:0:0:
236,157,12727,1,8,0:0:0:0:
236,157,12816,1,0,0:0:0:0:
236,157,12904,1,0,0:0:0:0:
239,190,13080,1,12,0:0:0:0:
239,190,13433,1,0,0:0:0:0:
239,190,13521,1,0,0:0:0:0:
239,190,13610,1,8,0:0:0:0:
239,190,13786,1,12,0:0:0:0:
239,190,14139,1,0,0:0:0:0:
239,190,14316,1,8,0:0:0:0:
239,190,14492,1,0,0:0:0:0:
239,190,14669,1,8,0:0:0:0:
239,190,14845,1,8,0:0:0:0:
239,190,14933,1,0,0:0:0:0:
239,190,15021,1,8,0:0:0:0:
239,190,15198,1,0,0:0:0:0:
239,190,15551,1,4,0:0:0:0:
239,190,15904,1,12,0:0:0:0:
239,190,16257,1,8,0:0:0:0:
239,190,16433,1,0,0:0:0:0:
239,190,16610,1,12,0:0:0:0:
246,185,16963,1,8,0:0:0:0:
246,186,17139,1,0,0:0:0:0:
251,189,17316,1,8,0:0:0:0:
254,189,17404,1,8,0:0:0:0:
254,189,17492,1,0,0:0:0:0:
258,188,17669,1,8,0:0:0:0:
258,188,17845,1,0,0:0:0:0:
258,188,18021,1,0,0:0:0:0:
254,189,18374,1,0,0:0:0:0:
254,189,18463,1,8,0:0:0:0:
258,188,18551,1,0,0:0:0:0:
258,188,18727,1,12,0:0:0:0:
239,190,19080,1,0,0:0:0:0:
239,190,19169,1,0,0:0:0:0:
239,190,19257,1,8,0:0:0:0:
239,190,19433,1,12,0:0:0:0:
239,190,19786,1,0,0:0:0:0:
239,190,19963,1,8,0:0:0:0:
239,190,20139,1,0,0:0:0:0:
239,190,20316,1,8,0:0:0:0:
239,190,20492,1,8,0:0:0:0:
239,190,20580,1,0,0:0:0:0:
239,190,20669,1,0,0:0:0:0:
239,190,20845,1,0,0:0:0:0:
254,189,21198,1,4,0:0:0:0:
254,189,21551,1,12,0:0:0:0:
254,189,21904,1,0,0:0:0:0:
254,189,22080,1,8,0:0:0:0:
254,189,22257,1,12,0:0:0:0:
246,185,22610,1,8,0:0:0:0:
246,186,22786,1,0,0:0:0:0:
251,189,22963,1,0,0:0:0:0:
254,189,23051,1,0,0:0:0:0:
254,189,23139,1,0,0:0:0:0:
258,188,23316,1,8,0:0:0:0:
258,188,23492,1,0,0:0:0:0:
257,187,23669,1,8,0:0:0:0:
259,189,23845,1,0,0:0:0:0:
257,186,23904,1,0,0:0:0:0:
257,186,23963,1,0,0:0:0:0:
254,189,24021,1,0,0:0:0:0:
258,188,24374,1,0,0:0:0:0:
258,192,24551,1,8,0:0:0:0:
257,186,24904,1,0,0:0:0:0:
258,188,25257,1,8,0:0:0:0:
257,186,25610,1,0,0:0:0:0:
257,186,25786,1,8,0:0:0:0:
258,188,25963,1,8,0:0:0:0:
262,187,26316,1,8,0:0:0:0:
258,188,26845,1,0,0:0:0:0:
258,188,27021,1,8,0:0:0:0:
253,187,27198,1,8,0:0:0:0:
253,187,27286,1,0,0:0:0:0:
257,186,27374,1,8,0:0:0:0:
258,188,27727,1,8,0:0:0:0:
253,187,28080,1,0,0:0:0:0:
258,188,28433,1,8,0:0:0:0:
253,187,28786,1,0,0:0:0:0:
258,188,29139,1,0,0:0:0:0:
253,187,29669,1,8,0:0:0:0:
253,184,29845,1,0,0:0:0:0:
255,182,30021,1,8,0:0:0:0:
253,187,30198,1,8,0:0:0:0:
253,187,30286,1,0,0:0:0:0:
253,187,30374,1,0,0:0:0:0:
253,187,30551,1,0,0:0:0:0:
253,184,30727,1,8,0:0:0:0:
255,182,30904,1,0,0:0:0:0:
259,182,31257,1,8,0:0:0:0:
253,187,31433,1,8,0:0:0:0:
253,184,31610,1,0,0:0:0:0:
253,187,31963,1,8,0:0:0:0:
249,185,32139,1,0,0:0:0:0:
253,184,32492,1,0,0:0:0:0:
253,187,32669,1,0,0:0:0:0:
254,190,32845,1,0,0:0:0:0:
253,187,33021,1,8,0:0:0:0:
253,184,33374,1,8,0:0:0:0:
253,187,33551,1,8,0:0:0:0:
254,182,33727,1,0,0:0:0:0:
253,184,34080,1,0,0:0:0:0:
259,185,34433,1,0,0:0:0:0:
253,184,34786,1,0,0:0:0:0:
253,184,34963,1,8,0:0:0:0:
259,185,35139,1,8,0:0:0:0:
259,185,35316,1,4,0:0:0:0:
261,184,35669,1,8,0:0:0:0:
259,185,36021,1,0,0:0:0:0:
259,185,36198,1,8,0:0:0:0:
259,185,36374,1,0,0:0:0:0:
261,184,36551,1,0,0:0:0:0:
261,184,36639,1,8,0:0:0:0:
259,185,36727,1,0,0:0:0:0:
259,185,36904,1,8,0:0:0:0:
259,185,37080,1,0,0:0:0:0:
261,179,37257,1,8,0:0:0:0:
259,185,37345,1,0,0:0:0:0:
261,184,37433,1,8,0:0:0:0:
266,179,37610,1,0,0:0:0:0:
264,181,37786,1,8,0:0:0:0:
261,179,38139,1,4,0:0:0:0:
259,177,38492,1,8,0:0:0:0:
259,177,38580,1,0,0:0:0:0:
260,175,38669,1,0,0:0:0:0:
261,179,38845,1,8,0:0:0:0:
261,179,39021,1,8,0:0:0:0:
259,177,39198,1,0,0:0:0:0:
259,177,39374,1,8,0:0:0:0:
259,177,39463,1,0,0:0:0:0:
259,177,39551,1,0,0:0:0:0:
261,179,39727,1,8,0:0:0:0:
261,179,39904,1,0,0:0:0:0:
259,177,40080,1,8,0:0:0:0:
259,177,40169,1,0,0:0:0:0:
259,177,40257,1,8,0:0:0:0:
261,179,40433,1,0,0:0:0:0:
261,179,40610,1,8,0:0:0:0:
259,177,40963,1,0,0:0:0:0:
261,179,41316,1,8,0:0:0:0:
261,179,41404,1,0,0:0:0:0:
261,179,41492,1,0,0:0:0:0:
259,177,41669,1,8,0:0:0:0:
261,179,42021,1,8,0:0:0:0:
261,179,42374,1,0,0:0:0:0:
259,177,42551,1,0,0:0:0:0:
261,179,42727,1,8,0:0:0:0:
261,179,42904,1,0,0:0:0:0:
261,179,43080,1,8,0:0:0:0:
261,179,43257,1,0,0:0:0:0:
261,179,43345,1,0,0:0:0:0:
261,179,43433,1,8,0:0:0:0:
261,179,43521,1,8,0:0:0:0:
259,177,43610,1,0,0:0:0:0:
265,182,43786,1,8,0:0:0:0:
261,179,44139,1,0,0:0:0:0:
261,179,44227,1,0,0:0:0:0:
261,179,44316,1,8,0:0:0:0:
261,179,44492,1,0,0:0:0:0:
265,182,44669,1,8,0:0:0:0:
265,182,44757,1,0,0:0:0:0:
261,179,44845,1,8,0:0:0:0:
261,179,45021,1,8,0:0:0:0:
261,179,45198,1,0,0:0:0:0:
261,179,45286,1,0,0:0:0:0:
261,179,45374,1,0,0:0:0:0:
265,182,45551,1,8,0:0:0:0:
265,182,45727,1,8,0:0:0:0:
266,180,45816,1,0,0:0:0:0:
266,180,45904,1,8,0:0:0:0:
261,179,45992,1,8,0:0:0:0:
261,179,46080,1,0,0:0:0:0:
268,178,46257,1,0,0:0:0:0:
265,182,46433,1,8,0:0:0:0:
265,182,46492,1,8,0:0:0:0:
265,182,46551,1,8,0:0:0:0:
265,182,46610,1,8,0:0:0:0:
266,181,46963,1,8,0:0:0:0:
261,179,47051,1,0,0:0:0:0:
268,178,47139,1,0,0:0:0:0:
263,181,47227,1,0,0:0:0:0:
265,182,47316,1,8,0:0:0:0:
265,182,47492,1,0,0:0:0:0:
266,181,47669,1,8,0:0:0:0:
266,181,47845,1,0,0:0:0:0:
260,180,47933,1,0,0:0:0:0:
261,179,48021,1,8,0:0:0:0:
265,182,48374,1,8,0:0:0:0:
265,182,48463,1,0,0:0:0:0:
266,181,48551,1,0,0:0:0:0:
260,181,48639,1,8,0:0:0:0:
266,181,48727,1,8,0:0:0:0:
266,181,48904,1,0,0:0:0:0:
261,179,48992,1,0,0:0:0:0:
265,182,49080,1,8,0:0:0:0:
265,182,49257,1,0,0:0:0:0:
266,181,49433,1,8,0:0:0:0:
266,181,49786,1,8,0:0:0:0:
266,181,49874,1,0,0:0:0:0:
265,182,49963,1,0,0:0:0:0:
265,182,50139,1,8,0:0:0:0:
257,182,50227,1,0,0:0:0:0:
266,181,50316,1,8,0:0:0:0:
265,187,50492,1,0,0:0:0:0:
266,181,50669,1,8,0:0:0:0:
271,182,50757,1,0,0:0:0:0:
271,182,50845,1,8,0:0:0:0:
259,182,50933,1,8,0:0:0:0:
265,182,51021,1,0,0:0:0:0:
266,181,51198,1,0,0:0:0:0:
262,178,51374,1,8,0:0:0:0:
259,184,51727,1,0,0:0:0:0:
265,182,51904,1,8,0:0:0:0:
265,182,51992,1,0,0:0:0:0:
266,181,52080,1,8,0:0:0:0:
262,178,52257,1,0,0:0:0:0:
261,177,52610,1,8,0:0:0:0:
260,177,52786,1,0,0:0:0:0:
263,175,52963,1,0,0:0:0:0:
261,177,53316,1,8,0:0:0:0:
261,177,53492,1,0,0:0:0:0:
261,177,53580,1,8,0:0:0:0:
263,175,53669,1,0,0:0:0:0:
263,175,53845,1,8,0:0:0:0:
261,177,54021,1,0,0:0:0:0:
261,177,54198,1,0,0:0:0:0:
256,180,54286,1,0,0:0:0:0:
263,175,54374,1,8,0:0:0:0:
261,177,54727,1,8,0:0:0:0:
263,175,54786,1,8,0:0:0:0:
261,177,54904,1,0,0:0:0:0:
261,177,54963,1,0,0:0:0:0:
263,175,55080,1,8,0:0:0:0:
261,177,55433,1,0,0:0:0:0:
261,177,55610,1,8,0:0:0:0:
263,175,55786,1,8,0:0:0:0:
263,175,55963,1,0,0:0:0:0:
261,177,56139,1,8,0:0:0:0:
267,171,56227,1,0,0:0:0:0:
267,171,56316,1,0,0:0:0:0:
263,175,56492,1,0,0:0:0:0:
263,175,56669,1,0,0:0:0:0:
261,177,56845,1,8,0:0:0:0:
261,177,57021,1,0,0:0:0:0:
256,176,57198,1,8,0:0:0:0:
256,176,57551,1,8,0:0:0:0:
260,191,57727,1,0,0:0:0:0:
260,191,57786,1,0,0:0:0:0:
260,191,57845,1,0,0:0:0:0:
260,191,57904,1,0,0:0:0:0:
260,191,58257,1,8,0:0:0:0:
260,191,58610,1,0,0:0:0:0:
260,191,58963,1,0,0:0:0:0:
260,191,59316,1,8,0:0:0:0:
260,191,59669,1,0,0:0:0:0:
260,191,59845,1,8,0:0:0:0:
260,191,60021,1,8,0:0:0:0:
260,191,60110,1,0,0:0:0:0:
260,191,60198,1,0,0:0:0:0:
260,191,60374,1,8,0:0:0:0:
260,191,60727,1,8,0:0:0:0:
260,191,61080,1,8,0:0:0:0:
260,191,61169,1,0,0:0:0:0:
260,191,61257,1,8,0:0:0:0:
260,191,61433,1,0,0:0:0:0:
260,191,61610,1,0,0:0:0:0:
260,191,61786,1,8,0:0:0:0:
260,191,62139,1,8,0:0:0:0:
260,191,62227,1,0,0:0:0:0:
260,191,62316,1,0,0:0:0:0:
260,191,62492,1,8,0:0:0:0:
265,192,62669,1,8,0:0:0:0:
260,191,62845,1,0,0:0:0:0:
260,191,62933,1,8,0:0:0:0:
260,191,63021,1,0,0:0:0:0:
260,191,63198,1,8,0:0:0:0:
260,191,63374,1,8,0:0:0:0:
260,191,63463,1,0,0:0:0:0:
260,191,63639,1,0,0:0:0:0:
260,191,63727,1,8,0:0:0:0:
260,191,63816,1,0,0:0:0:0:
260,191,63904,1,8,0:0:0:0:
260,191,64257,1,0,0:0:0:0:
260,191,64610,1,8,0:0:0:0:
260,191,64963,1,8,0:0:0:0:
260,191,65051,1,0,0:0:0:0:
260,191,65139,1,0,0:0:0:0:
260,191,65316,1,8,0:0:0:0:
260,191,65492,1,8,0:0:0:0:
260,191,65845,1,8,0:0:0:0:
260,191,66021,1,0,0:0:0:0:
260,191,66198,1,0,0:0:0:0:
260,191,66727,1,0,0:0:0:0:
260,191,67433,1,8,0:0:0:0:
260,191,67610,1,0,0:0:0:0:
260,191,68139,1,0,0:0:0:0:
250,196,68845,1,0,0:0:0:0:
250,196,69021,1,8,0:0:0:0:
241,201,69198,1,0,0:0:0:0:
294,214,69551,1,8,0:0:0:0:
259,154,69904,1,0,0:0:0:0:
253,176,70257,1,8,0:0:0:0:
291,174,70610,1,8,0:0:0:0:
271,179,70786,1,8,0:0:0:0:
240,192,70963,1,0,0:0:0:0:
200,188,71139,1,8,0:0:0:0:
301,164,71316,1,0,0:0:0:0:
328,163,71669,1,8,0:0:0:0:
315,247,72021,1,8,0:0:0:0:
259,173,72198,1,0,0:0:0:0:
261,212,72374,1,0,0:0:0:0:
268,217,72551,1,0,0:0:0:0:
49,162,72727,1,8,0:0:0:0:
126,94,72904,1,0,0:0:0:0:
262,193,73080,1,8,0:0:0:0:
257,197,73257,1,8,0:0:0:0:
416,150,73433,1,0,0:0:0:0:
305,91,73610,1,0,0:0:0:0:
270,175,73786,1,8,0:0:0:0:
282,166,73874,1,0,0:0:0:0:
256,167,73963,1,0,0:0:0:0:
258,166,74139,1,0,0:0:0:0:
262,171,74492,1,8,0:0:0:0:
251,163,74669,1,0,0:0:0:0:
251,163,74757,1,0,0:0:0:0:
263,167,74845,1,8,0:0:0:0:
258,166,75021,1,8,0:0:0:0:
252,167,75198,1,0,0:0:0:0:
252,167,75374,1,0,0:0:0:0:
248,167,75551,1,8,0:0:0:0:
247,167,75727,1,0,0:0:0:0:
250,161,75904,1,8,0:0:0:0:
252,167,76080,1,0,0:0:0:0:
244,171,76257,1,8,0:0:0:0:
248,167,76433,1,0,0:0:0:0:
244,171,76521,1,8,0:0:0:0:
251,175,76610,1,0,0:0:0:0:
244,171,76786,1,8,0:0:0:0:
251,175,76963,1,0,0:0:0:0:
254,175,77316,1,8,0:0:0:0:
241,172,77492,1,0,0:0:0:0:
251,175,77669,1,8,0:0:0:0:
251,164,77845,1,0,0:0:0:0:
242,161,77933,1,0,0:0:0:0:
240,169,78021,1,8,0:0:0:0:
248,169,78198,1,0,0:0:0:0:
251,164,78551,1,0,0:0:0:0:
251,166,78904,1,8,0:0:0:0:
251,164,79257,1,8,0:0:0:0:
251,166,79610,1,0,0:0:0:0:
236,170,79963,1,8,0:0:0:0:
246,173,80139,1,0,0:0:0:0:
254,175,80316,1,0,0:0:0:0:
254,187,80492,1,8,0:0:0:0:
254,187,80580,1,8,0:0:0:0:
254,187,80669,1,8,0:0:0:0:
254,187,80845,1,8,0:0:0:0:
254,187,81021,1,0,0:0:0:0:
254,187,81110,1,0,0:0:0:0:
256,194,81198,1,0,0:0:0:0:
256,194,81374,1,8,0:0:0:0:
256,194,81551,1,0,0:0:0:0:
251,192,81639,1,0,0:0:0:0:
251,192,81727,1,0,0:0:0:0:
251,192,81816,1,0,0:0:0:0:
254,187,81904,1,12,0:0:0:0:
261,184,82257,1,8,0:0:0:0:
259,185,82610,1,0,0:0:0:0:
259,185,82786,1,8,0:0:0:0:
259,185,82963,1,0,0:0:0:0:
261,184,83139,1,8,0:0:0:0:
261,184,83227,1,0,0:0:0:0:
259,185,83316,1,8,0:0:0:0:
259,185,83492,1,8,0:0:0:0:
259,185,83669,1,0,0:0:0:0:
261,179,83845,1,0,0:0:0:0:
259,185,83933,1,8,0:0:0:0:
261,184,84021,1,0,0:0:0:0:
266,179,84198,1,0,0:0:0:0:
264,181,84374,1,8,0:0:0:0:
261,179,84727,1,4,0:0:0:0:
259,177,85080,1,8,0:0:0:0:
259,177,85169,1,0,0:0:0:0:
260,175,85257,1,0,0:0:0:0:
261,179,85433,1,8,0:0:0:0:
261,179,85610,1,8,0:0:0:0:
259,177,85786,1,0,0:0:0:0:
259,177,85963,1,8,0:0:0:0:
259,177,86051,1,0,0:0:0:0:
259,177,86139,1,0,0:0:0:0:
261,179,86316,1,8,0:0:0:0:
261,179,86492,1,0,0:0:0:0:
259,177,86669,1,8,0:0:0:0:
259,177,86757,1,0,0:0:0:0:
259,177,86845,1,8,0:0:0:0:
261,179,87021,1,0,0:0:0:0:
261,179,87198,1,8,0:0:0:0:
259,177,87551,1,0,0:0:0:0:
261,179,87904,1,8,0:0:0:0:
261,179,87992,1,0,0:0:0:0:
261,179,88080,1,0,0:0:0:0:
259,177,88257,1,8,0:0:0:0:
261,179,88610,1,8,0:0:0:0:
261,179,88963,1,0,0:0:0:0:
259,177,89139,1,0,0:0:0:0:
261,179,89316,1,8,0:0:0:0:
261,179,89492,1,0,0:0:0:0:
261,179,89669,1,8,0:0:0:0:
261,179,89845,1,0,0:0:0:0:
261,179,89933,1,0,0:0:0:0:
261,179,90021,1,8,0:0:0:0:
261,179,90110,1,8,0:0:0:0:
259,177,90198,1,0,0:0:0:0:
265,182,90374,1,8,0:0:0:0:
261,179,90727,1,0,0:0:0:0:
261,179,90816,1,0,0:0:0:0:
261,179,90904,1,8,0:0:0:0:
261,179,91080,1,8,0:0:0:0:
265,182,91257,1,0,0:0:0:0:
265,182,91345,1,0,0:0:0:0:
261,179,91433,1,0,0:0:0:0:
261,179,91610,1,8,0:0:0:0:
261,179,91786,1,0,0:0:0:0:
261,179,91874,1,8,0:0:0:0:
261,179,91963,1,0,0:0:0:0:
265,182,92139,1,8,0:0:0:0:
265,182,92316,1,8,0:0:0:0:
266,180,92404,1,0,0:0:0:0:
266,180,92492,1,8,0:0:0:0:
261,179,92580,1,8,0:0:0:0:
261,179,92669,1,0,0:0:0:0:
268,178,92845,1,8,0:0:0:0:
265,182,93021,1,0,0:0:0:0:
265,182,93080,1,0,0:0:0:0:
265,182,93139,1,0,0:0:0:0:
265,182,93198,1,0,0:0:0:0:
266,181,93551,1,8,0:0:0:0:
261,179,93639,1,0,0:0:0:0:
268,178,93727,1,0,0:0:0:0:
261,177,93816,1,0,0:0:0:0:
265,182,93904,1,8,0:0:0:0:
265,182,94080,1,0,0:0:0:0:
266,181,94257,1,8,0:0:0:0:
266,181,94345,1,0,0:0:0:0:
266,181,94433,1,0,0:0:0:0:
265,182,94963,1,0,0:0:0:0:
265,182,95051,1,0,0:0:0:0:
266,181,95139,1,8,0:0:0:0:
266,181,95227,1,8,0:0:0:0:
266,181,95316,1,0,0:0:0:0:
266,181,95492,1,8,0:0:0:0:
265,182,95580,1,0,0:0:0:0:
265,182,95669,1,8,0:0:0:0:
265,182,95845,1,0,0:0:0:0:
266,181,96021,1,8,0:0:0:0:
266,181,96374,1,0,0:0:0:0:
265,182,96727,1,8,0:0:0:0:
266,181,96904,1,8,0:0:0:0:
257,182,96992,1,0,0:0:0:0:
265,187,97080,1,0,0:0:0:0:
266,181,97257,1,8,0:0:0:0:
271,182,97345,1,0,0:0:0:0:
271,182,97433,1,0,0:0:0:0:
265,182,97521,1,8,0:0:0:0:
265,182,97610,1,8,0:0:0:0:
266,181,97786,1,0,0:0:0:0:
262,178,97963,1,8,0:0:0:0:
259,184,98316,1,0,0:0:0:0:
265,182,98492,1,8,0:0:0:0:
265,182,98580,1,0,0:0:0:0:
266,181,98669,1,8,0:0:0:0:
262,178,98845,1,0,0:0:0:0:
261,177,99198,1,8,0:0:0:0:
263,175,99551,1,0,0:0:0:0:
261,177,99904,1,8,0:0:0:0:
261,177,100080,1,0,0:0:0:0:
255,179,100169,1,0,0:0:0:0:
263,175,100257,1,8,0:0:0:0:
263,175,100433,1,8,0:0:0:0:
261,177,100610,1,0,0:0:0:0:
261,177,100786,1,8,0:0:0:0:
256,180,100874,1,8,0:0:0:0:
263,175,100963,1,0,0:0:0:0:
261,177,101316,1,8,0:0:0:0:
263,175,101374,1,8,0:0:0:0:
261,177,101492,1,0,0:0:0:0:
261,177,101551,1,0,0:0:0:0:
263,175,101669,1,8,0:0:0:0:
261,177,102021,1,0,0:0:0:0:
261,177,102198,1,8,0:0:0:0:
263,175,102374,1,8,0:0:0:0:
263,175,102551,1,0,0:0:0:0:
261,177,102727,1,8,0:0:0:0:
267,171,102816,1,0,0:0:0:0:
267,171,102904,1,0,0:0:0:0:
263,175,103080,1,0,0:0:0:0:
263,175,103257,1,8,0:0:0:0:
261,177,103433,1,8,0:0:0:0:
261,177,103610,1,0,0:0:0:0:
256,176,103786,1,0,0:0:0:0:
256,176,104139,1,8,0:0:0:0:
260,191,104316,1,0,0:0:0:0:
260,191,104374,1,0,0:0:0:0:
260,191,104433,1,0,0:0:0:0:
260,191,104492,1,0,0:0:0:0:
260,188,104669,1,8,0:0:0:0:
260,188,104845,1,8,0:0:0:0:
260,188,105021,1,0,0:0:0:0:
260,191,105198,1,0,0:0:0:0:
260,191,105374,1,8,0:0:0:0:
260,188,105551,1,0,0:0:0:0:
260,188,105727,1,0,0:0:0:0:
260,188,105904,1,8,0:0:0:0:
260,191,106257,1,0,0:0:0:0:
260,188,106610,1,8,0:0:0:0:
260,191,106963,1,0,0:0:0:0:
260,188,107316,1,0,0:0:0:0:
260,188,107404,1,0,0:0:0:0:
260,188,107492,1,8,0:0:0:0:
260,191,107669,1,0,0:0:0:0:
260,191,107845,1,8,0:0:0:0:
260,188,108021,1,8,0:0:0:0:
260,188,108198,1,8,0:0:0:0:
260,188,108374,1,0,0:0:0:0:
260,191,108551,1,0,0:0:0:0:
260,191,108727,1,8,0:0:0:0:
260,188,109080,1,0,0:0:0:0:
260,191,109433,1,8,0:0:0:0:
260,188,109786,1,0,0:0:0:0:
260,191,110139,1,0,0:0:0:0:
260,191,110316,1,8,0:0:0:0:
260,188,110492,1,8,0:0:0:0:
260,188,110669,1,0,0:0:0:0:
260,191,111198,1,8,0:0:0:0:
264,194,111374,1,0,0:0:0:0:
260,188,111551,1,0,0:0:0:0:
260,191,111727,1,0,0:0:0:0:
260,191,111904,1,8,0:0:0:0:
257,192,112257,1,0,0:0:0:0:
260,191,112610,1,8,0:0:0:0:
260,191,112786,1,0,0:0:0:0:
257,192,112963,1,8,0:0:0:0:
257,192,113051,1,0,0:0:0:0:
260,191,113139,1,8,0:0:0:0:
260,191,113316,1,8,0:0:0:0:
260,191,113492,1,8,0:0:0:0:
261,189,114021,1,8,0:0:0:0:
260,191,114198,1,8,0:0:0:0:
260,191,114374,1,8,0:0:0:0:
260,191,114463,1,0,0:0:0:0:
264,192,114551,1,0,0:0:0:0:
227,181,114727,1,0,0:0:0:0:
231,176,114904,1,8,0:0:0:0:
247,152,115080,1,0,0:0:0:0:
238,157,115257,1,0,0:0:0:0:
245,162,115433,1,8,0:0:0:0:
