osu file format v14

[General]
AudioFilename: audio.mp3
AudioLeadIn: 0
PreviewTime: 69021
Countdown: 0
SampleSet: Normal
StackLeniency: 0.7
Mode: 1
LetterboxInBreaks: 0
WidescreenStoryboard: 1

[Editor]
Bookmarks: 22,1433,12727,24021,29668,35315,57903,63903,69198,80492,81904,104492
DistanceSpacing: 1.1
BeatDivisor: 4
GridSize: 32
TimelineZoom: 1

[Metadata]
Title:Mistake
TitleUnicode:Mistake
Artist:1Booth
ArtistUnicode:1Booth
Creator:Slim-san
Version:Black's Futsuu
Source:
Tags:english indie pop emo yungspoiler alternative midwest BlackBq BlackBN lukebooth luke rock alt lyle forest green indie-pop hyperpop
BeatmapID:3533540
BeatmapSetID:1718135

[Difficulty]
HPDrainRate:7
CircleSize:2
OverallDifficulty:4
ApproachRate:10
SliderMultiplier:1.4
SliderTickRate:1

[Events]
//Background and Video events
0,0,"68893230_p0.jpg",0,-100
//Break Periods
//Storyboard Layer 0 (Background)
//Storyboard Layer 1 (Fail)
//Storyboard Layer 2 (Pass)
//Storyboard Layer 3 (Foreground)
//Storyboard Layer 4 (Overlay)
//Storyboard Sound Samples

[TimingPoints]
22,352.941176470588,4,1,0,40,1,0
1433,-100,4,1,0,55,0,0
12727,-100,4,1,0,70,0,0
24021,-100,4,1,0,40,0,0
29669,-100,4,1,0,50,0,0
34786,-100,4,1,0,55,0,0
34963,-100,4,1,0,60,0,0
35316,-100,4,1,0,80,0,1
57727,-100,4,1,0,60,0,0
57904,-100,4,1,0,40,0,0
62139,-100,4,1,0,45,0,0
62845,-100,4,1,0,50,0,0
63198,-100,4,1,0,55,0,0
63904,-100,4,1,0,50,0,0
69198,-100,4,1,0,65,0,0
77845,-100,4,1,0,60,0,0
78198,-100,4,1,0,50,0,0
78551,-100,4,1,0,40,0,0
80139,-100,4,1,0,50,0,0
80669,-100,4,1,0,60,0,0
81904,-100,4,1,0,80,0,1
104316,-100,4,1,0,60,0,0
104492,-100,4,1,0,40,0,0
115433,-100,4,1,0,60,0,0

[HitObjects]
256,192,1433,5,0,0:0:0:0:
256,192,2139,1,0,0:0:0:0:
256,192,2492,1,8,0:0:0:0:
256,192,2669,1,8,0:0:0:0:
256,192,2845,1,0,0:0:0:0:
256,192,3198,1,8,0:0:0:0:
256,192,3551,1,0,0:0:0:0:
256,192,3904,1,8,0:0:0:0:
256,192,4257,1,0,0:0:0:0:
256,192,4963,1,0,0:0:0:0:
256,192,5316,1,8,0:0:0:0:
256,192,5492,1,0,0:0:0:0:
256,192,5669,1,0,0:0:0:0:
256,192,6021,1,8,0:0:0:0:
256,192,6374,1,8,0:0:0:0:
256,192,6727,1,8,0:0:0:0:
256,192,7080,1,0,0:0:0:0:
256,192,7786,1,0,0:0:0:0:
256,192,8139,1,8,0:0:0:0:
256,192,8316,1,0,0:0:0:0:
256,192,8492,1,8,0:0:0:0:
256,192,8845,1,8,0:0:0:0:
256,192,9198,1,0,0:0:0:0:
256,192,9904,1,0,0:0:0:0:
256,192,10257,1,8,0:0:0:0:
256,192,10610,1,0,0:0:0:0:
256,192,10786,1,0,0:0:0:0:
256,192,10963,1,8,0:0:0:0:
256,192,11316,1,0,0:0:0:0:
256,192,11669,1,8,0:0:0:0:
256,192,12021,1,0,0:0:0:0:
256,192,12727,1,0,0:0:0:0:
256,192,13080,1,8,0:0:0:0:
256,192,13433,1,0,0:0:0:0:
256,192,13610,1,0,0:0:0:0:
256,192,13786,1,8,0:0:0:0:
256,192,14139,1,0,0:0:0:0:
256,192,14492,1,8,0:0:0:0:
256,192,14845,1,8,0:0:0:0:
256,192,15021,1,0,0:0:0:0:
256,192,15198,1,8,0:0:0:0:
256,192,15551,1,0,0:0:0:0:
256,192,16257,1,0,0:0:0:0:
256,192,16963,1,0,0:0:0:0:
256,192,17316,1,8,0:0:0:0:
256,192,17669,1,0,0:0:0:0:
256,192,17845,1,0,0:0:0:0:
256,192,18021,1,8,0:0:0:0:
256,192,18374,1,0,0:0:0:0:
256,192,18727,1,8,0:0:0:0:
256,192,19080,1,8,0:0:0:0:
256,192,19257,1,0,0:0:0:0:
256,192,19433,1,8,0:0:0:0:
256,192,19786,1,0,0:0:0:0:
256,192,20139,1,8,0:0:0:0:
256,192,20492,1,0,0:0:0:0:
256,192,20669,1,0,0:0:0:0:
256,192,20845,1,8,0:0:0:0:
256,192,21198,1,0,0:0:0:0:
256,192,21904,1,0,0:0:0:0:
256,192,22610,1,0,0:0:0:0:
256,192,22963,1,8,0:0:0:0:
256,192,23316,1,0,0:0:0:0:
256,192,23492,1,0,0:0:0:0:
256,192,23669,1,8,0:0:0:0:
256,192,24021,1,0,0:0:0:0:
256,192,26845,1,8,0:0:0:0:
256,192,29669,1,0,0:0:0:0:
256,192,30021,1,8,0:0:0:0:
256,192,30727,1,8,0:0:0:0:
256,192,31080,1,0,0:0:0:0:
256,192,31433,1,8,0:0:0:0:
256,192,32139,1,8,0:0:0:0:
256,192,32492,1,0,0:0:0:0:
256,192,32845,1,8,0:0:0:0:
256,192,33551,1,8,0:0:0:0:
256,192,34786,1,0,0:0:0:0:
256,192,34963,1,8,0:0:0:0:
384,96,35316,1,4,0:0:0:0:
256,192,35669,1,8,0:0:0:0:
256,192,36021,1,0,0:0:0:0:
256,192,36198,1,8,0:0:0:0:
256,192,36374,1,8,0:0:0:0:
256,192,36551,1,0,0:0:0:0:
256,192,36904,1,8,0:0:0:0:
256,192,37257,1,0,0:0:0:0:
256,192,37610,1,0,0:0:0:0:
256,192,37786,1,8,0:0:0:0:
256,192,38139,1,0,0:0:0:0:
256,192,38492,1,8,0:0:0:0:
256,192,38845,1,0,0:0:0:0:
256,192,39021,1,0,0:0:0:0:
256,192,39198,1,8,0:0:0:0:
256,192,39374,1,0,0:0:0:0:
256,192,39727,1,0,0:0:0:0:
256,192,40080,1,8,0:0:0:0:
256,192,40433,1,0,0:0:0:0:
256,192,40610,1,8,0:0:0:0:
256,192,41316,1,8,0:0:0:0:
256,192,41669,1,0,0:0:0:0:
256,192,42021,1,8,0:0:0:0:
256,192,42374,1,0,0:0:0:0:
256,192,42551,1,0,0:0:0:0:
256,192,42727,1,8,0:0:0:0:
256,192,43080,1,0,0:0:0:0:
256,192,43257,1,8,0:0:0:0:
256,192,43433,1,8,0:0:0:0:
256,192,43786,1,0,0:0:0:0:
256,192,44139,1,8,0:0:0:0:
256,192,44316,1,0,0:0:0:0:
256,192,44492,1,0,0:0:0:0:
256,192,44845,1,8,0:0:0:0:
256,192,45021,1,0,0:0:0:0:
256,192,45374,1,0,0:0:0:0:
256,192,45551,1,8,0:0:0:0:
256,192,45904,1,0,0:0:0:0:
256,192,46257,1,8,0:0:0:0:
256,192,46433,1,8,0:0:0:0:
256,192,46610,1,0,0:0:0:0:
256,192,46963,1,8,0:0:0:0:
256,192,47669,1,8,0:0:0:0:
256,192,48021,1,0,0:0:0:0:
256,192,48374,1,8,0:0:0:0:
256,192,48727,1,0,0:0:0:0:
256,192,48904,1,0,0:0:0:0:
256,192,49080,1,8,0:0:0:0:
256,192,49433,1,0,0:0:0:0:
256,192,49786,1,8,0:0:0:0:
256,192,50139,1,0,0:0:0:0:
256,192,50316,1,0,0:0:0:0:
256,192,50492,1,8,0:0:0:0:
256,192,50669,1,0,0:0:0:0:
256,192,51021,1,8,0:0:0:0:
256,192,51374,1,0,0:0:0:0:
256,192,51727,1,0,0:0:0:0:
256,192,51904,1,8,0:0:0:0:
256,192,52257,1,0,0:0:0:0:
256,192,52963,1,0,0:0:0:0:
256,192,53316,1,8,0:0:0:0:
256,192,53492,1,0,0:0:0:0:
256,192,53845,1,0,0:0:0:0:
256,192,54021,1,8,0:0:0:0:
256,192,54198,1,0,0:0:0:0:
256,192,54551,1,0,0:0:0:0:
256,192,54727,1,8,0:0:0:0:
256,192,55080,1,0,0:0:0:0:
256,192,55786,1,0,0:0:0:0:
256,192,56139,1,8,0:0:0:0:
256,192,56316,1,0,0:0:0:0:
256,192,56669,1,8,0:0:0:0:
256,192,56845,1,8,0:0:0:0:
256,192,57021,1,0,0:0:0:0:
256,192,57374,1,0,0:0:0:0:
256,192,57551,1,8,0:0:0:0:
256,192,57727,1,0,0:0:0:0:
256,192,59316,1,0,0:0:0:0:
256,192,60727,1,0,0:0:0:0:
256,192,62139,1,0,0:0:0:0:
256,192,62845,1,0,0:0:0:0:
256,192,63198,1,8,0:0:0:0:
256,192,63374,1,8,0:0:0:0:
256,192,63551,1,0,0:0:0:0:
256,192,63904,1,8,0:0:0:0:
256,192,64610,1,8,0:0:0:0:
256,192,64963,1,0,0:0:0:0:
256,192,65316,1,8,0:0:0:0:
256,192,66021,1,8,0:0:0:0:
256,192,66374,1,0,0:0:0:0:
256,192,66727,1,8,0:0:0:0:
256,192,67433,1,8,0:0:0:0:
256,192,67786,1,0,0:0:0:0:
256,192,68139,1,8,0:0:0:0:
256,192,68845,1,8,0:0:0:0:
256,192,69198,1,0,0:0:0:0:
256,192,69551,1,8,0:0:0:0:
256,192,69904,1,0,0:0:0:0:
256,192,70257,1,8,0:0:0:0:
256,192,70610,1,0,0:0:0:0:
256,192,70786,1,0,0:0:0:0:
256,192,70963,1,8,0:0:0:0:
256,192,71316,1,0,0:0:0:0:
256,192,72021,1,0,0:0:0:0:
256,192,72374,1,8,0:0:0:0:
256,192,72551,1,8,0:0:0:0:
256,192,72727,1,0,0:0:0:0:
256,192,73080,1,8,0:0:0:0:
256,192,73433,1,0,0:0:0:0:
256,192,73786,1,8,0:0:0:0:
256,192,73963,1,0,0:0:0:0:
256,192,74139,1,0,0:0:0:0:
256,192,74845,1,0,0:0:0:0:
256,192,75198,1,8,0:0:0:0:
256,192,75374,1,0,0:0:0:0:
256,192,75551,1,8,0:0:0:0:
256,192,75904,1,8,0:0:0:0:
256,192,76257,1,0,0:0:0:0:
256,192,76610,1,8,0:0:0:0:
256,192,76786,1,0,0:0:0:0:
256,192,76963,1,0,0:0:0:0:
256,192,77316,1,8,0:0:0:0:
256,192,77669,1,0,0:0:0:0:
256,192,77845,1,8,0:0:0:0:
256,192,78198,1,0,0:0:0:0:
256,192,78551,1,8,0:0:0:0:
256,192,78727,1,0,0:0:0:0:
256,192,80139,1,0,0:0:0:0:
256,192,80316,1,0,0:0:0:0:
256,192,80669,1,8,0:0:0:0:
256,192,80845,1,8,0:0:0:0:
256,192,81198,1,8,0:0:0:0:
256,192,81374,1,0,0:0:0:0:
384,96,81904,1,4,0:0:0:0:
256,192,82257,1,8,0:0:0:0:
256,192,82610,1,0,0:0:0:0:
256,192,82786,1,8,0:0:0:0:
256,192,82963,1,8,0:0:0:0:
256,192,83139,1,0,0:0:0:0:
256,192,83492,1,8,0:0:0:0:
256,192,83845,1,0,0:0:0:0:
256,192,84198,1,0,0:0:0:0:
256,192,84374,1,8,0:0:0:0:
256,192,84727,1,0,0:0:0:0:
256,192,85080,1,8,0:0:0:0:
256,192,85433,1,0,0:0:0:0:
256,192,85610,1,0,0:0:0:0:
256,192,85786,1,8,0:0:0:0:
256,192,85963,1,0,0:0:0:0:
256,192,86316,1,0,0:0:0:0:
256,192,86669,1,8,0:0:0:0:
256,192,87021,1,0,0:0:0:0:
256,192,87198,1,8,0:0:0:0:
256,192,87904,1,8,0:0:0:0:
256,192,88257,1,0,0:0:0:0:
256,192,88610,1,8,0:0:0:0:
256,192,88963,1,0,0:0:0:0:
256,192,89139,1,0,0:0:0:0:
256,192,89316,1,8,0:0:0:0:
256,192,89669,1,0,0:0:0:0:
256,192,89845,1,8,0:0:0:0:
256,192,90021,1,8,0:0:0:0:
256,192,90374,1,0,0:0:0:0:
256,192,90727,1,8,0:0:0:0:
256,192,90904,1,0,0:0:0:0:
256,192,91080,1,0,0:0:0:0:
256,192,91433,1,8,0:0:0:0:
256,192,91610,1,0,0:0:0:0:
256,192,91963,1,0,0:0:0:0:
256,192,92139,1,8,0:0:0:0:
256,192,92492,1,0,0:0:0:0:
256,192,92845,1,8,0:0:0:0:
256,192,93021,1,8,0:0:0:0:
256,192,93198,1,0,0:0:0:0:
256,192,93551,1,8,0:0:0:0:
256,192,94257,1,8,0:0:0:0:
256,192,94610,1,0,0:0:0:0:
256,192,94963,1,8,0:0:0:0:
256,192,95316,1,0,0:0:0:0:
256,192,95492,1,0,0:0:0:0:
256,192,95669,1,8,0:0:0:0:
256,192,96021,1,0,0:0:0:0:
256,192,96374,1,8,0:0:0:0:
256,192,96727,1,0,0:0:0:0:
256,192,96904,1,0,0:0:0:0:
256,192,97080,1,8,0:0:0:0:
256,192,97257,1,0,0:0:0:0:
256,192,97610,1,8,0:0:0:0:
256,192,97963,1,0,0:0:0:0:
256,192,98316,1,0,0:0:0:0:
256,192,98492,1,8,0:0:0:0:
256,192,98845,1,0,0:0:0:0:
256,192,99551,1,0,0:0:0:0:
256,192,99904,1,8,0:0:0:0:
256,192,100080,1,0,0:0:0:0:
256,192,100433,1,0,0:0:0:0:
256,192,100610,1,8,0:0:0:0:
256,192,100786,1,0,0:0:0:0:
256,192,101139,1,0,0:0:0:0:
256,192,101316,1,8,0:0:0:0:
256,192,101669,1,0,0:0:0:0:
256,192,102374,1,0,0:0:0:0:
256,192,102727,1,8,0:0:0:0:
256,192,102904,1,0,0:0:0:0:
256,192,103257,1,8,0:0:0:0:
256,192,103433,1,8,0:0:0:0:
256,192,103610,1,0,0:0:0:0:
256,192,103963,1,0,0:0:0:0:
256,192,104139,1,8,0:0:0:0:
256,192,104316,1,0,0:0:0:0:
256,192,105021,1,8,0:0:0:0:
256,192,105198,1,8,0:0:0:0:
256,192,105904,1,0,0:0:0:0:
256,192,106433,1,0,0:0:0:0:
256,192,106610,1,0,0:0:0:0:
256,192,107316,1,0,0:0:0:0:
256,192,107845,1,8,0:0:0:0:
256,192,108021,1,0,0:0:0:0:
256,192,108727,1,8,0:0:0:0:
256,192,109257,1,8,0:0:0:0:
256,192,109433,1,8,0:0:0:0:
256,192,110139,1,0,0:0:0:0:
256,192,110492,1,8,0:0:0:0:
256,192,110669,1,0,0:0:0:0:
256,192,110845,1,8,0:0:0:0:
256,192,111198,1,8,0:0:0:0:
256,192,111551,1,0,0:0:0:0:
256,192,111904,1,8,0:0:0:0:
256,192,112080,1,0,0:0:0:0:
256,192,112257,1,0,0:0:0:0:
256,192,112610,1,8,0:0:0:0:
256,192,112963,1,0,0:0:0:0:
256,192,113316,1,8,0:0:0:0:
256,192,113492,1,8,0:0:0:0:
256,192,113669,1,0,0:0:0:0:
256,192,114021,1,8,0:0:0:0:
256,192,114374,1,0,0:0:0:0:
256,192,114727,1,8,0:0:0:0:
256,192,114904,1,0,0:0:0:0:
256,192,115080,1,0,0:0:0:0:
256,192,115433,1,8,0:0:0:0:
