osu file format v14

[General]
AudioFilename: audio.mp3
AudioLeadIn: 0
PreviewTime: 80139
Countdown: 0
SampleSet: Normal
StackLeniency: 0.4
Mode: 0
LetterboxInBreaks: 0
WidescreenStoryboard: 0

[Editor]
Bookmarks: 15021
DistanceSpacing: 1
BeatDivisor: 2
GridSize: 16
TimelineZoom: 1.5

[Metadata]
Title:Mistake
TitleUnicode:Mistake
Artist:1Booth
ArtistUnicode:1Booth
Creator:Nekathe
Version:Normal
Source:
Tags:english indie pop emo yungspoiler alternative midwest lukebooth luke rock alt hyperpop zevonik
BeatmapID:4467227
BeatmapSetID:2124401

[Difficulty]
HPDrainRate:3
CircleSize:3.4
OverallDifficulty:5
ApproachRate:5
SliderMultiplier:1.2
SliderTickRate:1

[Events]
//Background and Video events
0,0,"68893230_p0.jpg",0,0
//Break Periods
2,24221,28821
2,58104,62704
2,104691,109292
//Storyboard Layer 0 (Background)
//Storyboard Layer 1 (Fail)
//Storyboard Layer 2 (Pass)
//Storyboard Layer 3 (Foreground)
//Storyboard Layer 4 (Overlay)
//Storyboard Sound Samples

[TimingPoints]
22,352.941176470588,4,1,0,30,1,0
374,-100,4,1,0,40,0,0
727,-100,4,1,0,50,0,0
1080,-100,4,1,0,60,0,0
1433,-100,4,1,0,70,0,0
11845,-100,4,1,0,40,0,0
12198,-100,4,1,0,20,0,0
12727,-95.2380952380952,4,1,0,70,0,0
24021,-95.2380952380952,4,1,0,40,0,0
29669,-125,4,1,0,40,0,0
32492,-125,4,1,0,50,0,0
34786,-90.9090909090909,4,1,0,70,0,0
35316,-90.9090909090909,4,1,0,80,0,1
57904,-125,4,1,0,40,0,0
62139,-125,4,1,0,50,0,0
69198,-111.111111111111,4,1,0,60,0,0
78551,-111.111111111111,4,1,0,50,0,0
79257,-111.111111111111,4,1,0,30,0,0
80139,-111.111111111111,4,1,0,60,0,0
81904,-90.9090909090909,4,1,0,80,0,1
104492,-90.9090909090909,4,1,0,20,0,0
110139,-90.9090909090909,4,1,0,40,0,0
115433,-90.9090909090909,4,1,0,20,0,0

[Colours]
Combo1 : 232,145,102
Combo2 : 159,185,180
Combo3 : 245,177,116
Combo4 : 143,172,199

[HitObjects]
9,73,22,6,0,P|25:140|34:216,1,120,8|8,0:3|0:3,0:0:0:0:
149,164,727,2,0,P|133:97|123:20,1,120,8|8,0:3|0:3,0:0:0:0:
238,87,1433,6,0,P|291:99|382:100,1,120,4|8,0:0|0:0,0:0:0:0:
438,14,2139,2,0,P|455:47|462:81,1,60,4|4,0:3|0:3,0:0:0:0:
467,128,2492,2,0,P|458:182|464:209,1,60,8|0,0:0|0:0,0:0:0:0:
502,228,2845,6,0,L|373:255,1,120,4|8,0:3|0:0,0:0:0:0:
299,336,3551,6,0,L|219:322,1,60,4|0,0:3|0:0,0:0:0:0:
180,315,3904,1,8,0:0:0:0:
67,357,4257,6,0,B|53:324|53:324|71:237,1,120,4|8,0:3|0:0,0:0:0:0:
12,134,4963,2,0,P|46:120|81:116,1,60,4|4,0:3|0:3,0:0:0:0:
126,132,5316,2,0,P|179:146|207:142,1,60,8|0,0:0|0:0,0:0:0:0:
235,115,5669,6,0,L|370:90,1,120,4|8,0:3|0:0,0:0:0:0:
340,209,6374,5,4,0:3:0:0:
458,185,6727,1,8,0:0:0:0:
400,290,7080,6,0,P|432:314|479:325,2,60,4|0|8,0:3|0:0|0:0,0:0:0:0:
357,334,7610,2,0,P|292:321|220:316,1,120,0|4,0:0|0:3,0:0:0:0:
187,344,8139,1,8,0:0:0:0:
187,344,8316,2,0,P|122:357|50:362,1,120,4|4,0:3|0:3,0:0:0:0:
18,343,8845,1,8,0:0:0:0:
2,207,9198,5,4,0:3:0:0:
177,157,9727,5,0,0:0:0:0:
177,157,9904,2,0,P|205:167|321:144,1,120,0|8,0:0|0:0,0:0:0:0:
339,121,10433,2,0,P|377:109|482:124,1,120,0|4,0:0|0:3,0:0:0:0:
512,225,11139,5,0,0:0:0:0:
512,225,11316,2,0,P|485:240|366:252,1,120
338,247,11845,2,0,P|289:248|280:318,1,120,0|0,0:0|0:3,0:0:0:0:
122,193,12727,6,0,P|72:193|-9:166,2,125.999996154785,4|8|4,0:0|0:0|0:3,0:0:0:0:
166,149,13610,1,4,0:3:0:0:
166,149,13786,2,0,L|149:73,1,62.9999980773926,8|0,0:0|0:0,0:0:0:0:
131,27,14139,6,0,P|88:17|-10:21,2,125.999996154785,0|8|4,0:3|0:0|0:3,0:0:0:0:
195,13,15021,1,4,0:3:0:0:
195,13,15197,2,0,L|270:29,1,62.9999980773926,8|0,0:0|0:0,0:0:0:0:
301,71,15551,6,0,L|447:47,1,125.999996154785,4|8,0:3|0:0,0:0:0:0:
488,159,16257,2,0,L|397:173,1,62.9999980773926,4|4,0:3|0:3,0:0:0:0:
375,207,16610,2,0,L|284:194,1,62.9999980773926,8|0,0:0|0:0,0:0:0:0:
249,193,16963,6,0,P|243:139|254:108,2,62.9999980773926,0|4|8,0:0|0:3|0:0,0:0:0:0:
232,317,17669,2,0,P|263:319|293:312,2,62.9999980773926,4|4|8,0:3|0:3|0:0,0:0:0:0:
124,251,18374,6,0,P|56:264|-4:261,2,125.999996154785,4|8|4,0:0|0:0|0:3,0:0:0:0:
157,198,19257,1,4,0:3:0:0:
157,198,19433,2,0,P|134:149|124:117,1,62.9999980773926,8|0,0:0|0:0,0:0:0:0:
105,85,19786,6,0,P|100:23|23:22,2,125.999996154785,0|8|4,0:0|0:0|0:3,0:0:0:0:
170,72,20669,1,4,0:3:0:0:
170,72,20845,2,0,P|208:65|234:37,1,62.9999980773926,8|0,0:0|0:0,0:0:0:0:
273,7,21198,6,0,L|416:34,1,125.999996154785,4|8,0:3|0:0,0:0:0:0:
497,106,21904,2,0,P|488:161|470:173,1,62.9999980773926,4|4,0:3|0:3,0:0:0:0:
433,199,22257,1,8,0:0:0:0:
338,282,22610,6,0,L|193:308,1,125.999996154785,0|8,0:0|0:0,0:0:0:0:
92,340,23316,1,4,0:3:0:0:
56,219,23669,1,8,0:0:0:0:
113,107,24021,5,0,0:0:0:0:
101,125,30021,6,0,P|67:97|157:77,1,192,8|8,0:0|0:0,0:0:0:0:
266,213,31433,2,0,P|299:185|209:165,1,192,8|8,0:0|0:0,0:0:0:0:
176,235,32492,6,0,P|126:251|77:252,1,96
42,225,33021,2,0,P|20:274|21:318,1,96
42,358,33551,1,0,0:0:0:0:
434,203,34786,5,4,0:3:0:0:
434,203,34963,1,8,0:3:0:0:
305,171,35316,6,0,P|257:173|164:199,1,132.00000402832,4|8,0:0|0:0,0:0:0:0:
52,147,36021,1,4,0:3:0:0:
52,147,36198,2,0,P|53:115|72:78,1,66.0000020141602,4|8,0:3|0:0,0:0:0:0:
126,54,36551,2,0,L|279:69,2,132.00000402832,4|4|0,0:0|0:0|0:0,0:0:0:0:
169,186,37610,1,4,0:3:0:0:
169,186,37786,1,8,0:0:0:0:
55,253,38139,6,0,P|57:300|83:393,1,132.00000402832,4|8,0:0|0:0,0:0:0:0:
202,332,38844,1,4,0:3:0:0:
202,332,39021,2,0,P|211:279|210:254,1,66.0000020141602,4|8,0:3|0:0,0:0:0:0:
184,207,39374,2,0,L|335:228,2,132.00000402832,4|4|0,0:0|0:0|0:0,0:0:0:0:
152,154,40257,5,4,0:3:0:0:
152,154,40433,2,0,P|150:112|159:82,1,66.0000020141602,4|8,0:3|0:0,0:0:0:0:
213,53,40786,1,4,0:3:0:0:
213,53,40963,6,0,P|278:74|355:87,1,132.00000402832,4|8,0:0|0:0,0:0:0:0:
454,18,41669,2,0,L|464:103,1,66.0000020141602,4|4,0:3|0:3,0:0:0:0:
494,141,42021,2,0,P|486:185|459:220,1,66.0000020141602,8|0,0:0|0:0,0:0:0:0:
414,227,42374,2,0,P|347:241|274:268,1,132.00000402832,0|8,0:0|0:0,0:0:0:0:
235,304,42904,1,0,0:0:0:0:
136,224,43257,1,4,0:3:0:0:
136,224,43433,1,8,0:0:0:0:
35,294,43786,5,4,0:0:0:0:
1,166,44139,2,0,L|14:87,2,66.0000020141602,8|4|4,0:0|0:3|0:3,0:0:0:0:
66,152,44669,1,4,0:0:0:0:
170,70,45021,5,0,0:0:0:0:
170,70,45198,1,4,0:0:0:0:
300,110,45551,1,8,0:0:0:0:
300,110,45727,1,4,0:0:0:0:
421,59,46080,2,0,P|442:40|466:-2,2,66.0000020141602,4|8|4,0:3|0:0|0:3,0:0:0:0:
457,114,46610,5,4,0:0:0:0:
469,245,46963,2,0,P|385:239|357:116,1,198.000006042481,8|4,0:0|0:3,0:0:0:0:
379,86,47669,1,8,0:0:0:0:
379,86,47845,6,0,L|221:110,1,132.00000402832,4|0,0:0|0:0,0:0:0:0:
194,67,48374,2,0,P|109:93|136:218,1,198.000006042481,8|4,0:0|0:3,0:0:0:0:
156,230,49080,1,8,0:0:0:0:
66,327,49433,5,4,0:3:0:0:
185,382,49786,2,0,L|277:370,1,66.0000020141602,8|0,0:0|0:0,0:0:0:0:
302,332,50139,2,0,L|394:320,1,66.0000020141602,4|4,0:3|0:3,0:0:0:0:
411,380,50492,1,8,0:0:0:0:
411,380,50669,2,0,P|484:361|509:299,2,132.00000402832,4|4|4,0:0|0:3|0:0,0:0:0:0:
420,251,51727,1,4,0:3:0:0:
420,251,51904,1,12,0:0:0:0:
458,124,52257,5,4,0:0:0:0:
327,105,52610,1,12,0:0:0:0:
234,199,52963,2,0,B|176:214|171:156|93:174,1,132.00000402832,4|8,0:0|0:0,0:0:0:0:
51,205,53492,2,0,P|-4:170|9:97,2,132.00000402832,4|4|0,0:3|0:3|0:0,0:0:0:0:
53,271,54374,2,0,P|55:311|70:346,1,66.0000020141602,4|4,0:3|0:3,0:0:0:0:
121,367,54727,5,8,0:0:0:0:
187,371,54904,5,0,0:0:0:0:
248,346,55080,5,4,0:0:0:0:
378,324,55433,1,12,0:0:0:0:
491,256,55786,2,0,B|435:271|430:213|366:228,1,132.00000402832,4|8,0:0|0:0,0:0:0:0:
309,262,56315,2,0,P|255:229|257:166,1,132.00000402832,4|0,0:3|0:3,0:0:0:0:
290,108,56845,1,8,0:0:0:0:
290,108,57021,2,0,P|288:68|273:33,2,66.0000020141602,0|4|4,0:0|0:3|0:3,0:0:0:0:
347,139,57550,1,4,0:3:0:0:
411,126,57727,1,0,0:0:0:0:
438,86,57904,5,0,0:0:0:0:
415,99,63904,6,0,P|449:71|359:51,1,192,8|8,0:0|0:0,0:0:0:0:
250,187,65316,2,0,P|217:159|307:139,1,192,8|8,0:0|0:0,0:0:0:0:
339,213,66374,6,0,L|356:308,1,96,0|8,0:0|0:0,0:0:0:0:
334,350,66904,1,0,0:0:0:0:
194,383,67433,1,8,0:0:0:0:
150,297,67786,6,0,P|166:247|167:198,1,96,0|8,0:0|0:0,0:0:0:0:
140,163,68315,2,0,P|189:140|233:141,1,96
258,179,68845,6,0,L|320:198,1,48,8|0,0:0|0:0,0:0:0:0:
355,210,69198,6,0,L|376:89,1,107.999996704102,0|8,0:0|0:0,0:0:0:0:
335,1,69904,1,0,0:0:0:0:
242,56,70257,1,8,0:0:0:0:
137,17,70610,6,0,L|125:81,1,53.9999983520508
77,91,70963,2,0,L|88:213,1,107.999996704102,8|0,0:0|0:0,0:0:0:0:
180,252,71669,1,8,0:0:0:0:
129,347,72021,6,0,P|169:359|194:357,1,53.9999983520508
231,340,72374,2,0,P|280:323|349:328,1,107.999996704102,8|0,0:0|0:0,0:0:0:0:
381,354,72904,2,0,L|441:367,2,53.9999983520508,0|8|0,0:0|0:0|0:0,0:0:0:0:
408,307,73433,6,0,L|418:245,1,53.9999983520508
411,199,73786,2,0,P|402:117|408:85,1,107.999996704102,8|0,0:0|0:0,0:0:0:0:
331,14,74492,6,0,P|306:38|276:41,1,53.9999983520508,8|0,0:0|0:0,0:0:0:0:
237,21,74845,6,0,P|258:61|216:118,1,107.999996704102,0|8,0:0|0:0,0:0:0:0:
192,151,75374,1,0,0:0:0:0:
192,151,75551,2,0,L|315:185,1,107.999996704102,0|8,0:0|0:0,0:0:0:0:
342,217,76080,1,0,0:0:0:0:
342,217,76257,6,0,B|320:252|320:252|234:270,1,107.999996704102,0|8,0:0|0:0,0:0:0:0:
206,258,76786,1,0,0:0:0:0:
206,258,76963,2,0,P|143:303|147:339,1,107.999996704102,0|8,0:0|0:0,0:0:0:0:
101,361,77492,6,0,L|45:346,1,53.9999983520508
17,302,77845,2,0,L|37:195,1,107.999996704102
121,128,78551,1,0,0:0:0:0:
210,188,78904,1,0,0:0:0:0:
316,170,79257,1,0,0:0:0:0:
392,246,79610,1,0,0:0:0:0:
347,346,79963,1,0,0:0:0:0:
347,346,80139,1,0,0:0:0:0:
477,108,81904,6,0,P|438:91|342:112,1,132.00000402832,4|8,0:0|0:0,0:0:0:0:
242,176,82610,1,4,0:3:0:0:
242,176,82786,2,0,P|206:154|191:120,1,66.0000020141602,4|8,0:3|0:0,0:0:0:0:
205,68,83139,2,0,L|62:93,2,132.00000402832,4|4|4,0:0|0:0|0:0,0:0:0:0:
325,9,84198,1,4,0:3:0:0:
325,9,84374,1,8,0:0:0:0:
371,132,84727,6,0,P|370:190|347:269,1,132.00000402832,4|8,0:0|0:0,0:0:0:0:
240,333,85433,1,4,0:3:0:0:
240,333,85610,2,0,L|156:347,1,66.0000020141602,4|8,0:3|0:0,0:0:0:0:
127,298,85963,2,0,P|80:280|7:325,2,132.00000402832,4|4|0,0:0|0:0|0:0,0:0:0:0:
157,241,86845,5,4,0:3:0:0:
157,241,87021,2,0,L|171:155,1,66.0000020141602,4|8,0:3|0:0,0:0:0:0:
184,114,87374,1,4,0:3:0:0:
184,114,87551,6,0,P|250:99|323:72,1,132.00000402832,4|8,0:0|0:0,0:0:0:0:
423,8,88257,2,0,L|436:94,1,66.0000020141602,4|4,0:3|0:3,0:0:0:0:
471,127,88610,2,0,L|458:213,1,66.0000020141602,8|4,0:0|0:3,0:0:0:0:
423,246,88963,2,0,L|288:279,1,132.00000402832,0|8,0:0|0:0,0:0:0:0:
233,302,89492,2,0,L|98:269,1,132.00000402832,0|4,0:0|0:3,0:0:0:0:
54,313,90021,1,8,0:0:0:0:
32,182,90374,5,4,0:0:0:0:
65,54,90727,2,0,L|-14:41,2,66.0000020141602,8|0|4,0:0|0:0|0:3,0:0:0:0:
111,101,91257,1,4,0:0:0:0:
232,46,91609,5,0,0:0:0:0:
232,46,91786,1,12,0:0:0:0:
343,126,92139,1,8,0:0:0:0:
343,126,92316,1,4,0:0:0:0:
459,65,92668,2,0,P|480:46|504:4,2,66.0000020141602,4|8|4,0:3|0:1|0:3,0:0:0:0:
480,128,93198,5,4,0:0:0:0:
449,256,93551,2,0,P|371:227|263:295,1,198.000006042481,8|4,0:0|0:3,0:0:0:0:
238,332,94257,1,8,0:0:0:0:
238,332,94433,2,0,P|144:348|103:309,1,132.00000402832,4|0,0:0|0:0,0:0:0:0:
74,281,94962,6,0,L|95:127,1,132.00000402832,8|4,0:0|0:3,0:0:0:0:
151,117,95492,1,4,0:3:0:0:
151,117,95668,1,8,0:0:0:0:
257,195,96021,5,4,0:3:0:0:
303,318,96374,2,0,P|335:325|395:322,1,66.0000020141602,8|0,0:0|0:0,0:0:0:0:
429,301,96727,2,0,P|451:277|478:222,1,66.0000020141602,4|4,0:3|0:3,0:0:0:0:
488,188,97080,1,8,0:0:0:0:
488,188,97257,2,0,P|411:202|349:205,2,132.00000402832,4|4|4,0:0|0:3|0:0,0:0:0:0:
507,60,98315,1,4,0:3:0:0:
507,60,98492,1,12,0:0:0:0:
385,111,98845,5,4,0:0:0:0:
265,55,99198,1,12,0:0:0:0:
272,186,99551,2,0,B|214:201|209:143|131:161,1,132.00000402832,4|8,0:0|0:0,0:0:0:0:
96,201,100080,2,0,P|50:135|-4:107,2,132.00000402832,4|4|0,0:0|0:3|0:3,0:0:0:0:
41,237,100962,2,0,P|43:277|58:312,1,66.0000020141602,4|4,0:3|0:3,0:0:0:0:
105,339,101315,5,8,0:0:0:0:
171,343,101492,5,0,0:0:0:0:
214,293,101668,5,4,0:0:0:0:
230,161,102021,1,12,0:0:0:0:
321,255,102374,2,0,B|375:229|341:181|412:145,1,132.00000402832,4|8,0:0|0:0,0:0:0:0:
461,130,102903,2,0,P|406:95|419:22,2,132.00000402832,0|4|0,0:0|0:3|0:0,0:0:0:0:
498,184,103786,2,0,P|496:224|481:259,1,66.0000020141602,4|4,0:3|0:3,0:0:0:0:
446,299,104138,1,8,0:0:0:0:
383,319,104315,1,0,0:0:0:0:
324,289,104491,1,0,0:0:0:0:
256,192,110492,12,12,115433,0:0:0:0:
