osu file format v14

[General]
AudioFilename: audio.mp3
AudioLeadIn: 0
PreviewTime: 80139
Countdown: 0
SampleSet: Normal
StackLeniency: 0.4
Mode: 0
LetterboxInBreaks: 0
WidescreenStoryboard: 0

[Editor]
DistanceSpacing: 1.3
BeatDivisor: 6
GridSize: 16
TimelineZoom: 1

[Metadata]
Title:Mistake
TitleUnicode:Mistake
Artist:1Booth
ArtistUnicode:1Booth
Creator:Nekathe
Version:Insane
Source:
Tags:english indie pop emo yungspoiler alternative midwest lukebooth luke rock alt hyperpop zevonik
BeatmapID:4464891
BeatmapSetID:2124401

[Difficulty]
HPDrainRate:4.5
CircleSize:4.2
OverallDifficulty:7.2
ApproachRate:9
SliderMultiplier:1.9
SliderTickRate:1

[Events]
//Background and Video events
0,0,"68893230_p0.jpg",0,0
//Break Periods
2,24221,29421
//Storyboard Layer 0 (Background)
//Storyboard Layer 1 (Fail)
//Storyboard Layer 2 (Pass)
//Storyboard Layer 3 (Foreground)
//Storyboard Layer 4 (Overlay)
//Storyboard Sound Samples

[TimingPoints]
22,352.941176470588,4,1,0,30,1,0
374,-100,4,1,0,40,0,0
727,-100,4,1,0,50,0,0
1080,-200,4,1,0,60,0,0
1433,-100,4,1,0,70,0,0
11845,-100,4,1,0,40,0,0
12198,-200,4,1,0,20,0,0
12727,-100,4,1,0,70,0,0
23845,-100,4,1,0,70,0,0
23904,-100,4,1,0,70,0,0
23963,-100,4,1,0,70,0,0
24021,-400,4,1,0,40,0,0
24373,-400,4,1,0,40,0,0
32492,-200,4,1,0,40,0,0
34786,-200,4,1,0,70,0,0
35316,-66.6666666666667,4,1,0,80,0,1
37786,-100,4,1,0,80,0,1
38139,-66.6666666666667,4,1,0,80,0,1
40963,-100,4,1,0,80,0,1
41316,-66.6666666666667,4,1,0,80,0,1
43433,-100,4,1,0,80,0,1
43786,-66.6666666666667,4,1,0,80,0,1
46433,-133.333333333333,4,1,0,80,0,1
46610,-66.6666666666667,4,1,0,80,0,1
57551,-66.6666666666667,4,1,0,80,0,1
57727,-133.333333333333,4,1,0,80,0,1
57904,-200,4,1,0,40,0,0
58256,-200,4,1,0,40,0,0
62139,-100,4,1,0,50,0,0
62491,-100,4,1,0,50,0,0
62845,-200,4,1,0,50,0,0
63639,-200,4,1,0,50,0,0
63904,-200,4,1,0,50,0,0
68844,-200,4,1,0,50,0,0
69198,-133.333333333333,4,1,0,60,0,0
78551,-133.333333333333,4,1,0,50,0,0
79257,-133.333333333333,4,1,0,30,0,0
79610,-133.333333333333,4,1,0,30,0,0
80139,-133.333333333333,4,1,0,60,0,0
80316,-133.333333333333,4,1,0,60,0,0
80492,-133.333333333333,4,1,0,60,0,0
81904,-66.6666666666667,4,1,0,80,0,1
84374,-100,4,1,0,80,0,1
84727,-66.6666666666667,4,1,0,80,0,1
87551,-100,4,1,0,80,0,1
87904,-66.6666666666667,4,1,0,80,0,1
90021,-100,4,1,0,80,0,1
90374,-66.6666666666667,4,1,0,80,0,1
93021,-133.333333333333,4,1,0,80,0,1
93198,-66.6666666666667,4,1,0,80,0,1
104139,-66.6666666666667,4,1,0,80,0,1
104316,-133.333333333333,4,1,0,80,0,1
104492,-133.333333333333,4,1,0,30,0,0
110139,-133.333333333333,4,1,0,40,0,0
115433,-133.333333333333,4,1,0,20,0,0

[Colours]
Combo1 : 232,145,102
Combo2 : 159,185,180
Combo3 : 245,177,116
Combo4 : 143,172,199

[HitObjects]
85,80,22,5,8,0:3:0:0:
85,80,198,1,4,0:3:0:0:
266,30,374,5,8,0:3:0:0:
266,30,550,1,4,0:3:0:0:
85,80,727,5,8,0:3:0:0:
94,127,903,1,4,0:3:0:0:
266,30,1080,6,0,L|258:82,1,47.5,8|0,0:3|0:0,0:0:0:0:
0,155,1433,6,0,P|76:162|172:190,1,142.5,4|0,0:0|0:0,0:0:0:0:
174,204,1786,2,0,P|171:139|213:119,1,95,8|0,0:0|0:0,0:0:0:0:
92,248,2139,1,4,0:3:0:0:
92,248,2316,1,4,0:3:0:0:
233,321,2492,1,8,0:0:0:0:
189,123,2669,1,0,0:0:0:0:
258,181,2845,6,0,L|408:154,1,142.5,4|0,0:3|0:0,0:0:0:0:
427,101,3198,2,0,B|409:128|409:128|342:140,1,95,8|0,0:0|0:0,0:0:0:0:
399,19,3551,6,0,P|343:99|369:177,1,142.5,4|0,0:3|0:0,0:0:0:0:
346,138,3904,2,0,P|319:73|272:51,1,95,8|0,0:0|0:0,0:0:0:0:
512,276,4257,6,0,P|435:271|338:247,1,142.5,4|0,0:3|0:0,0:0:0:0:
335,233,4610,2,0,P|366:295|353:346,1,95,8|0,0:0|0:0,0:0:0:0:
442,168,4963,1,4,0:3:0:0:
442,168,5139,1,4,0:3:0:0:
281,300,5316,1,8,0:0:0:0:
445,356,5492,1,0,0:0:0:0:
335,233,5669,6,0,L|184:259,1,142.5,4|0,0:3|0:0,0:0:0:0:
131,220,6022,2,0,B|157:239|157:239|223:228,1,95,8|0,0:0|0:0,0:0:0:0:
99,131,6374,6,0,P|43:211|69:289,1,142.5,4|0,0:3|0:0,0:0:0:0:
47,251,6727,2,0,P|19:186|-27:163,1,95,8|0,0:0|0:0,0:0:0:0:
131,220,7080,5,4,0:3:0:0:
5,329,7257,2,0,P|81:330|119:305,1,95,0|8,0:0|0:0,0:0:0:0:
211,380,7610,2,0,P|183:340|190:275,2,95,0|4|4,0:0|0:3|0:3,0:0:0:0:
131,220,8139,5,8,0:0:0:0:
265,322,8316,2,0,P|324:326|416:344,1,142.5,4|0,0:3|0:0,0:0:0:0:
480,379,8669,2,0,P|492:341|457:277,2,95,4|8|0,0:3|0:0|0:0,0:0:0:0:
405,341,9198,5,4,0:3:0:0:
490,210,9374,1,4,0:3:0:0:
336,288,9551,1,8,0:0:0:0:
406,145,9727,5,0,0:0:0:0:
336,288,9904,1,0,0:0:0:0:
490,210,10080,2,0,L|362:187,1,95,4|8,0:3|0:0,0:0:0:0:
236,232,10433,2,0,P|215:192|236:116,2,95,0|4|4,0:0|0:3|0:3,0:0:0:0:
289,99,10963,1,8,0:0:0:0:
289,99,11139,5,0,0:0:0:0:
130,199,11316,1,0,0:0:0:0:
358,171,11492,2,0,P|263:147|193:141,1,142.5,4|0,0:3|0:0,0:0:0:0:
39,158,11845,2,0,P|66:217|137:162,1,142.5
177,52,12198,2,0,P|132:63|106:118,1,95,4|0,0:3|0:0,0:0:0:0:
40,19,12727,6,0,P|134:48|214:53,1,142.5,4|0,0:0|0:0,0:0:0:0:
261,21,13080,2,0,P|264:76|215:129,1,95,8|0,0:0|0:0,0:0:0:0:
284,194,13433,1,4,0:3:0:0:
177,53,13610,1,4,0:3:0:0:
337,115,13786,2,0,P|427:86|497:46,1,142.5,8|0,0:0|0:0,0:0:0:0:
511,0,14139,6,0,P|481:94|476:174,1,142.5,0|0,0:3|0:0,0:0:0:0:
512,219,14492,1,8,0:0:0:0:
512,219,14669,1,0,0:0:0:0:
337,115,14845,1,4,0:3:0:0:
442,296,15021,1,4,0:3:0:0:
289,380,15198,2,0,P|310:283|346:211,1,142.5,8|0,0:0|0:0,0:0:0:0:
337,115,15551,6,0,P|240:136|168:172,1,142.5,4|0,0:3|0:0,0:0:0:0:
142,200,15904,2,0,P|159:146|126:83,1,95,8|0,0:0|0:0,0:0:0:0:
205,53,16257,1,4,0:3:0:0:
64,147,16433,1,4,0:3:0:0:
280,235,16610,2,0,P|185:205|105:200,1,142.5,8|0,0:0|0:0,0:0:0:0:
60,247,16963,5,0,0:0:0:0:
60,247,17139,1,4,0:3:0:0:
149,110,17316,1,8,0:0:0:0:
170,291,17492,1,0,0:0:0:0:
280,235,17669,5,4,0:3:0:0:
64,147,17845,1,4,0:3:0:0:
280,235,18021,2,0,P|378:230|455:208,1,142.5,8|0,0:0|0:0,0:0:0:0:
457,145,18374,6,0,P|377:148|347:224,1,142.5,4|0,0:0|0:0,0:0:0:0:
241,307,18727,2,0,P|203:270|205:209,1,95,8|0,0:0|0:0,0:0:0:0:
340,87,19080,1,4,0:3:0:0:
280,235,19257,1,4,0:3:0:0:
254,86,19433,2,0,P|283:11|365:10,1,142.5,8|0,0:0|0:0,0:0:0:0:
388,7,19786,6,0,P|293:36|213:41,1,142.5
166,1,20139,1,8,0:0:0:0:
166,1,20316,1,0,0:0:0:0:
209,196,20492,1,4,0:3:0:0:
82,135,20669,1,4,0:3:0:0:
323,203,20845,2,0,P|226:224|154:260,1,142.5,8|0,0:0|0:0,0:0:0:0:
90,249,21198,6,0,P|186:270|258:306,1,142.5,4|0,0:3|0:0,0:0:0:0:
282,360,21551,2,0,P|312:313|296:242,1,95,8|0,0:0|0:0,0:0:0:0:
209,196,21904,1,4,0:3:0:0:
282,360,22080,1,4,0:3:0:0:
448,314,22257,2,0,P|351:292|279:256,1,142.5,8|0,0:0|0:0,0:0:0:0:
226,287,22610,5,0,0:0:0:0:
226,287,22786,1,4,0:3:0:0:
308,177,22963,1,8,0:0:0:0:
308,177,23139,1,0,0:0:0:0:
149,199,23316,5,4,0:3:0:0:
282,360,23492,1,4,0:3:0:0:
139,350,23669,2,0,P|68:360|-32:389,1,142.5,8|0,0:0|0:0,0:0:0:0:
0,379,24021,1,0,0:0:0:0:
483,280,30021,6,0,P|499:230|489:181,1,95,8|8,0:0|0:0,0:0:0:0:
405,308,31433,2,0,P|364:276|315:268,1,95,8|8,0:0|0:0,0:0:0:0:
495,52,32492,5,0,0:0:0:0:
495,52,32669,2,0,P|470:67|434:72,1,47.5,0|8,0:0|0:0,0:0:0:0:
376,32,33021,2,0,P|348:21|312:22,1,47.5
403,142,33374,2,0,P|368:132|352:120,1,47.5
343,110,33727,5,0,0:0:0:0:
247,121,34080,1,0,0:0:0:0:
158,131,34433,1,0,0:0:0:0:
126,245,34786,5,4,0:3:0:0:
63,55,34963,1,8,0:3:0:0:
293,232,35316,6,0,B|347:199|365:87|254:75|245:127,1,213.750008153916,4|0,0:0|0:0,0:0:0:0:
174,75,35669,2,0,P|159:134|240:204,1,142.500005435944,8|0,0:0|0:0,0:0:0:0:
368,25,36021,1,4,0:3:0:0:
204,196,36198,1,4,0:3:0:0:
418,117,36374,1,8,0:0:0:0:
204,196,36551,2,0,P|131:180|59:161,1,142.500005435944,4|0,0:0|0:0,0:0:0:0:
141,351,36904,2,0,P|68:335|-4:316,1,142.500005435944,4|8,0:0|0:0,0:0:0:0:
280,253,37257,2,0,P|300:169|253:120,1,142.500005435944,0|4,0:0|0:3,0:0:0:0:
65,163,37610,1,4,0:3:0:0:
173,275,37786,2,0,P|256:294|342:312,1,142.5,8|0,0:0|0:0,0:0:0:0:
369,383,38139,6,0,B|315:350|297:238|408:226|417:278,1,213.750008153916,4|0,0:0|0:0,0:0:0:0:
471,150,38492,2,0,P|466:212|397:281,1,142.500005435944,8|0,0:0|0:0,0:0:0:0:
301,193,38845,1,4,0:3:0:0:
472,359,39021,1,4,0:3:0:0:
396,173,39198,1,8,0:0:0:0:
252,326,39374,2,0,P|275:256|303:187,1,142.500005435944,4|0,0:0|0:0,0:0:0:0:
122,384,39727,2,0,P|145:314|173:245,1,142.500005435944,4|8,0:0|0:0,0:0:0:0:
365,261,40080,1,0,0:0:0:0:
171,251,40257,1,4,0:3:0:0:
337,341,40433,1,4,0:3:0:0:
214,144,40610,1,8,0:0:0:0:
252,326,40786,1,4,0:3:0:0:
122,327,40963,6,0,P|84:238|127:174,1,142.5,4|0,0:0|0:0,0:0:0:0:
99,201,41316,6,0,P|21:236|4:303,1,142.500005435944,8|0,0:0|0:0,0:0:0:0:
32,384,41669,1,4,0:3:0:0:
32,384,41845,1,4,0:3:0:0:
171,251,42021,6,0,P|185:183|146:125,1,142.500005435944,8|0,0:0|0:0,0:0:0:0:
60,108,42374,1,0,0:0:0:0:
222,180,42551,2,0,P|314:169|393:129,1,142.500005435944,4|8,0:3|0:0,0:0:0:0:
455,73,42904,1,0,0:0:0:0:
323,257,43080,1,4,0:3:0:0:
468,181,43257,1,4,0:3:0:0:
293,97,43433,2,0,P|202:80|125:37,1,142.5,8|0,0:0|0:0,0:0:0:0:
26,169,43786,6,0,B|41:138|99:106|138:154|77:134|136:116|104:161|99:105|138:154|177:166|220:109,1,213.750008153916,4|0,0:0|0:0,0:0:0:0:
157,59,44139,1,8,0:0:0:0:
252,231,44316,1,4,0:3:0:0:
253,34,44492,1,4,0:3:0:0:
159,273,44669,2,0,B|118:306|118:306|100:202,1,142.500005435944,4|8,0:0|0:0,0:0:0:0:
255,324,45021,5,0,0:0:0:0:
373,155,45198,2,0,P|346:88|263:72,1,142.500005435944,4|4,0:0|0:3,0:0:0:0:
410,370,45551,1,8,0:0:0:0:
452,114,45728,2,0,P|395:69|315:97,1,142.500005435944,4|4,0:0|0:3,0:0:0:0:
338,246,46080,5,4,0:3:0:0:
512,276,46257,1,8,0:0:0:0:
266,179,46433,2,0,P|284:166|300:157,2,23.7500009059906,4|0|0,0:3|0:0|0:0,0:0:0:0:
266,179,46610,6,0,P|234:266|326:344,1,213.750008153916,4|0,0:0|0:0,0:0:0:0:
311,342,46963,2,0,B|277:336|251:308|251:308|213:304|179:343,1,142.500005435944,8|0,0:0|0:0,0:0:0:0:
168,175,47316,1,4,0:3:0:0:
338,246,47492,1,4,0:3:0:0:
171,357,47669,1,8,0:0:0:0:
244,115,47845,2,0,P|263:139|264:180,1,71.2500027179719,4|0,0:0|0:0,0:0:0:0:
291,52,48021,6,0,P|239:71|80:104,1,213.750008153916,4|0,0:3|0:0,0:0:0:0:
28,166,48374,2,0,P|-4:121|31:38,1,142.500005435944,8|0,0:0|0:0,0:0:0:0:
129,186,48727,1,4,0:3:0:0:
244,115,48904,1,4,0:3:0:0:
104,23,49080,1,8,0:0:0:0:
221,199,49257,1,0,0:0:0:0:
354,57,49433,2,0,B|318:32|318:32|335:139,1,142.500005435944,4|0,0:3|0:0,0:0:0:0:
312,212,49786,5,8,0:0:0:0:
244,115,49963,1,0,0:0:0:0:
479,95,50139,1,4,0:3:0:0:
283,2,50315,1,4,0:3:0:0:
412,187,50492,1,8,0:0:0:0:
193,193,50669,2,0,P|149:141|190:38,1,142.500005435944,4|0,0:0|0:0,0:0:0:0:
244,115,51021,1,4,0:3:0:0:
244,115,51198,1,8,0:0:0:0:
289,214,51374,2,0,P|276:272|263:363,1,142.500005435944,4|4,0:0|0:3,0:0:0:0:
350,136,51727,1,4,0:3:0:0:
193,193,51904,2,0,P|135:206|43:218,1,142.500005435944,12|0,0:0|0:0,0:0:0:0:
28,97,52257,6,0,P|79:100|117:177,1,142.500005435944,4|0,0:0|0:0,0:0:0:0:
30,334,52610,2,0,P|7:287|55:216,1,142.500005435944,12|0,0:0|0:0,0:0:0:0:
269,282,52963,2,0,B|112:259,1,142.500005435944,4|0,0:0|0:0,0:0:0:0:
199,137,53316,1,8,0:0:0:0:
352,326,53492,2,0,P|352:246|293:196,1,142.500005435944,4|0,0:3|0:0,0:0:0:0:
117,174,53845,1,4,0:3:0:0:
269,282,54021,1,8,0:0:0:0:
283,64,54198,2,0,P|301:131|312:231,2,142.500005435944,0|4|4,0:0|0:3|0:3,0:0:0:0:
417,17,54727,6,0,L|465:26,1,35.625001358986,8|0,0:0|0:0,0:0:0:0:
379,126,54904,2,0,L|330:116,1,35.625001358986
463,123,55080,6,0,P|459:174|382:212,1,142.500005435944,4|0,0:0|0:0,0:0:0:0:
214,253,55433,2,0,P|270:241|341:289,1,142.500005435944,12|0,0:0|0:0,0:0:0:0:
512,339,55786,2,0,B|356:365,1,142.500005435944,4|0,0:0|0:0,0:0:0:0:
214,253,56139,1,8,0:0:0:0:
154,180,56316,5,4,0:3:0:0:
254,335,56492,1,8,0:0:0:0:
312,167,56669,1,0,0:3:0:0:
147,333,56845,1,8,0:0:0:0:
338,284,57021,1,0,0:0:0:0:
64,209,57197,1,4,0:3:0:0:
254,335,57374,1,4,0:3:0:0:
58,300,57550,1,4,0:3:0:0:
200,94,57727,2,0,L|220:70,2,23.7500009059906
200,94,57904,6,0,P|273:84|348:64,1,142.5
339,67,58610,1,0,0:0:0:0:
0,349,59316,6,0,P|73:359|148:379,1,142.5
139,376,60022,1,0,0:0:0:0:
470,240,60727,6,0,P|480:313|500:388,1,142.5
497,378,61433,1,0,0:0:0:0:
76,0,62139,6,0,B|71:31|71:31|80:50|80:50|84:42|84:42|96:74|96:74|90:95|90:95|93:114|93:114|69:122|69:122|46:148,1,190,2|0,0:0|0:0,0:0:0:0:
50,143,62845,1,0,0:0:0:0:
161,159,63198,6,0,L|153:205,1,47.5
242,216,63463,2,0,L|234:262,1,47.5
320,315,63727,1,0,0:0:0:0:
320,315,63816,1,0,0:0:0:0:
320,315,63904,6,0,L|335:208,1,95,8|0,0:0|0:0,0:0:0:0:
467,104,64610,2,0,P|475:152|482:211,1,95,8|0,0:0|0:0,0:0:0:0:
480,197,65139,1,0,0:0:0:0:
357,138,65316,2,0,P|308:147|294:153,1,47.5,8|0,0:0|0:0,0:0:0:0:
209,68,65845,1,0,0:0:0:0:
209,68,66021,2,0,P|257:77|272:83,2,47.5,8|0|0,0:0|0:0|0:0,0:0:0:0:
204,204,66727,2,0,P|155:199|99:173,1,95,8|0,0:0|0:0,0:0:0:0:
302,68,67433,2,0,P|253:77|239:83,2,47.5,8|0|0,0:0|0:0|0:0,0:0:0:0:
357,138,68139,2,0,P|405:128|462:115,1,95,8|0,0:0|0:0,0:0:0:0:
469,18,68845,5,8,0:0:0:0:
450,118,69021,1,0,0:0:0:0:
304,75,69198,2,0,L|393:58,1,71.2500027179719
293,177,69551,2,0,L|382:160,1,71.2500027179719,8|0,0:0|0:0,0:0:0:0:
131,7,69904,2,0,L|201:20,1,71.2500027179719
142,109,70257,2,0,L|212:122,1,71.2500027179719,8|0,0:0|0:0,0:0:0:0:
64,180,70610,5,0,0:0:0:0:
46,70,70786,1,0,0:0:0:0:
160,219,70963,1,8,0:0:0:0:
142,109,71139,1,0,0:0:0:0:
61,279,71316,2,0,P|7:259|-11:232,1,71.2500027179719
154,337,71669,2,0,P|109:373|77:375,1,71.2500027179719,8|0,0:0|0:0,0:0:0:0:
264,279,72021,5,0,0:0:0:0:
264,279,72198,1,0,0:0:0:0:
160,219,72374,1,8,0:0:0:0:
160,219,72551,1,0,0:0:0:0:
246,169,72727,1,0,0:0:0:0:
246,169,72904,1,0,0:0:0:0:
142,109,73080,1,8,0:0:0:0:
238,65,73257,5,0,0:0:0:0:
331,117,73433,1,0,0:0:0:0:
323,16,73610,1,0,0:0:0:0:
244,161,73786,1,8,0:0:0:0:
420,60,73963,1,0,0:0:0:0:
412,177,74139,2,0,P|367:213|335:215,1,71.2500027179719
250,167,74492,2,0,P|238:200|244:235,1,71.2500027179719,8|0,0:0|0:0,0:0:0:0:
243,234,74757,5,0,0:0:0:0:
243,234,74845,1,0,0:0:0:0:
152,250,75021,1,0,0:0:0:0:
201,340,75198,2,0,L|131:350,1,71.2500027179719,8|0,0:0|0:0,0:0:0:0:
343,236,75551,1,0,0:0:0:0:
246,243,75727,1,0,0:0:0:0:
308,332,75904,1,8,0:0:0:0:
308,332,76080,5,0,0:0:0:0:
351,227,76257,1,0,0:0:0:0:
246,243,76433,1,0,0:0:0:0:
356,214,76610,1,8,0:0:0:0:
406,308,76786,1,0,0:0:0:0:
466,219,76963,2,0,P|474:172|496:101,1,106.875004076958
494,119,77316,1,8,0:0:0:0:
381,130,77492,5,0,0:0:0:0:
323,199,77669,1,0,0:0:0:0:
296,104,77845,2,0,P|328:56|357:52,1,71.2500027179719,0|8,0:0|0:0,0:0:0:0:
211,70,78198,2,0,P|208:138|261:181,1,106.875004076958
145,199,78551,6,0,P|97:167|93:138,1,71.2500027179719,0|8,0:0|0:0,0:0:0:0:
111,284,78904,2,0,P|179:287|222:234,1,106.875004076958
207,264,79257,5,0,0:0:0:0:
233,283,79610,1,0,0:0:0:0:
259,304,79963,1,0,0:0:0:0:
332,384,80139,6,0,L|338:351,1,17.812500679493
356,254,80316,2,0,L|362:221,1,17.812500679493
423,323,80492,5,0,0:0:0:0:
440,312,80580,1,8,0:3:0:0:
449,301,80669,1,8,0:3:0:0:
448,212,80845,2,8,L|496:220,2,35.625001358986,8|0|8,0:3|0:0|0:3,0:3:0:0:
402,148,81110,1,4,0:3:0:0:
402,148,81198,2,0,L|353:156,1,35.625001358986,8|8,0:3|0:3,0:0:0:0:
303,110,81374,2,0,L|254:101,1,35.625001358986,4|4,0:3|0:3,0:0:0:0:
238,24,81551,1,4,0:3:0:0:
220,29,81639,1,4,0:3:0:0:
206,40,81727,1,4,0:3:0:0:
196,56,81816,1,4,0:3:0:0:
187,87,81904,6,0,B|190:173|85:209|50:150|78:73|114:93,1,213.750008153916,4|0,0:0|0:0,0:0:0:0:
103,11,82257,2,0,P|46:25|5:99,1,142.500005435944,8|0,0:0|0:0,0:0:0:0:
112,216,82610,1,4,0:3:0:0:
92,94,82786,1,4,0:3:0:0:
23,264,82963,1,8,0:0:0:0:
173,145,83139,2,0,P|245:131|319:120,1,142.500005435944,4|0,0:0|0:0,0:0:0:0:
202,274,83492,2,0,P|271:296|341:322,1,142.500005435944,4|8,0:0|0:0,0:0:0:0:
92,94,83845,2,0,P|77:178|129:223,1,142.500005435944,4|0,0:0|0:0,0:0:0:0:
117,320,84198,1,4,0:3:0:0:
315,163,84374,2,0,P|230:151|142:143,1,142.5,8|0,0:0|0:0,0:0:0:0:
244,205,84727,6,0,B|277:261|315:257|362:216|347:270|324:220|379:248|315:257|362:217|413:259|423:292,1,213.750008153916,4|0,0:0|0:0,0:0:0:0:
422,290,85080,2,0,P|398:209|428:160,1,142.500005435944,8|0,0:0|0:0,0:0:0:0:
306,355,85433,1,4,0:3:0:0:
486,233,85610,1,4,0:3:0:0:
316,163,85786,1,8,0:0:0:0:
461,373,85963,2,0,P|475:301|486:227,1,142.500005435944,4|0,0:0|0:0,0:0:0:0:
306,355,86316,2,0,P|295:284|281:214,1,142.500005435944,4|0,0:0|0:0,0:0:0:0:
124,169,86669,1,0,0:0:0:0:
197,353,86845,1,4,0:3:0:0:
0,298,87021,1,4,0:3:0:0:
191,243,87198,1,8,0:0:0:0:
79,383,87374,1,4,0:3:0:0:
29,199,87551,6,0,P|40:102|109:68,1,142.5,4|0,0:0|0:0,0:0:0:0:
72,78,87904,6,0,P|107:156|174:173,1,142.500005435944,8|0,0:0|0:0,0:0:0:0:
241,130,88257,1,4,0:3:0:0:
241,130,88433,1,4,0:3:0:0:
307,220,88610,6,0,P|357:150|338:84,1,142.500005435944,8|4,0:0|0:3,0:0:0:0:
269,32,88963,1,0,0:0:0:0:
156,173,89139,2,0,P|167:265|207:344,1,142.500005435944,4|8,0:3|0:0,0:0:0:0:
280,317,89492,1,0,0:0:0:0:
86,268,89668,1,4,0:3:0:0:
241,130,89845,1,4,0:3:0:0:
13,211,90021,2,0,P|13:307|64:351,1,142.500005435944,8|0,0:0|0:0,0:0:0:0:
81,349,90374,6,0,B|151:363|187:305|187:305|244:296|267:366,1,213.750008153916,4|0,0:0|0:0,0:0:0:0:
334,236,90727,1,8,0:0:0:0:
107,259,90904,1,0,0:0:0:0:
244,188,91080,1,4,0:3:0:0:
363,326,91257,2,0,B|396:363|396:363|421:261,1,142.500005435944,8|4,0:0|0:0,0:0:0:0:
259,346,91610,5,0,0:0:0:0:
506,295,91787,2,0,P|480:202|419:172,1,142.500005435944,12|4,0:0|0:3,0:0:0:0:
445,363,92139,1,8,0:0:0:0:
511,110,92316,2,0,P|417:85|361:123,1,142.500005435944,4|4,0:0|0:3,0:0:0:0:
418,272,92669,5,8,0:0:0:0:
302,176,92845,1,4,0:3:0:0:
442,173,93021,2,0,P|459:157|464:145,2,23.7500009059906,4|0|0,0:3|0:0|0:0,0:0:0:0:
445,178,93198,6,0,P|393:197|234:230,1,213.750008153916,4|0,0:0|0:3,0:3:0:0:
189,301,93551,2,0,P|149:252|165:180,1,142.500005435944,8|0,0:0|0:0,0:0:0:0:
302,176,93904,1,4,0:3:0:0:
259,346,94081,1,4,0:3:0:0:
165,179,94257,1,8,0:0:0:0:
126,384,94433,2,0,P|98:363|89:311,1,71.2500027179719,4|0,0:0|0:0,0:0:0:0:
0,349,94610,6,0,B|86:352|122:247|63:212|-14:240|6:276,1,213.750008153916,4|0,0:3|0:0,0:0:0:0:
7,254,94963,2,0,P|10:183|54:128,1,142.500005435944,8|0,0:0|0:0,0:0:0:0:
191,297,95316,1,4,0:3:0:0:
134,184,95492,1,4,0:3:0:0:
236,205,95669,1,8,0:0:0:0:
7,254,95845,1,0,0:0:0:0:
111,330,96021,2,0,P|186:342|253:369,1,142.500005435944,4|0,0:3|0:0,0:0:0:0:
315,290,96374,5,8,0:0:0:0:
236,205,96551,1,0,0:0:0:0:
247,366,96727,1,4,0:3:0:0:
333,191,96903,1,4,0:3:0:0:
191,297,97080,1,8,0:0:0:0:
366,98,97257,2,0,P|421:136|409:246,1,142.500005435944,4|0,0:0|0:0,0:0:0:0:
277,112,97609,1,4,0:3:0:0:
277,112,97786,1,8,0:0:0:0:
333,191,97963,2,0,P|320:249|307:340,1,142.500005435944,4|4,0:0|0:3,0:0:0:0:
432,206,98316,1,4,0:3:0:0:
506,73,98493,2,0,P|448:86|356:98,1,142.500005435944,12|0,0:0|0:0,0:0:0:0:
221,62,98845,6,0,B|251:92|251:92|231:204,1,142.500005435944,4|0,0:0|0:0,0:0:0:0:
252,306,99198,2,0,B|210:316|210:316|123:243,1,142.500005435944,12|0,0:0|0:0,0:0:0:0:
28,192,99551,2,0,P|87:127|167:148,1,142.500005435944,4|4,0:0|0:3,0:0:0:0:
43,277,99904,1,8,0:0:0:0:
233,190,100080,2,0,P|259:105|200:47,1,142.500005435944,4|0,0:0|0:0,0:0:0:0:
28,192,100433,1,4,0:3:0:0:
169,322,100610,1,8,0:0:0:0:
136,128,100786,2,0,P|89:74|-11:80,2,142.500005435944,0|4|4,0:3|0:3|0:3,0:0:0:0:
268,57,101316,6,0,L|220:66,1,35.625001358986,8|0,0:0|0:0,0:0:0:0:
290,166,101493,2,0,L|339:156,1,35.625001358986
404,93,101669,6,0,B|433:124|433:124|409:236,1,142.500005435944,4|0,0:0|0:0,0:0:0:0:
180,234,102021,2,0,B|194:193|194:193|303:162,1,142.500005435944,12|0,0:0|0:0,0:0:0:0:
419,361,102374,2,0,P|333:341|311:261,1,142.500005435944,4|4,0:0|0:3,0:0:0:0:
289,165,102727,1,8,0:0:0:0:
200,336,102904,5,0,0:0:0:0:
412,221,103080,1,0,0:0:0:0:
173,151,103257,1,4,0:3:0:0:
310,297,103433,1,8,0:0:0:0:
72,189,103610,1,0,0:0:0:0:
289,165,103786,1,4,0:3:0:0:
73,345,103963,1,4,0:3:0:0:
0,116,104139,1,8,0:0:0:0:
221,238,104316,2,0,L|241:262,2,23.7500009059906
221,238,104493,6,0,P|294:228|369:208,1,142.5
360,210,105021,1,0,0:0:0:0:
353,125,105198,2,0,P|305:147|297:175,1,71.2500027179719
420,71,105551,2,0,P|377:41|348:47,1,71.2500027179719
440,151,105904,1,0,0:0:0:0:
361,305,106257,1,0,0:0:0:0:
353,125,106610,1,0,0:0:0:0:
266,296,106963,1,0,0:0:0:0:
259,153,107316,6,0,P|186:163|111:183,1,142.5
120,180,107844,1,0,0:0:0:0:
119,85,108021,2,0,P|166:107|175:135,1,71.2500027179719
50,28,108374,2,0,P|92:-1|121:4,1,71.2500027179719
34,113,108727,1,0,0:0:0:0:
182,268,109080,1,0,0:0:0:0:
173,122,109433,1,0,0:0:0:0:
48,251,109786,1,0,0:0:0:0:
241,361,110139,6,0,L|323:345,1,71.2500027179719
363,277,110492,1,8,0:0:0:0:
293,226,110669,2,0,L|308:143,1,71.2500027179719
456,118,111198,1,8,0:0:0:0:
358,20,111551,6,0,L|275:35,1,71.2500027179719
236,104,111904,1,8,0:0:0:0:
306,155,112081,2,0,L|290:237,1,71.2500027179719
143,263,112610,1,8,0:0:0:0:
77,57,112963,6,0,L|159:72,1,71.2500027179719
199,141,113316,1,8,0:0:0:0:
129,192,113493,2,0,L|144:274,1,71.2500027179719
292,300,114022,1,8,0:0:0:0:
312,196,114198,5,0,0:0:0:0:
225,233,114374,1,0,0:0:0:0:
225,233,114551,1,0,0:0:0:0:
386,262,114904,1,0,0:0:0:0:
304,109,115257,1,0,0:0:0:0:
304,109,115433,1,12,0:0:0:0:
