osu file format v14

[General]
AudioFilename: audio.mp3
AudioLeadIn: 0
PreviewTime: 80139
Countdown: 0
SampleSet: Normal
StackLeniency: 0.4
Mode: 0
LetterboxInBreaks: 0
WidescreenStoryboard: 0

[Editor]
DistanceSpacing: 1.4
BeatDivisor: 4
GridSize: 16
TimelineZoom: 1

[Metadata]
Title:Mistake
TitleUnicode:Mistake
Artist:1Booth
ArtistUnicode:1Booth
Creator:Nekathe
Version:Hard
Source:
Tags:english indie pop emo yungspoiler alternative midwest lukebooth luke rock alt hyperpop zevonik
BeatmapID:4495849
BeatmapSetID:2124401

[Difficulty]
HPDrainRate:4
CircleSize:3.8
OverallDifficulty:5
ApproachRate:7
SliderMultiplier:1.6
SliderTickRate:1

[Events]
//Background and Video events
0,0,"68893230_p0.jpg",0,0
//Break Periods
2,24221,29121
2,58104,63004
2,104692,109239
//Storyboard Layer 0 (Background)
//Storyboard Layer 1 (Fail)
//Storyboard Layer 2 (Pass)
//Storyboard Layer 3 (Foreground)
//Storyboard Layer 4 (Overlay)
//Storyboard Sound Samples

[TimingPoints]
22,352.941176470588,4,1,0,30,1,0
374,-133.333333333333,4,1,0,40,0,0
727,-100,4,1,0,50,0,0
1080,-100,4,1,0,60,0,0
1433,-100,4,1,0,70,0,0
11845,-133.333333333333,4,1,0,40,0,0
12198,-133.333333333333,4,1,0,20,0,0
12727,-95.2380952380952,4,1,0,70,0,0
23669,-133.333333333333,4,1,0,70,0,0
24021,-95.2380952380952,4,1,0,40,0,0
29669,-400,4,1,0,40,0,0
32492,-400,4,1,0,50,0,0
32669,-200,4,1,0,50,0,0
33727,-133.333333333333,4,1,0,50,0,0
34786,-133.333333333333,4,1,0,70,0,0
35316,-90.9090909090909,4,1,0,80,0,1
57904,-400,4,1,0,40,0,0
62139,-400,4,1,0,50,0,0
69198,-111.111111111111,4,1,0,60,0,0
78551,-111.111111111111,4,1,0,50,0,0
79257,-111.111111111111,4,1,0,30,0,0
80139,-111.111111111111,4,1,0,60,0,0
81904,-90.9090909090909,4,1,0,80,0,1
104492,-90.9090909090909,4,1,0,20,0,0
110139,-90.9090909090909,4,1,0,40,0,0
115433,-90.9090909090909,4,1,0,20,0,0

[Colours]
Combo1 : 232,145,102
Combo2 : 159,185,180
Combo3 : 245,177,116
Combo4 : 143,172,199

[HitObjects]
2,93,22,5,8,0:3:0:0:
2,93,198,1,4,0:3:0:0:
66,166,374,2,0,P|100:182|142:181,1,60.0000022888184,8|4,0:3|0:3,0:0:0:0:
107,70,727,5,8,0:3:0:0:
107,70,903,1,4,0:3:0:0:
195,111,1080,2,0,P|230:98|260:67,1,80,8|4,0:3|0:3,0:0:0:0:
313,178,1433,6,0,L|477:206,2,160,4|8|4,0:0|0:0|0:3,0:0:0:0:
288,186,2316,1,4,0:3:0:0:
228,262,2492,2,0,P|226:283|287:346,1,80,8|0,0:0|0:0,0:0:0:0:
323,282,2845,5,4,0:3:0:0:
323,282,3021,1,0,0:0:0:0:
367,369,3198,2,0,P|346:317|437:280,1,160,8|4,0:0|0:3,0:0:0:0:
459,357,3727,1,0,0:0:0:0:
512,288,3904,2,0,P|511:256|480:202,1,80,8|0,0:0|0:0,0:0:0:0:
347,162,4257,6,0,L|183:134,2,160,4|8|4,0:3|0:0|0:3,0:0:0:0:
372,150,5139,1,4,0:3:0:0:
474,62,5316,2,0,P|464:42|380:18,1,80,8|0,0:0|0:0,0:0:0:0:
332,59,5669,5,4,0:3:0:0:
332,59,5845,1,0,0:0:0:0:
260,3,6021,2,0,L|78:34,1,160,8|4,0:0|0:3,0:0:0:0:
90,49,6551,1,0,0:0:0:0:
161,116,6727,1,8,0:0:0:0:
69,139,6904,1,0,0:0:0:0:
143,212,7080,6,0,P|184:209|308:149,2,160,4|8|4,0:3|0:0|0:3,0:0:0:0:
117,207,7963,1,4,0:3:0:0:
28,261,8139,1,8,0:0:0:0:
28,261,8316,2,0,P|73:302|116:307,1,80,4|0,0:3|0:0,0:0:0:0:
175,329,8669,5,4,0:3:0:0:
235,257,8845,2,0,P|293:275|319:310,1,80,8|0,0:0|0:0,0:0:0:0:
437,326,9198,1,4,0:3:0:0:
383,256,9374,1,4,0:3:0:0:
347,362,9551,1,8,0:0:0:0:
462,221,9727,5,0,0:0:0:0:
462,221,9904,2,0,P|423:181|375:176,1,80,0|4,0:0|0:3,0:0:0:0:
365,89,10257,2,0,P|324:126|319:175,1,80,8|0,0:0|0:0,0:0:0:0:
328,232,10610,1,4,0:3:0:0:
328,232,10786,1,4,0:3:0:0:
235,287,10963,1,8,0:0:0:0:
216,182,11139,5,0,0:0:0:0:
216,182,11316,2,0,P|177:221|129:226,2,80,0|0|0,0:0|0:3|0:0,0:0:0:0:
133,136,11845,2,0,L|113:260,2,120.000004577637,0|0|0,0:0|0:3|0:0,0:0:0:0:
204,82,12727,6,0,P|280:70|386:27,1,167.999994873047,4|8,0:0|0:0,0:0:0:0:
385,27,13257,1,0,0:0:0:0:
483,72,13433,1,4,0:3:0:0:
397,127,13610,1,4,0:3:0:0:
487,95,13786,2,0,L|469:186,1,83.9999974365235,8|0,0:0|0:0,0:0:0:0:
397,240,14139,5,0,0:3:0:0:
397,240,14316,1,0,0:0:0:0:
490,282,14492,2,0,L|390:300,1,83.9999974365235,8|0,0:0|0:0,0:0:0:0:
325,350,14845,1,4,0:3:0:0:
269,273,15022,1,4,0:3:0:0:
189,320,15198,2,0,B|88:335|88:335|76:376,1,125.999996154785,8|0,0:0|0:0,0:0:0:0:
30,384,15551,6,0,P|51:309|58:196,1,167.999994873047,4|8,0:3|0:0,0:0:0:0:
50,198,16080,1,0,0:0:0:0:
147,241,16257,1,4,0:3:0:0:
122,137,16433,1,4,0:3:0:0:
219,176,16610,2,0,L|200:76,1,83.9999974365235,8|0,0:0|0:0,0:0:0:0:
158,24,16963,5,0,0:0:0:0:
158,24,17140,1,4,0:3:0:0:
241,77,17316,2,0,P|284:72|340:58,1,83.9999974365235,8|0,0:0|0:0,0:0:0:0:
404,114,17669,1,4,0:3:0:0:
487,71,17846,1,4,0:3:0:0:
507,162,18022,2,0,B|407:141|407:141|381:175,1,125.999996154785,8|0,0:0|0:0,0:0:0:0:
397,201,18374,6,0,B|371:225|371:225|272:234|272:234|238:265,1,167.999994873047,4|8,0:0|0:0,0:0:0:0:
230,286,18904,1,0,0:0:0:0:
136,260,19080,1,4,0:3:0:0:
156,357,19257,1,4,0:3:0:0:
114,265,19433,2,0,L|20:280,1,83.9999974365235,8|0,0:0|0:0,0:0:0:0:
36,383,19786,5,0,0:0:0:0:
36,383,19963,1,0,0:0:0:0:
7,294,20139,2,0,P|-2:247|1:200,1,83.9999974365235,8|0,0:0|0:0,0:0:0:0:
37,122,20492,5,4,0:3:0:0:
101,188,20669,1,4,0:3:0:0:
123,99,20845,2,0,B|224:114|224:114|236:155,1,125.999996154785,8|0,0:0|0:0,0:0:0:0:
274,193,21198,6,0,P|256:149|359:130,1,167.999994873047,4|8,0:3|0:0,0:0:0:0:
358,141,21727,1,0,0:0:0:0:
389,22,21904,1,4,0:3:0:0:
389,22,22080,1,4,0:3:0:0:
446,108,22257,2,0,P|449:166|430:199,1,83.9999974365235,8|0,0:0|0:0,0:0:0:0:
362,243,22610,5,0,0:0:0:0:
362,243,22786,1,4,0:3:0:0:
463,281,22963,1,8,0:0:0:0:
463,281,23139,1,0,0:0:0:0:
369,338,23316,5,4,0:3:0:0:
477,384,23492,1,4,0:3:0:0:
352,332,23669,2,0,B|314:332|294:302|294:302|260:301|238:336,1,120.000004577637,8|0,0:0|0:0,0:0:0:0:
127,46,30021,6,0,P|113:82|105:126,1,80,8|8,0:0|0:0,0:0:0:0:
200,100,31433,2,0,P|190:137|185:181,1,80,8|8,0:0|0:0,0:0:0:0:
277,153,32492,5,0,0:0:0:0:
367,104,32669,2,0,L|445:124,2,80
315,28,33727,1,0,0:0:0:0:
367,187,34080,1,0,0:0:0:0:
227,279,34433,1,0,0:0:0:0:
83,202,34786,5,4,0:3:0:0:
83,202,34963,1,8,0:3:0:0:
113,318,35316,6,0,P|188:321|301:350,1,176.000005371094,4|8,0:0|0:0,0:0:0:0:
399,252,36021,1,4,0:3:0:0:
484,316,36198,1,4,0:3:0:0:
411,234,36374,1,8,0:0:0:0:
494,169,36551,6,0,L|475:65,1,88.000002685547,4|0,0:0|0:0,0:0:0:0:
395,138,36904,2,0,L|376:34,1,88.000002685547,4|8,0:0|0:0,0:0:0:0:
301,112,37257,2,0,L|282:8,1,88.000002685547,0|4,0:0|0:3,0:0:0:0:
203,77,37610,1,4,0:3:0:0:
272,8,37786,1,8,0:0:0:0:
36,0,38139,6,0,P|64:69|86:183,1,176.000005371094,4|8,0:0|0:0,0:0:0:0:
59,280,38844,1,4,0:3:0:0:
156,238,39021,1,4,0:3:0:0:
49,260,39197,1,8,0:0:0:0:
143,366,39374,6,0,L|246:384,1,88.000002685547,4|0,0:0|0:0,0:0:0:0:
235,294,39727,2,0,L|338:312,1,88.000002685547,4|8,0:0|0:0,0:0:0:0:
317,221,40080,2,0,L|420:239,1,88.000002685547,0|4,0:0|0:3,0:0:0:0:
408,142,40433,1,4,0:3:0:0:
429,245,40609,1,8,0:0:0:0:
512,178,40786,1,4,0:3:0:0:
501,44,40963,6,0,P|432:79|322:108,1,176.000005371094,4|8,0:0|0:0,0:0:0:0:
160,19,41669,1,4,0:3:0:0:
194,103,41845,1,4,0:3:0:0:
69,64,42021,1,8,0:0:0:0:
69,64,42198,2,0,L|89:175,1,88.000002685547
167,191,42551,5,4,0:3:0:0:
58,237,42727,1,8,0:0:0:0:
148,310,42904,2,0,L|168:198,1,88.000002685547,0|4,0:0|0:3,0:0:0:0:
123,333,43257,1,4,0:3:0:0:
234,285,43433,1,8,0:0:0:0:
253,279,43786,6,0,P|325:295|431:343,1,176.000005371094,4|8,0:0|0:0,0:0:0:0:
410,366,44316,1,4,0:3:0:0:
512,307,44492,1,4,0:3:0:0:
436,239,44669,2,0,P|427:198|439:134,1,88.000002685547,4|8,0:0|0:0,0:0:0:0:
341,193,45021,5,0,0:0:0:0:
358,93,45198,2,0,P|389:64|450:43,1,88.000002685547,4|4,0:0|0:3,0:0:0:0:
251,135,45551,5,8,0:0:0:0:
339,84,45728,2,0,P|354:45|354:-19,1,88.000002685547,4|4,0:0|0:3,0:0:0:0:
174,56,46080,5,4,0:3:0:0:
268,15,46257,1,8,0:0:0:0:
174,69,46433,1,4,0:3:0:0:
84,0,46610,5,4,0:0:0:0:
54,124,46963,2,0,P|61:192|179:248,1,176.000005371094,8|4,0:0|0:3,0:0:0:0:
228,213,47492,1,4,0:3:0:0:
228,213,47669,1,8,0:0:0:0:
184,328,47845,5,4,0:0:0:0:
323,237,48198,1,0,0:0:0:0:
323,237,48374,2,0,P|315:168|197:112,1,176.000005371094,8|4,0:0|0:3,0:0:0:0:
149,148,48903,1,4,0:3:0:0:
162,56,49080,1,8,0:0:0:0:
78,92,49257,1,0,0:0:0:0:
247,115,49433,6,0,P|319:104|429:65,1,176.000005371094,4|8,0:3|0:0,0:0:0:0:
481,20,49963,1,0,0:0:0:0:
456,151,50139,2,0,L|474:252,1,88.000002685547,4|4,0:3|0:3,0:0:0:0:
403,312,50492,1,8,0:0:0:0:
291,235,50669,2,0,L|392:216,1,88.000002685547,4|0,0:0|0:0,0:0:0:0:
249,329,51021,5,4,0:3:0:0:
249,329,51198,1,8,0:0:0:0:
197,239,51374,2,0,P|210:185|249:158,1,88.000002685547,4|4,0:0|0:3,0:0:0:0:
99,249,51727,1,4,0:3:0:0:
119,159,51904,2,0,P|148:114|187:90,1,88.000002685547,12|0,0:0|0:0,0:0:0:0:
57,52,52257,6,0,L|169:67,1,88.000002685547,4|0,0:0|0:0,0:0:0:0:
229,14,52610,2,0,L|341:29,1,88.000002685547,12|0,0:0|0:0,0:0:0:0:
391,102,52963,2,0,L|503:117,1,88.000002685547,4|0,0:0|0:0,0:0:0:0:
414,12,53316,1,8,0:0:0:0:
299,111,53492,2,0,P|310:148|364:201,1,88.000002685547,4|0,0:3|0:0,0:0:0:0:
431,199,53845,5,4,0:3:0:0:
431,199,54021,1,8,0:0:0:0:
369,268,54198,2,0,L|262:284,2,88.000002685547,0|4|4,0:0|0:3|0:3,0:0:0:0:
505,266,54727,5,8,0:0:0:0:
505,266,54904,1,0,0:0:0:0:
436,351,55080,6,0,L|329:367,1,88.000002685547,4|0,0:0|0:0,0:0:0:0:
282,281,55433,2,0,L|175:297,1,88.000002685547,12|0,0:0|0:0,0:0:0:0:
151,373,55786,2,0,L|44:356,1,88.000002685547,4|0,0:0|0:0,0:0:0:0:
16,268,56139,5,8,0:0:0:0:
45,365,56316,1,4,0:3:0:0:
115,233,56492,5,8,0:0:0:0:
115,233,56668,1,0,0:3:0:0:
51,128,56845,2,0,P|55:101|103:41,1,88.000002685547,8|0,0:0|0:0,0:0:0:0:
243,70,57198,5,4,0:3:0:0:
151,136,57374,1,4,0:3:0:0:
277,187,57551,2,0,P|260:165|252:88,1,88.000002685547,4|0,0:3|0:0,0:0:0:0:
340,4,57904,5,0,0:0:0:0:
127,46,63904,6,0,P|113:82|105:126,1,80,8|8,0:0|0:0,0:0:0:0:
200,100,65316,2,0,P|190:137|185:181,1,80,8|8,0:0|0:0,0:0:0:0:
284,149,66727,2,0,P|277:186|276:230,1,80,8|8,0:0|0:0,0:0:0:0:
395,272,68139,2,0,P|385:234|367:194,1,80,8|8,0:0|0:0,0:0:0:0:
351,182,69021,1,0,0:0:0:0:
440,127,69198,6,0,L|520:134,1,71.9999978027344
446,31,69551,2,0,P|405:37|370:58,1,71.9999978027344,8|0,0:0|0:0,0:0:0:0:
305,100,69904,1,0,0:0:0:0:
305,100,70080,1,0,0:0:0:0:
298,11,70257,2,0,L|218:18,1,71.9999978027344,8|0,0:0|0:0,0:0:0:0:
166,79,70610,5,0,0:0:0:0:
166,79,70786,1,0,0:0:0:0:
96,8,70963,2,0,P|73:46|77:89,1,71.9999978027344,8|0,0:0|0:0,0:0:0:0:
109,147,71316,2,0,P|121:189|106:230,1,71.9999978027344
68,283,71669,2,0,P|78:326|111:353,1,71.9999978027344,8|0,0:0|0:0,0:0:0:0:
187,346,72021,5,0,0:0:0:0:
187,346,72198,1,0,0:0:0:0:
249,288,72374,1,8,0:0:0:0:
249,288,72551,1,0,0:0:0:0:
321,330,72727,2,0,L|406:315,2,71.9999978027344,0|0|8,0:0|0:0|0:0,0:0:0:0:
341,240,73257,5,0,0:0:0:0:
341,240,73434,1,0,0:0:0:0:
419,283,73610,1,0,0:0:0:0:
419,283,73787,1,8,0:0:0:0:
486,233,73963,1,0,0:0:0:0:
486,233,74139,2,0,B|477:139|477:139|474:97|421:99,1,143.999995605469,0|8,0:0|0:0,0:0:0:0:
371,144,74669,1,0,0:0:0:0:
394,35,74845,6,0,P|432:19|473:20,2,71.9999978027344,0|0|8,0:0|0:0|0:0,0:0:0:0:
316,73,75374,1,0,0:0:0:0:
227,64,75551,2,0,P|233:105|254:140,2,71.9999978027344,0|0|8,0:0|0:0|0:0,0:0:0:0:
161,0,76080,5,0,0:0:0:0:
93,69,76257,2,0,P|70:31|76:-24,2,71.9999978027344,0|0|8,0:0|0:0|0:0,0:0:0:0:
135,154,76786,1,0,0:0:0:0:
135,154,76963,2,0,L|104:310,1,143.999995605469,0|8,0:0|0:0,0:0:0:0:
81,310,77492,1,0,0:0:0:0:
183,367,77668,5,0,0:0:0:0:
213,327,77845,2,0,L|366:308,2,143.999995605469
266,198,78904,1,0,0:0:0:0:
133,114,79257,1,0,0:0:0:0:
271,38,79610,1,0,0:0:0:0:
173,206,79963,1,0,0:0:0:0:
173,206,80139,1,0,0:0:0:0:
256,192,80492,12,4,81551,0:3:0:0:
133,114,81904,6,0,P|207:104|317:65,1,176.000005371094,4|8,0:0|0:0,0:0:0:0:
438,0,82609,1,4,0:3:0:0:
415,104,82786,1,4,0:3:0:0:
458,3,82962,1,8,0:0:0:0:
511,124,83139,6,0,L|492:228,1,88.000002685547,4|0,0:0|0:0,0:0:0:0:
407,142,83492,2,0,L|388:246,1,88.000002685547,4|8,0:0|0:0,0:0:0:0:
306,155,83845,2,0,L|287:259,1,88.000002685547,4|0,0:0|0:0,0:0:0:0:
210,174,84198,1,4,0:3:0:0:
281,271,84374,1,8,0:0:0:0:
36,384,84727,6,0,P|64:315|86:201,1,176.000005371094,4|8,0:0|0:0,0:0:0:0:
167,84,85432,1,4,0:3:0:0:
64,113,85609,1,4,0:3:0:0:
161,61,85785,1,8,0:0:0:0:
202,183,85962,6,0,L|305:201,1,88.000002685547,4|0,0:0|0:0,0:0:0:0:
262,98,86315,2,0,L|365:116,1,88.000002685547,4|0,0:0|0:0,0:0:0:0:
316,18,86668,2,0,L|419:36,1,88.000002685547,0|4,0:0|0:3,0:0:0:0:
437,132,87021,1,4,0:3:0:0:
379,212,87197,1,8,0:0:0:0:
474,229,87374,1,4,0:3:0:0:
348,113,87551,6,0,P|343:190|313:300,1,176.000005371094,4|8,0:0|0:0,0:0:0:0:
221,384,88257,1,4,0:3:0:0:
293,307,88433,1,4,0:3:0:0:
137,338,88609,1,8,0:0:0:0:
137,338,88786,2,0,L|26:318,1,88.000002685547,4|0,0:3|0:0,0:0:0:0:
1,213,89139,5,4,0:3:0:0:
36,308,89315,1,8,0:0:0:0:
101,218,89492,2,0,L|121:106,1,88.000002685547,0|4,0:0|0:3,0:0:0:0:
97,106,89845,1,4,0:3:0:0:
196,193,90021,1,8,0:0:0:0:
210,199,90374,6,0,P|282:183|388:135,1,176.000005371094,4|8,0:0|0:0,0:0:0:0:
509,240,90904,1,0,0:0:0:0:
451,129,91080,1,4,0:3:0:0:
418,219,91257,2,0,P|419:260|448:319,1,88.000002685547,4|8,0:0|0:0,0:0:0:0:
416,95,91610,5,0,0:0:0:0:
342,156,91787,2,0,P|322:193|317:258,1,88.000002685547,12|4,0:0|0:3,0:0:0:0:
191,285,92139,5,8,0:0:0:0:
224,195,92316,2,0,P|222:153|193:94,1,88.000002685547,4|4,0:0|0:3,0:0:0:0:
134,54,92668,5,4,0:3:0:0:
230,24,92845,1,8,0:1:0:0:
132,72,93021,1,4,0:3:0:0:
58,0,93198,5,4,0:0:0:0:
38,98,93551,2,0,P|86:160|77:264,1,176.000005371094,8|4,0:0|0:3,0:0:0:0:
21,324,94080,1,4,0:3:0:0:
21,324,94257,1,8,0:0:0:0:
113,350,94433,5,4,0:0:0:0:
216,284,94786,1,0,0:0:0:0:
216,284,94963,2,0,P|297:282|400:245,1,176.000005371094,8|4,0:0|0:3,0:0:0:0:
512,159,95491,1,4,0:3:0:0:
420,170,95668,1,8,0:0:0:0:
477,242,95845,1,0,0:0:0:0:
450,78,96021,6,0,P|378:67|268:28,1,176.000005371094,4|8,0:3|0:0,0:0:0:0:
187,54,96551,1,0,0:0:0:0:
258,114,96727,2,0,L|276:215,1,88.000002685547,4|4,0:3|0:3,0:0:0:0:
342,256,97080,1,8,0:0:0:0:
260,283,97257,2,0,L|159:302,1,88.000002685547,4|0,0:0|0:0,0:0:0:0:
126,379,97609,5,4,0:3:0:0:
126,379,97786,1,8,0:0:0:0:
85,296,97962,2,0,P|98:242|137:215,1,88.000002685547,4|4,0:0|0:3,0:0:0:0:
211,230,98316,1,4,0:3:0:0:
165,145,98492,2,0,P|111:129|68:149,1,88.000002685547,12|0,0:0|0:0,0:0:0:0:
234,77,98845,6,0,P|265:135|256:188,1,88.000002685547,4|0,0:0|0:0,0:0:0:0:
361,164,99198,2,0,P|326:219|275:238,1,88.000002685547,12|0,0:0|0:0,0:0:0:0:
344,313,99551,2,0,P|278:310|236:276,1,88.000002685547,4|4,0:0|0:3,0:0:0:0:
419,258,99904,1,8,0:0:0:0:
481,320,100080,2,0,P|512:262|503:209,1,88.000002685547,4|0,0:0|0:0,0:0:0:0:
457,181,100433,5,4,0:3:0:0:
457,181,100609,1,8,0:0:0:0:
512,98,100786,2,0,L|405:82,2,88.000002685547,0|4|4,0:3|0:3|0:3,0:0:0:0:
415,0,101315,5,8,0:0:0:0:
415,0,101492,1,0,0:0:0:0:
400,95,101668,6,0,L|293:111,1,88.000002685547,4|0,0:0|0:0,0:0:0:0:
253,33,102021,2,0,L|146:49,1,88.000002685547,12|0,0:0|0:0,0:0:0:0:
139,135,102374,2,0,L|32:152,1,88.000002685547,4|4,0:0|0:3,0:0:0:0:
0,61,102727,5,8,0:0:0:0:
38,169,102904,1,0,0:0:0:0:
81,9,103080,5,0,0:0:0:0:
81,9,103256,1,4,0:3:0:0:
152,147,103433,2,0,L|259:164,1,88.000002685547,8|0,0:0|0:0,0:0:0:0:
329,72,103786,5,4,0:3:0:0:
260,173,103962,1,4,0:3:0:0:
389,242,104139,2,0,P|372:220|364:143,1,88.000002685547,8|0,0:0|0:0,0:0:0:0:
510,131,104492,5,0,0:0:0:0:
256,192,110139,12,12,115433,0:0:0:0:
