osu file format v14

[General]
AudioFilename: audio.ogg
AudioLeadIn: 0
PreviewTime: 273601
Countdown: 0
SampleSet: Drum
StackLeniency: 0.7
Mode: 0
LetterboxInBreaks: 0
WidescreenStoryboard: 1

[Editor]
Bookmarks: 35238,43965,70147,87601,105056,113783,122510,139965,157419,174874,192329,209783,256146,273601,291055,308510,317237,325964,334691,334692,343419,343487,343556,343624,343692,343760
DistanceSpacing: 0.6
BeatDivisor: 4
GridSize: 32
TimelineZoom: 2.800005

[Metadata]
Title:FN .380 ACP#19074
TitleUnicode:FN .380 ACP#19074
Artist:1914
ArtistUnicode:1914
Creator:MANi
Version:DOBRODOSLI U SARAJEVO
Source:
Tags:kiwies turtatical blackened death doom metal english where fear and weapons meet world war 1 one i wwi napalm records 9.Division, Grenadier-Regiment Nr.7, Unteroffiziere - Armin fon Heinessen 37.Division, Feldartillerie-Regiment Nr.73, Wachtmiester - Liam Fessen 2.Division, Infanterie-Regiment Nr.147, Oberleutnant - Ditmar Kumar 33.Div., 7.Thueringisches Inf.-Reg't. Nr.96, Gefreite - Rusty Potoplacht 5.Division, Ulanen-Regiment Nr.3, Sergeanten - Vitalis Winkelhock Deazer Армен Оганесян Armen Ohanesian Oleksa Fisyuk Олексій Фісюк Dmytro Kumar Дмитро Тернущак Ternushchak Rostik Ronya Rostyslav Potoplyak Ростислав Потопляк Vitaliy Vygovskyy Віталій Виговський
BeatmapID:3548649
BeatmapSetID:1736332

[Difficulty]
HPDrainRate:5
CircleSize:4
OverallDifficulty:9.7
ApproachRate:9.8
SliderMultiplier:2
SliderTickRate:1

[Events]
//Background and Video events
0,0,"yes.jpg",0,0
//Break Periods
//Storyboard Layer 0 (Background)
//Storyboard Layer 1 (Fail)
//Storyboard Layer 2 (Pass)
//Storyboard Layer 3 (Foreground)
//Storyboard Layer 4 (Overlay)
//Storyboard Sound Samples

[TimingPoints]
329,272.727272727273,4,3,1,65,1,0
329,-285.714285714286,4,3,1,65,0,0
6260,-285.714285714286,4,3,1,5,0,0
6329,-285.714285714286,4,3,7,65,0,0
6397,-285.714285714286,4,3,1,65,0,0
7965,-285.714285714286,4,3,10,65,0,0
9056,-285.714285714286,4,3,1,65,0,0
12874,-285.714285714286,4,3,10,65,0,0
13419,-285.714285714286,4,3,1,65,0,0
14988,-285.714285714286,4,3,1,5,0,0
15056,-285.714285714286,4,3,1,65,0,0
17238,-285.714285714286,4,3,7,65,0,0
17374,-285.714285714286,4,3,8,65,0,0
17510,-285.714285714286,4,3,9,65,0,0
17647,-285.714285714286,4,3,10,65,0,0
17783,-200,4,3,1,65,0,0
23783,-200,4,3,7,65,0,0
24329,-200,4,3,1,65,0,0
25419,-200,4,3,10,65,0,0
26510,-200,4,3,1,65,0,0
32510,-200,4,3,7,65,0,0
33056,-200,4,3,1,65,0,0
34147,-125,4,3,1,65,0,0
34215,-125,4,2,1,65,0,0
34692,-100,4,3,7,65,0,0
34829,-100,4,3,8,65,0,0
34965,-100,4,3,9,65,0,0
35101,-100,4,3,10,65,0,0
35238,-90.9090909090909,4,3,1,65,0,0
35510,-100,4,3,1,65,0,0
39601,-100,4,3,2,65,0,0
39669,-100,4,3,1,65,0,0
43965,-90.9090909090909,4,3,1,65,0,0
44238,-100,4,3,1,65,0,0
52147,-100,4,3,7,65,0,0
52283,-100,4,3,8,65,0,0
52419,-100,4,3,9,65,0,0
52556,-100,4,3,10,65,0,0
52692,-250,4,3,2,65,0,0
54874,-166.666666666667,4,3,2,65,0,0
57056,-125,4,3,2,65,0,0
58692,-100,4,3,2,65,0,0
59238,-250,4,3,2,65,0,0
60329,-166.666666666667,4,3,2,65,0,0
60874,-125,4,3,2,65,0,0
61419,-250,4,3,2,65,0,0
63601,-166.666666666667,4,3,1,65,0,0
63669,-166.666666666667,4,3,2,65,0,0
65783,-125,4,3,2,65,0,0
67419,-100,4,3,2,65,0,0
67965,-250,4,3,2,65,0,0
69056,-100,4,3,1,65,0,0
69601,-166.666666666667,4,3,7,65,0,0
69737,-166.666666666667,4,3,8,65,0,0
69873,-166.666666666667,4,3,9,65,0,0
70010,-166.666666666667,4,3,10,65,0,0
70147,-100,4,3,1,65,0,0
86510,-100,4,3,9,65,0,0
86579,-100,4,3,1,65,0,0
87056,-100,4,3,7,65,0,0
87192,-100,4,3,8,65,0,0
87328,-100,4,3,9,65,0,0
87465,-100,4,3,10,65,0,0
87601,-100,4,3,1,65,0,0
87874,-250,4,3,1,65,0,0
88419,-100,4,3,1,65,0,0
88692,-125,4,3,1,65,0,0
89101,-166.666666666667,4,3,1,65,0,0
89510,-100,4,3,1,65,0,0
89783,-100,4,3,1,65,0,0
90056,-166.666666666667,4,3,1,65,0,0
90329,-100,4,3,1,65,0,0
90874,-125,4,3,1,65,0,0
91147,-166.666666666667,4,3,1,65,0,0
91419,-100,4,3,1,65,0,0
91965,-100,4,3,1,65,0,0
92238,-166.666666666667,4,3,1,65,0,0
92510,-100,4,3,1,65,0,0
93056,-125,4,3,1,65,0,0
93329,-166.666666666667,4,3,1,65,0,0
93601,-100,4,3,1,65,0,0
94147,-125,4,3,1,65,0,0
94419,-166.666666666667,4,3,1,65,0,0
94692,-100,4,3,1,65,0,0
95238,-500,4,3,9,65,0,0
95306,-500,4,3,1,65,0,0
95783,-250.000000000001,4,3,10,65,0,0
95851,-250.000000000001,4,3,1,65,0,0
96329,-100,4,3,1,65,0,0
96601,-250,4,3,1,65,0,0
97147,-100,4,3,1,65,0,0
97419,-166.666666666667,4,3,1,65,0,0
97829,-125,4,3,1,65,0,0
98238,-100,4,3,1,65,0,0
98510,-166.666666666667,4,3,1,65,0,0
98919,-125,4,3,1,65,0,0
99329,-100,4,3,1,65,0,0
99874,-166.666666666667,4,3,1,65,0,0
100147,-100,4,3,1,65,0,0
101101,-125,4,3,1,65,0,0
101510,-100,4,3,1,65,0,0
101783,-125,4,3,1,65,0,0
102329,-166.666666666667,4,3,1,65,0,0
102874,-100,4,3,1,65,0,0
103965,-100,4,3,1,65,0,0
105056,-100,4,3,1,65,0,1
108874,-66.6666666666667,4,3,2,65,0,1
109419,-80,4,3,1,65,0,1
113238,-80,4,3,7,65,0,1
113374,-80,4,3,8,65,0,1
113510,-80,4,3,9,65,0,1
113647,-80,4,3,10,65,0,1
113783,-100,4,3,1,65,0,1
117601,-66.6666666666667,4,3,2,65,0,1
118147,-80,4,3,1,65,0,1
121965,-80,4,3,7,65,0,1
122101,-80,4,3,8,65,0,1
122237,-80,4,3,9,65,0,1
122374,-80,4,3,10,65,0,0
122510,-80,4,3,1,65,0,1
139419,-80,4,3,7,65,0,1
139555,-80,4,3,8,65,0,1
139691,-80,4,3,9,65,0,1
139828,-80,4,3,10,65,0,1
139965,-166.666666666667,4,3,2,65,0,0
142147,-125,4,3,2,65,0,0
144329,-100,4,3,2,65,0,0
145965,-83.3333333333333,4,3,2,65,0,0
146510,-166.666666666667,4,3,2,65,0,0
147601,-125,4,3,2,65,0,0
148147,-100,4,3,2,65,0,0
148692,-166.666666666667,4,3,2,65,0,0
150874,-125,4,3,2,65,0,0
153056,-100,4,3,2,65,0,0
154692,-83.3333333333333,4,3,2,65,0,0
155238,-166.666666666667,4,3,2,65,0,0
156329,-83.3333333333334,4,3,1,65,0,0
156806,-83.3333333333334,4,3,7,65,0,0
156874,-166.666666666667,4,3,7,65,0,0
157079,-166.666666666667,4,3,8,65,0,0
157419,-100,4,3,2,65,0,0
157897,-100,4,3,2,5,0,0
157965,-100,4,3,2,65,0,0
160079,-100,4,3,2,5,0,0
160147,-133.333333333333,4,3,1,65,0,0
160624,-133.333333333333,4,3,1,5,0,0
160692,-100,4,3,1,65,0,0
161169,-100,4,3,1,5,0,0
161238,-200,4,3,1,65,0,0
161715,-200,4,3,1,5,0,0
161783,-100,4,3,2,65,0,0
162260,-100,4,3,2,5,0,0
162329,-100,4,3,2,65,0,0
162806,-100,4,3,2,5,0,0
162874,-100,4,3,2,65,0,0
164442,-100,4,3,2,5,0,0
164510,-200,4,3,1,65,0,0
164988,-200,4,3,1,5,0,0
165056,-133.333333333333,4,3,1,65,0,0
166079,-133.333333333333,4,3,1,5,0,0
166147,-100,4,3,2,65,0,0
166624,-100,4,3,2,5,0,0
166692,-100,4,3,2,65,0,0
167169,-100,4,3,2,5,0,0
167238,-100,4,3,2,65,0,0
168806,-100,4,3,2,5,0,0
168874,-133.333333333333,4,3,2,65,0,0
169351,-133.333333333333,4,3,2,5,0,0
169419,-100,4,3,2,65,0,0
169897,-100,4,3,2,5,0,0
169965,-200,4,3,2,65,0,0
170442,-200,4,3,2,5,0,0
170510,-100,4,3,2,65,0,0
170988,-100,4,3,2,5,0,0
171056,-100,4,3,2,65,0,0
171533,-100,4,3,2,5,0,0
171601,-100,4,3,2,65,0,0
173169,-100,4,3,2,5,0,0
173238,-100,4,3,10,65,0,0
173783,-100,4,3,2,65,0,0
174192,-100,4,3,1,65,0,0
174329,-100,4,3,10,65,0,0
174874,-100,4,3,2,65,0,0
175351,-100,4,3,2,5,0,0
175419,-100,4,3,2,65,0,0
175897,-100,4,3,2,5,0,0
175965,-100,4,3,2,65,0,0
176988,-100,4,3,2,5,0,0
177056,-100,4,3,2,65,0,0
177260,-100,4,3,2,5,0,0
177329,-100,4,3,2,65,0,0
178079,-100,4,3,2,5,0,0
178147,-100,4,3,2,65,0,0
179169,-100,4,3,2,5,0,0
179238,-100,4,3,2,65,0,0
179715,-100,4,3,2,5,0,0
179783,-100,4,3,2,65,0,0
180260,-100,4,3,2,5,0,0
180329,-100,4,3,2,65,0,0
181351,-100,4,3,2,5,0,0
181419,-100,4,3,2,65,0,0
181897,-100,4,3,2,5,0,0
181965,-100,4,3,2,65,0,0
182442,-100,4,3,2,5,0,0
182510,-100,4,3,2,65,0,0
183260,-100,4,3,2,5,0,0
183329,-100,4,3,7,65,0,0
183601,-100,4,3,2,65,0,0
184079,-100,4,3,2,5,0,0
184147,-100,4,3,2,65,0,0
184624,-100,4,3,2,5,0,0
184692,-100,4,3,2,65,0,0
185715,-100,4,3,2,5,0,0
185783,-100,4,3,2,65,0,0
186260,-100,4,3,2,5,0,0
186329,-100,4,3,2,65,0,0
186806,-100,4,3,2,5,0,0
186874,-100,4,3,2,65,0,0
187897,-100,4,3,2,5,0,0
187965,-100,4,3,2,65,0,0
188442,-100,4,3,2,5,0,0
188510,-100,4,3,2,65,0,0
188988,-100,4,3,2,5,0,0
189056,-100,4,3,2,65,0,0
190079,-100,4,3,2,5,0,0
190147,-100,4,3,2,65,0,0
190351,-100,4,3,2,5,0,0
190419,-100,4,3,2,65,0,0
190556,-100,4,3,7,65,0,0
190692,-100,4,3,8,65,0,0
190829,-100,4,3,1,65,0,0
191238,-100,4,3,7,65,0,0
191374,-100,4,3,8,65,0,0
191510,-100,4,3,9,65,0,0
191783,-100,4,3,10,65,0,0
192056,-100,4,3,20,65,0,0
192192,-100,4,3,10,65,0,0
192329,-100,4,3,2,65,0,0
192806,-100,4,3,2,5,0,0
192874,-100,4,3,2,65,0,0
193351,-100,4,3,2,5,0,0
193419,-100,4,3,2,65,0,0
194442,-100,4,3,2,5,0,0
194510,-100,4,3,2,65,0,0
194988,-100,4,3,2,5,0,0
195056,-100,4,3,2,65,0,0
195533,-100,4,3,2,5,0,0
195601,-100,4,3,2,65,0,0
196624,-100,4,3,2,5,0,0
196692,-100,4,3,2,65,0,0
197169,-100,4,3,2,5,0,0
197238,-100,4,3,2,65,0,0
197715,-100,4,3,2,5,0,0
197783,-100,4,3,2,65,0,0
198806,-100,4,3,2,5,0,0
198874,-100,4,3,2,65,0,0
199351,-100,4,3,2,5,0,0
199419,-100,4,3,2,65,0,0
199897,-100,4,3,2,5,0,0
199965,-100,4,3,2,65,0,0
200988,-100,4,3,2,5,0,0
201056,-100,4,3,2,65,0,0
201533,-100,4,3,2,5,0,0
201601,-100,4,3,2,65,0,0
202079,-100,4,3,2,5,0,0
202147,-100,4,3,2,65,0,0
203169,-100,4,3,2,5,0,0
203238,-100,4,3,2,65,0,0
203715,-100,4,3,2,5,0,0
203783,-100,4,3,2,65,0,0
204260,-100,4,3,2,5,0,0
204329,-100,4,3,2,65,0,0
205351,-100,4,3,2,5,0,0
205419,-100,4,3,2,65,0,0
205897,-100,4,3,2,5,0,0
205965,-100,4,3,2,65,0,0
206442,-100,4,3,2,5,0,0
206510,-100,4,3,2,65,0,0
207533,-100,4,3,2,5,0,0
207601,-100,4,3,2,65,0,0
208079,-100,4,3,2,5,0,0
208147,-100,4,3,10,65,0,0
208692,-100,4,3,1,65,0,0
209783,-100,4,3,2,65,0,0
210260,-100,4,3,2,5,0,0
210329,-100,4,3,2,65,0,0
210738,-100,4,3,2,5,0,0
210874,-125,4,3,2,65,0,0
211419,-333.333333333333,4,3,2,65,0,0
211965,-100,4,3,2,65,0,0
212442,-100,4,3,2,5,0,0
212510,-125,4,3,2,65,0,0
212988,-125,4,3,2,5,0,0
213056,-100,4,3,2,65,0,0
213533,-100,4,3,2,5,0,0
213601,-200,4,3,2,65,0,0
214079,-200,4,3,2,5,0,0
214147,-100,4,3,2,65,0,0
214624,-100,4,3,2,5,0,0
214692,-100,4,3,2,65,0,0
215169,-100,4,3,2,5,0,0
215238,-125,4,3,2,65,0,0
215783,-333.333333333333,4,3,2,65,0,0
216329,-100,4,3,2,65,0,0
216806,-100,4,3,2,5,0,0
216874,-200,4,3,2,65,0,0
217351,-200,4,3,2,5,0,0
217419,-125,4,3,2,65,0,0
218442,-125,4,3,2,5,0,0
218510,-100,4,3,2,65,0,0
218988,-100,4,3,2,5,0,0
219056,-100,4,3,2,65,0,0
219533,-100,4,3,2,5,0,0
219601,-125,4,3,2,65,0,0
220147,-333.333333333333,4,3,2,65,0,0
220692,-100,4,3,2,65,0,0
221169,-100,4,3,2,5,0,0
221238,-200,4,3,2,65,0,0
221715,-200,4,3,2,5,0,0
221783,-100,4,3,2,65,0,0
222260,-100,4,3,2,5,0,0
222329,-200,4,3,2,65,0,0
222806,-200,4,3,2,5,0,0
222874,-100,4,3,2,65,0,0
223351,-100,4,3,2,5,0,0
223419,-100,4,3,2,65,0,0
223897,-100,4,3,2,5,0,0
223965,-125,4,3,2,65,0,0
224510,-333.333333333333,4,3,2,65,0,0
225056,-125,4,3,2,65,0,0
225533,-125,4,3,2,5,0,0
225601,-100,4,3,10,65,0,0
226147,-100,4,3,2,65,0,0
226488,-100,4,3,2,5,0,0
226556,-100,4,3,2,65,0,0
227238,-166.666666666667,4,3,2,65,0,0
229692,-166.666666666667,4,2,0,65,0,0
229965,-125,4,2,69,65,0,0
230101,-125,4,2,69,5,0,0
230238,-125,4,2,69,65,0,0
230374,-125,4,2,69,5,0,0
230510,-166.666666666667,4,2,69,65,0,0
231465,-166.666666666667,4,2,69,5,0,0
231601,-333.333333333334,4,2,69,65,0,0
232556,-333.333333333334,4,2,69,5,0,0
232692,-125,4,2,69,65,0,0
232829,-125,4,2,69,5,0,0
232965,-125,4,2,69,65,0,0
233101,-125,4,2,69,5,0,0
233238,-166.666666666667,4,2,69,65,0,0
234056,-166.666666666667,4,2,69,5,0,0
234329,-125,4,2,69,65,0,0
234465,-125,4,2,69,5,0,0
234601,-125,4,2,69,65,0,0
234738,-125,4,2,69,5,0,0
234874,-166.666666666667,4,2,69,65,0,0
235829,-166.666666666667,4,2,69,5,0,0
235965,-125,4,2,69,65,0,0
236101,-125,4,2,69,5,0,0
236238,-125,4,2,69,65,0,0
236374,-125,4,2,69,5,0,0
236510,-166.666666666667,4,2,69,65,0,0
237465,-166.666666666667,4,2,69,5,0,0
237601,-166.666666666667,4,2,69,65,0,0
237738,-166.666666666667,4,2,69,5,0,0
237874,-166.666666666667,4,2,69,65,0,0
238010,-166.666666666667,4,2,69,5,0,0
238147,-125,4,2,69,65,0,0
239101,-125,4,2,69,5,0,0
239238,-166.666666666667,4,2,69,65,0,0
239374,-166.666666666667,4,2,69,5,0,0
239510,-166.666666666667,4,2,69,65,0,0
239647,-166.666666666667,4,2,69,5,0,0
239783,-125,4,2,69,65,0,0
240738,-125,4,2,69,5,0,0
240874,-125,4,2,69,65,0,0
241010,-125,4,2,69,5,0,0
241147,-125,4,2,69,65,0,0
241283,-125,4,2,69,5,0,0
241419,-166.666666666667,4,2,69,65,0,0
242510,-166.666666666667,4,2,69,5,0,0
243601,-166.666666666667,4,2,69,65,0,0
243738,-166.666666666667,4,2,69,5,0,0
243874,-166.666666666667,4,2,69,65,0,0
244010,-166.666666666667,4,2,69,5,0,0
244147,-166.666666666667,4,2,69,65,0,0
245238,-166.666666666667,4,2,69,5,0,0
246329,-200,4,2,69,65,0,0
246465,-200,4,2,69,5,0,0
246601,-200,4,2,69,65,0,0
246738,-200,4,2,69,5,0,0
246874,-200,4,2,69,65,0,0
247965,-200,4,2,69,5,0,0
249056,-250,4,2,69,65,0,0
249192,-250,4,2,69,5,0,0
249329,-250,4,2,69,65,0,0
249465,-250,4,2,69,5,0,0
249601,272.727272727273,4,2,69,65,1,0
249601,-250,4,2,69,65,0,0
250692,-250,4,2,69,5,0,0
251782,-333.333333333333,4,2,69,65,0,0
252055,-333.333333333333,4,2,69,5,0,0
252328,-333.333333333333,4,2,69,65,0,0
252601,-333.333333333333,4,2,69,5,0,0
252873,-500,4,2,69,65,0,0
256010,-500,4,2,69,5,0,0
256146,-100,4,3,2,65,0,0
272510,-100,4,3,1,65,0,0
273055,-100,4,3,7,65,0,0
273191,-100,4,3,8,65,0,0
273328,-100,4,3,9,65,0,0
273464,-100,4,3,10,65,0,0
273601,-100,4,3,2,65,0,0
273669,-100,4,3,1,65,0,0
273873,-250,4,3,1,65,0,0
274419,-100,4,3,1,65,0,0
274691,-125,4,3,1,65,0,0
275510,-100,4,3,1,65,0,0
275782,-125,4,3,1,65,0,0
276055,-166.666666666667,4,3,1,65,0,0
276601,-100,4,3,1,65,0,0
276873,-125,4,3,1,65,0,0
277419,-100,4,3,1,65,0,0
277964,-250,4,3,1,65,0,0
278510,-166.666666666667,4,3,1,65,0,0
278782,-100,4,3,1,65,0,0
279055,-125,4,3,1,65,0,0
279464,-166.666666666667,4,3,1,65,0,0
279873,-100,4,3,1,65,0,0
280146,-250,4,3,2,65,0,0
280214,-250,4,3,1,65,0,0
280419,-166.666666666667,4,3,1,65,0,0
280964,-100,4,3,1,65,0,0
281237,-166.666666666667,4,3,2,65,0,0
281305,-166.666666666667,4,3,1,65,0,0
281782,-100,4,3,1,65,0,0
282328,-100,4,3,2,65,0,0
282396,-100,4,3,1,65,0,0
282601,-250,4,3,1,65,0,0
283146,-100,4,3,1,65,0,0
283419,-166.666666666667,4,3,1,65,0,0
283828,-125,4,3,1,65,0,0
284237,-100,4,3,1,65,0,0
284510,-125,4,3,1,65,0,0
285328,-100,4,3,1,65,0,0
285601,-250,4,3,1,65,0,0
286146,-166.666666666667,4,3,1,65,0,0
286419,-100,4,3,1,65,0,0
286691,-125,4,3,1,65,0,0
287510,-100,4,3,1,65,0,0
287782,-125,4,3,1,65,0,0
288055,-166.666666666667,4,3,1,65,0,0
288601,-100,4,3,1,65,0,0
288873,-100,4,3,2,65,0,0
288941,-100,4,3,1,65,0,0
289419,-250,4,3,1,65,0,0
289964,-500,4,3,7,65,0,0
290032,-500,4,2,1,65,0,0
290510,-166.666666666667,4,3,8,65,0,0
290782,-166.666666666667,4,3,9,65,0,0
291055,-100,4,3,2,65,0,0
291123,-100,4,3,1,65,0,0
297601,-100,4,3,2,65,0,0
297669,-100,4,3,1,65,0,0
298691,-100,4,3,7,65,0,0
298760,-100,4,2,1,65,0,0
299237,-100,4,3,7,65,0,0
299373,-100,4,3,8,65,0,0
299510,-100,4,3,9,65,0,0
299646,-100,4,3,10,65,0,0
299782,-100,4,3,2,65,0,0
299851,-100,4,3,1,65,0,0
306328,-100,4,3,2,65,0,0
306396,-100,4,3,1,65,0,0
307555,-100,4,2,1,65,0,0
307964,-100,4,3,1,65,0,0
308032,-100,4,2,1,65,0,0
308510,-100,4,3,1,65,0,1
312328,-66.6666666666667,4,3,2,65,0,1
312873,-80,4,3,1,65,0,1
316691,-142.857142857143,4,3,7,65,0,1
316828,-142.857142857143,4,3,8,65,0,1
316964,-250,4,3,9,65,0,1
317101,-250,4,3,10,65,0,1
317237,-100,4,3,1,65,0,1
321055,-66.6666666666667,4,3,1,65,0,1
321601,-80,4,3,1,65,0,1
322691,-80,4,3,2,65,0,1
322760,-80,4,3,1,65,0,1
324873,-100,4,3,1,65,0,1
325146,-100,4,3,1,47,0,1
325282,-100,4,3,1,30,0,1
325419,-100,4,3,7,65,0,1
325555,-100,4,3,8,65,0,1
325691,-100,4,3,9,65,0,1
325828,-100,4,3,10,65,0,0
325964,-71.4285714285714,4,3,1,65,0,1
328146,-83.3333333333333,4,3,1,65,0,1
332510,-100,4,3,2,65,0,1
332578,-100,4,3,1,65,0,1
333601,-71.4285714285714,4,3,1,65,0,1
334691,-100,4,3,1,65,0,1
336328,-80,4,3,1,65,0,1
336873,-100,4,3,1,65,0,1
338510,-80,4,3,1,65,0,1
339055,-100,4,3,2,65,0,1
339123,-100,4,3,1,65,0,1
340691,-80,4,3,1,65,0,1
341237,-100,4,3,2,65,0,1
341305,-100,4,3,1,65,0,1
341510,-100,4,3,2,65,0,1
341578,-100,4,3,1,65,0,1
343146,-100,4,3,8,65,0,1
343282,-100,4,3,9,65,0,1
343419,-333.333333333333,4,3,2,65,0,1
343487,-333.333333333333,4,2,69,65,0,0
348873,-333.333333333333,4,3,2,5,0,0

[Colours]
Combo1 : 63,129,102
Combo2 : 79,103,63
Combo3 : 27,80,60
Combo4 : 57,113,75

[HitObjects]
124,52,329,6,0,B|99:14|48:27|48:27|36:95|74:137|138:138|165:117|165:117|127:201|194:259|285:251|329:136|218:99|201:165|232:179,1,559.999982910157,6|6,0:0|0:0,0:0:0:0:
226,75,4147,1,6,0:0:0:0:
325,169,4692,6,0,B|283:235|236:259|236:259|248:208|227:156|227:156|181:149|121:197|121:197|153:207|166:243,1,402.499987716675,6|0,0:0|0:0,0:0:0:0:
208,326,6329,6,0,L|58:339,1,139.999995727539,0|6,0:0|0:0,0:0:0:0:
21,306,7829,5,0,0:0:0:0:
22,292,7897,1,0,0:0:0:0:
32,282,7965,1,0,0:0:0:0:
167,211,8510,5,0,0:0:0:0:
169,197,8783,1,0,0:0:0:0:
162,185,9056,6,0,B|98:166|78:83|137:-16|265:47|252:124|252:124|301:67|381:78|411:173|368:223|271:209|303:151|315:168,1,559.999982910157,6|6,0:0|0:0,0:0:0:0:
300,169,12738,5,0,0:0:0:0:
297,160,12806,1,0,0:0:0:0:
301,152,12874,1,0,0:0:0:0:
392,17,13419,6,0,B|350:70|385:136|385:136|446:139|474:97|474:97|491:153|434:179|434:179|475:187|492:225,1,402.499987716675,6|0,0:0|0:0,0:0:0:0:
422,255,15056,6,0,P|350:249|269:269,1,139.999995727539,6|6,0:0|0:0,0:0:0:0:
473,207,16556,5,0,0:0:0:0:
475,198,16624,1,0,0:0:0:0:
472,189,16692,5,14,0:0:0:0:
395,32,16965,1,8,2:3:0:0:
386,43,17033,1,8,2:3:0:0:
380,55,17101,1,8,2:3:0:0:
375,68,17169,1,8,2:3:0:0:
373,82,17238,5,0,0:0:0:0:
315,181,17374,1,0,0:0:0:0:
254,50,17510,1,0,0:0:0:0:
240,258,17647,1,0,0:0:0:0:
162,25,17783,6,0,B|215:96|187:178|187:178|91:184|39:86|39:86|37:120|37:120|57:154|57:154|48:202|48:202|7:229|7:229|20:328|125:384|199:290|117:165|22:294|104:291,1,800,6|6,0:0|0:0,0:0:0:0:
154,347,21874,1,6,0:0:0:0:
5,183,22147,6,0,B|85:228|120:142|220:216|220:216|197:101|333:63|401:142|386:217|346:254,1,550,6|0,0:0|0:0,0:0:0:0:
287,342,23715,1,0,0:0:0:0:
298,345,23783,2,0,B|242:308|283:245|283:245|283:297|326:301|301:338,1,200,0|6,0:0|0:0,0:0:0:0:
477,194,25283,5,0,0:0:0:0:
464,202,25351,1,0,0:0:0:0:
455,214,25419,1,0,0:0:0:0:
434,363,25965,5,0,0:0:0:0:
512,253,26238,1,0,0:0:0:0:
255,309,26510,6,0,B|358:312|395:203|395:203|292:175|232:231|232:231|189:260|127:240|127:240|221:213|255:150|290:90|216:25|119:61|154:163|206:126,1,800,6|6,0:0|0:0,0:0:0:0:
310,50,30329,1,6,0:0:0:0:
240,342,30874,6,0,B|152:250|28:267|28:267|27:325|72:350|72:350|137:328|176:228|141:156,1,550,6|0,0:0|0:0,0:0:0:0:
48,108,32442,1,0,0:0:0:0:
55,118,32510,2,0,B|99:66|167:65|167:65|142:33|91:32,1,200,0|6,0:0|0:0,0:0:0:0:
373,46,34147,5,2,0:0:0:0:
362,67,34215,1,8,0:0:0:0:
361,91,34283,1,8,0:0:0:0:
370,113,34351,1,8,0:0:0:0:
386,130,34419,1,8,0:0:0:0:
409,138,34488,1,8,0:0:0:0:
432,137,34556,1,8,0:0:0:0:
454,126,34624,1,8,0:0:0:0:
469,108,34692,5,0,0:0:0:0:
445,152,34760,1,0,0:0:0:0:
397,169,34829,1,0,0:0:0:0:
348,158,34897,1,0,0:0:0:0:
313,122,34965,1,0,0:0:0:0:
274,90,35033,1,0,0:0:0:0:
224,88,35101,1,0,0:0:0:0:
181,114,35169,1,0,0:0:0:0:
152,161,35238,2,0,B|161:208|161:208|160:212|160:212|188:340,1,165.000005035401,6|0,0:3|0:0,0:0:0:0:
293,354,35510,5,2,0:0:0:0:
329,336,35579,1,8,0:0:0:0:
344,299,35647,1,2,0:0:0:0:
339,259,35715,1,8,0:0:0:0:
310,231,35783,1,2,0:0:0:0:
271,222,35851,1,8,0:0:0:0:
233,235,35919,1,2,0:0:0:0:
214,271,35988,1,8,0:0:0:0:
184,297,36056,1,2,0:0:0:0:
144,300,36124,1,8,0:0:0:0:
107,282,36192,1,2,0:0:0:0:
90,245,36260,1,8,0:0:0:0:
90,204,36329,2,0,P|104:171|146:150,3,50,2|8|2|8,0:0|0:0|0:0|0:0,0:0:0:0:
87,87,36601,2,0,P|116:80|168:101,3,50,2|8|2|8,0:0|0:0|0:0|0:0,0:0:0:0:
214,177,36874,5,2,0:0:0:0:
225,185,36942,1,8,0:0:0:0:
239,186,37010,1,2,0:0:0:0:
251,178,37079,1,8,0:0:0:0:
258,166,37147,1,2,0:0:0:0:
254,151,37215,1,8,0:0:0:0:
245,140,37283,1,2,0:0:0:0:
230,139,37351,1,8,0:0:0:0:
217,145,37419,5,2,0:0:0:0:
244,175,37488,1,8,0:0:0:0:
284,174,37556,1,2,0:0:0:0:
314,149,37624,1,8,0:0:0:0:
324,111,37692,1,2,0:0:0:0:
314,73,37760,1,8,0:0:0:0:
322,35,37829,1,2,0:0:0:0:
350,7,37897,1,8,0:0:0:0:
389,2,37965,1,2,0:0:0:0:
421,24,38033,1,8,0:0:0:0:
437,61,38101,1,2,0:0:0:0:
424,100,38169,1,8,0:0:0:0:
388,120,38238,1,2,0:0:0:0:
348,117,38306,1,8,0:0:0:0:
315,95,38374,1,2,0:0:0:0:
305,57,38442,1,8,0:0:0:0:
314,18,38510,2,0,P|328:51|356:64,3,50,2|8|2|8,0:0|0:0|0:0|0:0,0:0:0:0:
392,149,38783,2,0,P|421:147|455:126,3,50,2|8|2|8,0:0|0:0|0:0|0:0,0:0:0:0:
268,156,39056,5,2,0:0:0:0:
254,154,39124,1,8,0:0:0:0:
239,152,39192,1,2,0:0:0:0:
224,150,39260,1,8,0:0:0:0:
209,148,39329,1,2,0:0:0:0:
194,146,39397,1,8,0:0:0:0:
179,144,39465,1,2,0:0:0:0:
164,142,39533,1,8,0:0:0:0:
149,140,39601,5,6,0:0:0:0:
173,171,39669,1,8,0:0:0:0:
172,211,39738,1,2,0:0:0:0:
151,245,39806,1,8,0:0:0:0:
113,259,39874,1,2,0:0:0:0:
73,250,39942,1,8,0:0:0:0:
50,216,40010,1,2,0:0:0:0:
49,175,40079,1,8,0:0:0:0:
71,141,40147,1,2,0:0:0:0:
108,127,40215,1,8,0:0:0:0:
138,100,40283,1,2,0:0:0:0:
145,60,40351,1,8,0:0:0:0:
125,25,40419,1,2,0:0:0:0:
86,11,40488,1,8,0:0:0:0:
48,25,40556,1,2,0:0:0:0:
34,62,40624,1,8,0:0:0:0:
48,99,40692,2,0,P|80:108|109:95,3,50,2|8|2|8,0:0|0:0|0:0|0:0,0:0:0:0:
178,156,40965,2,0,P|209:137|224:113,3,50,2|8|2|8,0:0|0:0|0:0|0:0,0:0:0:0:
248,24,41238,5,2,0:0:0:0:
261,17,41306,1,8,0:0:0:0:
275,11,41374,1,2,0:0:0:0:
289,8,41442,1,8,0:0:0:0:
304,7,41510,1,2,0:0:0:0:
319,7,41579,1,8,0:0:0:0:
334,10,41647,1,2,0:0:0:0:
348,14,41715,1,8,0:0:0:0:
362,20,41783,5,4,0:1:0:0:
328,41,41851,1,8,0:0:0:0:
310,77,41919,1,2,0:0:0:0:
319,116,41988,1,8,0:0:0:0:
349,141,42056,1,4,0:1:0:0:
387,149,42124,1,8,0:0:0:0:
422,167,42192,1,2,0:0:0:0:
437,203,42260,1,8,0:0:0:0:
432,243,42329,1,4,0:1:0:0:
407,274,42397,1,8,0:0:0:0:
367,281,42465,1,2,0:0:0:0:
330,265,42533,1,8,0:0:0:0:
307,232,42601,1,2,0:0:0:0:
288,196,42669,1,8,0:0:0:0:
250,180,42738,1,2,0:0:0:0:
211,189,42806,1,8,0:0:0:0:
187,221,42874,2,0,P|184:256|196:286,3,50,4|8|2|8,0:1|0:0|0:0|0:0,0:0:0:0:
130,329,43147,2,0,P|147:349|187:358,3,50,4|8|2|8,0:1|0:0|0:0|0:0,0:0:0:0:
296,359,43419,6,0,L|305:309,1,50,8|0,2:3|0:0,0:0:0:0:
382,219,43556,1,8,2:3:0:0:
382,219,43624,1,8,2:3:0:0:
382,219,43692,2,0,L|371:148,3,50,8|8|8|8,2:3|2:3|2:3|2:3,0:0:0:0:
263,28,43965,6,0,B|301:12|301:12|264:160,1,165.000005035401,6|0,0:0|0:0,0:0:0:0:
182,255,44238,1,2,0:0:0:0:
213,231,44306,1,8,0:0:0:0:
252,226,44374,1,2,0:0:0:0:
288,242,44442,1,8,0:0:0:0:
316,271,44510,1,2,0:0:0:0:
349,291,44579,1,8,0:0:0:0:
388,287,44647,1,2,0:0:0:0:
416,260,44715,1,8,0:0:0:0:
422,221,44783,1,2,0:0:0:0:
403,187,44851,1,8,0:0:0:0:
367,172,44919,1,2,0:0:0:0:
327,182,44988,1,8,0:0:0:0:
306,216,45056,2,0,P|303:242|311:263,3,50,2|8|2|8,0:0|0:0|0:0|0:0,0:0:0:0:
244,327,45329,2,0,P|260:347|283:360,3,50,2|8|2|8,0:0|0:0|0:0|0:0,0:0:0:0:
399,286,45601,5,2,0:0:0:0:
408,274,45669,1,8,0:0:0:0:
420,265,45738,1,2,0:0:0:0:
434,259,45806,1,8,0:0:0:0:
448,256,45874,1,2,0:0:0:0:
463,256,45942,1,8,0:0:0:0:
478,259,46010,1,2,0:0:0:0:
492,265,46079,1,8,0:0:0:0:
504,274,46147,5,2,0:0:0:0:
465,284,46215,1,8,0:0:0:0:
427,275,46283,1,2,0:0:0:0:
399,247,46351,1,8,0:0:0:0:
389,208,46419,1,2,0:0:0:0:
400,170,46488,1,8,0:0:0:0:
430,143,46556,1,2,0:0:0:0:
437,104,46624,1,8,0:0:0:0:
424,67,46692,1,2,0:0:0:0:
393,42,46760,1,8,0:0:0:0:
354,36,46829,1,2,0:0:0:0:
318,52,46897,1,8,0:0:0:0:
295,84,46965,1,2,0:0:0:0:
292,123,47033,1,8,0:0:0:0:
310,159,47101,1,2,0:0:0:0:
343,181,47169,1,8,0:0:0:0:
382,188,47238,2,0,P|384:156|373:128,3,50,2|8|2|8,0:0|0:0|0:0|0:0,0:0:0:0:
448,82,47510,2,0,P|428:57|378:47,3,50,2|8|2|8,0:0|0:0|0:0|0:0,0:0:0:0:
274,67,47783,5,2,0:0:0:0:
259,68,47851,1,8,0:0:0:0:
245,63,47919,1,2,0:0:0:0:
234,53,47988,1,8,0:0:0:0:
230,38,48056,1,2,0:0:0:0:
232,24,48124,1,8,0:0:0:0:
240,12,48192,1,2,0:0:0:0:
253,4,48260,1,8,0:0:0:0:
268,3,48329,5,6,0:0:0:0:
275,41,48397,1,0,0:0:0:0:
253,74,48465,1,0,0:0:0:0:
216,83,48533,1,0,0:0:0:0:
176,77,48601,1,2,0:0:0:0:
140,60,48669,1,8,0:0:0:0:
101,68,48738,1,2,0:0:0:0:
74,97,48806,1,8,0:0:0:0:
70,136,48874,1,2,0:0:0:0:
88,171,48942,1,8,0:0:0:0:
124,188,49010,1,2,0:0:0:0:
164,181,49079,1,8,0:0:0:0:
202,186,49147,1,2,0:0:0:0:
229,215,49215,1,8,0:0:0:0:
231,254,49283,1,2,0:0:0:0:
207,285,49351,1,8,0:0:0:0:
170,300,49419,2,0,P|150:285|139:262,3,50,2|8|2|8,0:0|0:0|0:0|0:0,0:0:0:0:
52,247,49692,2,0,P|63:208|98:181,3,50,2|8|2|8,0:0|0:0|0:0|0:0,0:0:0:0:
49,356,49965,5,2,0:0:0:0:
63,357,50033,1,8,0:0:0:0:
78,359,50101,1,2,0:0:0:0:
93,361,50169,1,8,0:0:0:0:
108,363,50238,1,2,0:0:0:0:
123,365,50306,1,8,0:0:0:0:
138,367,50374,1,2,0:0:0:0:
153,369,50442,1,8,0:0:0:0:
167,370,50510,5,4,0:2:0:0:
146,325,50579,1,8,0:0:0:0:
162,279,50647,1,2,0:0:0:0:
205,255,50715,1,8,0:0:0:0:
252,267,50783,1,4,0:2:0:0:
283,307,50851,1,8,0:0:0:0:
325,331,50919,1,2,0:0:0:0:
373,323,50988,1,8,0:0:0:0:
402,282,51056,2,0,P|386:259|351:238,3,50,4|8|2|8,0:2|0:0|0:0|0:0,0:0:0:0:
372,154,51329,2,0,P|344:152|306:168,3,50,2|8|2|8,0:0|0:0|0:0|0:0,0:0:0:0:
218,179,51601,5,4,0:2:0:0:
198,163,51669,1,8,0:0:0:0:
184,143,51738,1,8,0:0:0:0:
177,119,51806,1,8,0:0:0:0:
178,94,51874,1,8,0:0:0:0:
188,71,51942,1,8,0:0:0:0:
204,52,52010,1,8,0:0:0:0:
225,39,52079,1,8,0:0:0:0:
250,37,52147,5,0,0:0:0:0:
231,83,52215,1,0,0:0:0:0:
191,110,52283,1,0,0:0:0:0:
141,112,52351,1,0,0:0:0:0:
95,96,52419,1,0,0:0:0:0:
46,104,52488,1,0,0:0:0:0:
9,139,52556,2,0,P|19:173|39:190,1,50
146,209,52692,5,4,0:2:0:0:
157,224,52760,1,0,0:0:0:0:
165,243,52829,1,0,0:0:0:0:
167,263,52897,1,0,0:0:0:0:
163,282,52965,1,0,0:0:0:0:
154,300,53033,1,0,0:0:0:0:
141,315,53101,1,0,0:0:0:0:
124,326,53169,1,0,0:0:0:0:
105,333,53238,5,12,0:2:0:0:
120,345,53306,1,0,0:0:0:0:
138,353,53374,1,0,0:0:0:0:
158,358,53442,1,0,0:0:0:0:
178,358,53510,1,0,0:0:0:0:
197,354,53579,1,0,0:0:0:0:
216,346,53647,1,0,0:0:0:0:
232,335,53715,1,0,0:0:0:0:
246,321,53783,1,4,0:2:0:0:
260,306,53851,1,0,0:0:0:0:
276,295,53919,1,0,0:0:0:0:
294,287,53988,1,0,0:0:0:0:
314,283,54056,1,0,0:0:0:0:
334,283,54124,1,0,0:0:0:0:
353,287,54192,1,0,0:0:0:0:
372,295,54260,1,0,0:0:0:0:
387,308,54329,5,8,0:2:0:0:
367,312,54397,1,0,0:0:0:0:
347,311,54465,1,0,0:0:0:0:
329,304,54533,1,0,0:0:0:0:
314,291,54601,1,0,0:0:0:0:
304,274,54669,1,0,0:0:0:0:
299,254,54738,1,0,0:0:0:0:
302,234,54806,1,0,0:0:0:0:
307,217,54874,5,4,0:2:0:0:
330,235,54942,1,0,0:0:0:0:
358,243,55010,1,0,0:0:0:0:
388,237,55079,1,0,0:0:0:0:
412,220,55147,1,0,0:0:0:0:
427,195,55215,1,0,0:0:0:0:
430,165,55283,1,0,0:0:0:0:
421,137,55351,1,0,0:0:0:0:
401,113,55419,5,8,0:2:0:0:
382,136,55488,1,0,0:0:0:0:
356,150,55556,1,0,0:0:0:0:
326,153,55624,1,0,0:0:0:0:
298,144,55692,1,0,0:0:0:0:
275,124,55760,1,0,0:0:0:0:
257,99,55829,1,0,0:0:0:0:
235,79,55897,1,0,0:0:0:0:
208,68,55965,1,4,0:2:0:0:
178,67,56033,1,0,0:0:0:0:
149,76,56101,1,0,0:0:0:0:
126,95,56169,1,0,0:0:0:0:
110,120,56238,1,0,0:0:0:0:
105,150,56306,1,0,0:0:0:0:
109,179,56374,1,0,0:0:0:0:
124,205,56442,1,0,0:0:0:0:
148,222,56510,5,8,0:2:0:0:
168,200,56579,1,0,0:0:0:0:
182,173,56647,1,0,0:0:0:0:
187,144,56715,1,0,0:0:0:0:
183,114,56783,1,0,0:0:0:0:
171,87,56851,1,0,0:0:0:0:
151,64,56919,1,0,0:0:0:0:
126,48,56988,1,0,0:0:0:0:
98,45,57056,5,4,0:0:0:0:
108,83,57124,1,0,0:0:0:0:
133,114,57192,1,0,0:0:0:0:
168,132,57260,1,0,0:0:0:0:
208,135,57329,1,0,0:0:0:0:
246,122,57397,1,0,0:0:0:0:
275,95,57465,1,0,0:0:0:0:
291,59,57533,1,0,0:0:0:0:
292,19,57601,5,8,0:2:0:0:
254,30,57669,1,0,0:0:0:0:
227,60,57738,1,0,0:0:0:0:
220,99,57806,1,0,0:0:0:0:
232,136,57874,1,0,0:0:0:0:
261,165,57942,1,0,0:0:0:0:
287,194,58010,1,0,0:0:0:0:
297,232,58079,1,0,0:0:0:0:
289,271,58147,1,4,0:2:0:0:
264,302,58215,1,0,0:0:0:0:
227,318,58283,1,0,0:0:0:0:
188,315,58351,1,0,0:0:0:0:
154,295,58419,1,0,0:0:0:0:
132,262,58488,1,0,0:0:0:0:
128,223,58556,1,0,0:0:0:0:
143,186,58624,1,0,0:0:0:0:
171,157,58692,5,8,0:2:0:0:
192,201,58760,1,0,0:0:0:0:
184,249,58829,1,0,0:0:0:0:
149,285,58897,1,0,0:0:0:0:
101,294,58965,1,0,0:0:0:0:
56,273,59033,1,0,0:0:0:0:
31,231,59101,1,0,0:0:0:0:
35,182,59169,1,0,0:0:0:0:
69,145,59238,5,4,0:2:0:0:
70,164,59306,1,0,0:0:0:0:
77,183,59374,1,0,0:0:0:0:
89,199,59442,1,0,0:0:0:0:
105,211,59510,1,0,0:0:0:0:
124,217,59579,1,0,0:0:0:0:
144,218,59647,1,0,0:0:0:0:
163,213,59715,1,0,0:0:0:0:
182,207,59783,5,8,0:2:0:0:
195,221,59851,1,0,0:0:0:0:
205,238,59919,1,0,0:0:0:0:
210,258,59988,1,0,0:0:0:0:
209,277,60056,1,0,0:0:0:0:
203,296,60124,1,0,0:0:0:0:
191,313,60192,1,0,0:0:0:0:
176,326,60260,1,0,0:0:0:0:
161,339,60329,5,4,0:1:0:0:
169,310,60397,1,0,0:0:0:0:
186,286,60465,1,0,0:0:0:0:
210,268,60533,1,0,0:0:0:0:
239,260,60601,1,2,0:2:0:0:
269,262,60669,1,0,0:0:0:0:
296,273,60738,1,2,0:2:0:0:
318,293,60806,1,0,0:0:0:0:
335,316,60874,5,10,0:2:0:0:
364,289,60942,1,0,0:0:0:0:
374,251,61010,1,2,0:2:0:0:
361,213,61079,1,0,0:0:0:0:
333,185,61147,1,2,0:2:0:0:
307,155,61215,1,0,0:0:0:0:
297,117,61283,1,2,0:2:0:0:
304,78,61351,1,0,0:0:0:0:
328,40,61419,5,4,0:2:0:0:
332,59,61488,1,0,0:0:0:0:
330,79,61556,1,0,0:0:0:0:
322,97,61624,1,0,0:0:0:0:
309,112,61692,1,0,0:0:0:0:
292,122,61760,1,0,0:0:0:0:
273,127,61829,1,0,0:0:0:0:
253,125,61897,1,0,0:0:0:0:
231,120,61965,5,8,0:2:0:0:
243,135,62033,1,0,0:0:0:0:
251,153,62101,1,0,0:0:0:0:
252,173,62169,1,0,0:0:0:0:
248,192,62238,1,0,0:0:0:0:
237,210,62306,1,0,0:0:0:0:
222,223,62374,1,0,0:0:0:0:
204,230,62442,1,0,0:0:0:0:
184,233,62510,1,4,0:2:0:0:
164,233,62579,1,0,0:0:0:0:
145,239,62647,1,0,0:0:0:0:
128,251,62715,1,0,0:0:0:0:
117,267,62783,1,0,0:0:0:0:
110,285,62851,1,0,0:0:0:0:
109,305,62919,1,0,0:0:0:0:
114,324,62988,1,0,0:0:0:0:
124,342,63056,5,8,0:2:0:0:
139,329,63124,1,0,0:0:0:0:
151,313,63192,1,0,0:0:0:0:
158,294,63260,1,0,0:0:0:0:
161,275,63329,1,4,0:2:0:0:
159,255,63397,1,0,0:0:0:0:
152,236,63465,1,0,0:0:0:0:
141,220,63533,1,0,0:0:0:0:
127,205,63601,5,2,0:2:0:0:
150,186,63669,1,0,0:0:0:0:
179,177,63738,1,0,0:0:0:0:
208,178,63806,1,0,0:0:0:0:
236,190,63874,1,0,0:0:0:0:
258,210,63942,1,0,0:0:0:0:
272,236,64010,1,0,0:0:0:0:
276,266,64079,1,0,0:0:0:0:
272,296,64147,5,12,0:2:0:0:
252,273,64215,1,0,0:0:0:0:
242,245,64283,1,0,0:0:0:0:
246,216,64351,1,0,0:0:0:0:
262,190,64419,1,0,0:0:0:0:
286,173,64488,1,0,0:0:0:0:
315,166,64556,1,0,0:0:0:0:
337,146,64624,1,0,0:0:0:0:
349,119,64692,1,4,0:2:0:0:
349,89,64760,1,0,0:0:0:0:
335,63,64829,1,0,0:0:0:0:
311,45,64897,1,0,0:0:0:0:
282,39,64965,1,0,0:0:0:0:
253,46,65033,1,0,0:0:0:0:
231,65,65101,1,0,0:0:0:0:
218,92,65169,1,0,0:0:0:0:
219,122,65238,5,12,0:2:0:0:
246,111,65306,1,0,0:0:0:0:
276,113,65374,1,0,0:0:0:0:
301,128,65442,1,0,0:0:0:0:
317,153,65510,1,0,0:0:0:0:
321,183,65579,1,0,0:0:0:0:
311,211,65647,1,0,0:0:0:0:
289,231,65715,1,0,0:0:0:0:
256,242,65783,5,4,0:0:0:0:
284,214,65851,1,0,0:0:0:0:
323,208,65919,1,0,0:0:0:0:
358,224,65988,1,0,0:0:0:0:
379,258,66056,1,0,0:0:0:0:
376,297,66124,1,0,0:0:0:0:
352,328,66192,1,0,0:0:0:0:
315,340,66260,1,0,0:0:0:0:
277,325,66329,5,12,0:2:0:0:
298,291,66397,1,0,0:0:0:0:
334,274,66465,1,0,0:0:0:0:
373,276,66533,1,0,0:0:0:0:
410,291,66601,1,0,0:0:0:0:
449,290,66669,1,0,0:0:0:0:
479,265,66738,1,0,0:0:0:0:
487,227,66806,1,0,0:0:0:0:
468,192,66874,1,4,0:2:0:0:
432,178,66942,1,0,0:0:0:0:
392,189,67010,1,0,0:0:0:0:
353,181,67079,1,0,0:0:0:0:
329,150,67147,1,0,0:0:0:0:
330,111,67215,1,0,0:0:0:0:
357,83,67283,1,0,0:0:0:0:
396,78,67351,1,0,0:0:0:0:
431,104,67419,5,12,0:2:0:0:
396,139,67488,1,0,0:0:0:0:
348,146,67556,1,0,0:0:0:0:
305,122,67624,1,0,0:0:0:0:
264,91,67692,1,0,0:0:0:0:
216,79,67760,1,0,0:0:0:0:
169,96,67829,1,0,0:0:0:0:
140,136,67897,1,0,0:0:0:0:
140,189,67965,5,4,0:2:0:0:
154,174,68033,1,0,0:0:0:0:
171,164,68101,1,0,0:0:0:0:
190,159,68169,1,0,0:0:0:0:
210,158,68238,1,0,0:0:0:0:
229,163,68306,1,0,0:0:0:0:
247,172,68374,1,0,0:0:0:0:
262,186,68442,1,0,0:0:0:0:
273,202,68510,5,12,0:2:0:0:
254,194,68579,1,0,0:0:0:0:
234,191,68647,1,0,0:0:0:0:
215,194,68715,1,0,0:0:0:0:
197,203,68783,1,0,0:0:0:0:
182,216,68851,1,0,0:0:0:0:
171,232,68919,1,0,0:0:0:0:
165,252,68988,1,0,0:0:0:0:
165,272,69056,5,8,0:0:0:0:
117,262,69124,1,8,0:0:0:0:
88,222,69192,1,8,0:0:0:0:
95,174,69260,1,8,0:0:0:0:
136,143,69329,1,8,0:0:0:0:
161,101,69397,1,8,0:0:0:0:
153,52,69465,1,8,0:0:0:0:
116,20,69533,1,8,0:0:0:0:
67,23,69601,5,0,0:0:0:0:
85,46,69669,1,0,0:0:0:0:
103,70,69738,1,0,0:0:0:0:
121,94,69806,1,0,0:0:0:0:
139,118,69874,1,0,0:0:0:0:
157,142,69942,1,0,0:0:0:0:
175,166,70010,1,0,0:0:0:0:
193,190,70079,1,0,0:0:0:0:
212,212,70147,6,0,B|230:180|230:180|92:213,1,150,4|0,0:2|0:0,0:0:0:0:
51,337,70419,5,2,0:2:0:0:
46,316,70488,1,8,0:0:0:0:
57,299,70556,1,2,0:2:0:0:
75,290,70624,1,8,0:0:0:0:
95,291,70692,1,2,0:2:0:0:
110,303,70760,1,8,0:0:0:0:
117,321,70829,5,2,0:2:0:0:
164,337,70897,1,8,0:0:0:0:
204,306,70965,2,0,L|154:279,3,50,2|8|2|8,0:2|0:0|0:2|0:0,0:0:0:0:
272,205,71238,5,2,0:1:0:0:
300,177,71306,1,8,0:0:0:0:
339,170,71374,1,2,0:2:0:0:
376,184,71442,1,8,0:0:0:0:
400,215,71510,1,2,0:1:0:0:
406,254,71579,1,8,0:0:0:0:
391,291,71647,5,2,0:2:0:0:
355,271,71715,1,8,0:0:0:0:
343,232,71783,1,2,0:1:0:0:
360,196,71851,1,8,0:0:0:0:
395,178,71919,1,2,0:2:0:0:
419,146,71988,1,8,0:0:0:0:
425,106,72056,2,0,P|416:85|375:61,1,50,2|8,0:2|0:0,0:0:0:0:
339,3,72192,2,0,P|316:1|275:26,1,50,2|8,0:2|0:0,0:0:0:0:
202,115,72329,5,2,0:1:0:0:
159,101,72397,1,8,0:0:0:0:
146,57,72465,1,2,0:2:0:0:
170,19,72533,1,8,0:0:0:0:
213,8,72601,1,2,0:2:0:0:
252,30,72669,1,8,0:0:0:0:
267,72,72738,1,2,0:2:0:0:
255,115,72806,1,8,0:0:0:0:
227,150,72874,1,2,0:1:0:0:
200,186,72942,1,8,0:0:0:0:
191,230,73010,1,2,0:2:0:0:
204,273,73079,1,8,0:0:0:0:
239,300,73147,2,0,P|230:250|236:239,3,50,2|8|2|8,0:2|0:0|0:2|0:0,0:0:0:0:
326,176,73419,5,2,0:1:0:0:
355,156,73488,1,8,0:0:0:0:
389,160,73556,1,2,0:2:0:0:
418,179,73624,1,8,0:0:0:0:
431,211,73692,1,2,0:1:0:0:
426,245,73760,1,8,0:0:0:0:
406,274,73829,1,2,0:2:0:0:
372,284,73897,1,8,0:0:0:0:
340,269,73965,2,0,L|346:203,3,50,2|8|2|8,0:1|0:0|0:2|0:0,0:0:0:0:
455,115,74238,2,0,L|461:181,3,50,2|8|2|8,0:1|0:0|0:2|0:0,0:0:0:0:
491,352,74510,5,6,0:2:0:0:
471,353,74579,1,8,0:0:0:0:
451,355,74647,1,2,0:2:0:0:
431,357,74715,1,8,0:0:0:0:
411,359,74783,1,2,0:2:0:0:
391,361,74851,1,8,0:0:0:0:
371,362,74919,1,2,0:2:0:0:
351,364,74988,1,8,0:0:0:0:
331,366,75056,1,2,0:1:0:0:
311,368,75124,1,8,0:0:0:0:
290,369,75192,5,2,0:2:0:0:
298,329,75260,1,8,0:0:0:0:
308,289,75329,2,0,L|328:197,3,50,2|8|2|8,0:2|0:0|0:2|0:0,0:0:0:0:
237,195,75601,5,2,0:2:0:0:
207,188,75669,1,8,0:0:0:0:
177,193,75738,1,2,0:2:0:0:
154,212,75806,1,8,0:0:0:0:
142,239,75874,1,2,0:2:0:0:
143,268,75942,1,8,0:0:0:0:
156,294,76010,5,2,0:2:0:0:
186,267,76079,1,8,0:0:0:0:
187,227,76147,1,2,0:2:0:0:
161,196,76215,1,8,0:0:0:0:
123,183,76283,1,2,0:2:0:0:
96,152,76351,1,8,0:0:0:0:
100,112,76419,2,0,P|117:81|155:65,3,50,2|8|2|8,0:2|0:0|0:2|0:0,0:0:0:0:
212,26,76692,5,4,0:2:0:0:
219,39,76760,1,8,0:0:0:0:
228,50,76829,1,2,0:2:0:0:
240,60,76897,1,8,0:0:0:0:
252,68,76965,1,2,0:2:0:0:
266,73,77033,1,8,0:0:0:0:
281,76,77101,1,2,0:2:0:0:
296,76,77169,1,8,0:0:0:0:
325,48,77238,5,4,0:1:0:0:
326,62,77306,1,8,0:0:0:0:
328,77,77374,1,2,0:2:0:0:
330,92,77442,1,8,0:0:0:0:
332,107,77510,1,2,0:2:0:0:
334,121,77579,1,8,0:0:0:0:
335,137,77647,1,2,0:2:0:0:
337,152,77715,1,8,0:0:0:0:
307,178,77783,5,4,0:1:0:0:
305,193,77851,1,8,0:0:0:0:
303,208,77919,1,2,0:2:0:0:
302,223,77988,1,8,0:0:0:0:
300,238,78056,1,2,0:2:0:0:
298,251,78124,1,8,0:0:0:0:
296,268,78192,1,2,0:2:0:0:
295,282,78260,1,8,0:0:0:0:
331,317,78329,6,0,L|313:253,1,50,8|8,0:2|0:0,0:0:0:0:
197,226,78465,1,8,0:0:0:0:
147,224,78533,1,8,0:0:0:0:
108,254,78601,1,8,0:0:0:0:
95,301,78669,1,8,0:0:0:0:
113,346,78738,1,8,0:0:0:0:
156,371,78806,1,8,0:0:0:0:
206,366,78874,6,0,B|271:363|271:363|272:366|272:366|373:361,1,150,6|0,0:0|0:0,0:0:0:0:
484,343,79147,5,2,0:2:0:0:
463,341,79215,1,8,0:0:0:0:
444,334,79283,1,2,0:2:0:0:
428,322,79351,1,8,0:0:0:0:
415,307,79419,1,2,0:1:0:0:
408,288,79488,1,8,0:0:0:0:
409,268,79556,1,2,0:2:0:0:
417,250,79624,1,8,0:0:0:0:
431,236,79692,5,2,0:2:0:0:
470,239,79760,1,8,0:0:0:0:
504,217,79829,2,0,P|514:189|505:162,1,50,2|8,0:2|0:0,0:0:0:0:
424,122,79965,5,2,0:1:0:0:
399,138,80033,1,8,0:0:0:0:
369,140,80101,1,2,0:2:0:0:
342,125,80169,1,8,0:0:0:0:
329,97,80238,1,2,0:2:0:0:
331,67,80306,1,8,0:0:0:0:
349,43,80374,5,2,0:2:0:0:
357,81,80442,1,8,0:0:0:0:
329,110,80510,1,2,0:1:0:0:
288,115,80579,1,8,0:0:0:0:
251,98,80647,1,2,0:2:0:0:
226,66,80715,1,8,0:0:0:0:
193,42,80783,1,2,0:1:0:0:
153,45,80851,1,8,0:0:0:0:
125,73,80919,2,0,P|112:103|120:138,1,50,2|8,0:2|0:0,0:0:0:0:
47,235,81056,5,2,0:1:0:0:
44,275,81124,1,8,0:0:0:0:
63,309,81192,1,2,0:2:0:0:
99,326,81260,1,8,0:0:0:0:
141,317,81329,1,2,0:2:0:0:
168,288,81397,1,8,0:0:0:0:
171,248,81465,5,2,0:2:0:0:
146,279,81533,1,8,0:0:0:0:
155,317,81601,1,2,0:1:0:0:
189,335,81669,1,8,0:0:0:0:
228,326,81738,1,2,0:2:0:0:
250,293,81806,1,8,0:0:0:0:
286,276,81874,2,0,P|318:269|361:283,3,50,2|8|2|8,0:2|0:0|0:2|0:0,0:0:0:0:
423,363,82147,5,2,0:1:0:0:
422,343,82215,1,8,0:0:0:0:
421,323,82283,1,2,0:2:0:0:
420,303,82351,1,8,0:0:0:0:
419,283,82419,1,2,0:1:0:0:
418,263,82488,1,8,0:0:0:0:
417,243,82556,1,2,0:2:0:0:
416,223,82624,1,8,0:0:0:0:
415,203,82692,2,0,L|409:111,3,50,2|8|2|8,0:1|0:0|0:2|0:0,0:0:0:0:
322,49,82965,2,0,L|316:141,3,50,2|8|2|8,0:1|0:0|0:2|0:0,0:0:0:0:
276,212,83238,5,4,0:1:0:0:
246,214,83306,1,8,0:0:0:0:
216,216,83374,1,2,0:2:0:0:
186,219,83442,1,8,0:0:0:0:
156,221,83510,1,2,0:2:0:0:
126,224,83579,1,8,0:0:0:0:
96,226,83647,5,2,0:2:0:0:
128,202,83715,1,8,0:0:0:0:
149,168,83783,1,2,0:1:0:0:
148,129,83851,1,8,0:0:0:0:
127,96,83919,1,2,0:2:0:0:
91,79,83988,1,8,0:0:0:0:
50,79,84056,2,0,P|25:100|12:141,3,50,2|8|2|8,0:2|0:0|0:2|0:0,0:0:0:0:
29,267,84329,5,2,0:2:0:0:
50,300,84397,1,8,0:0:0:0:
86,315,84465,1,2,0:2:0:0:
124,305,84533,1,8,0:0:0:0:
150,274,84601,1,2,0:2:0:0:
178,246,84669,1,8,0:0:0:0:
217,235,84738,1,2,0:2:0:0:
255,244,84806,1,8,0:0:0:0:
280,274,84874,2,0,L|269:354,3,50,2|8|2|8,0:1|0:0|0:2|0:0,0:0:0:0:
386,384,85147,6,0,L|375:304,1,50,2|8,0:1|0:0,0:0:0:0:
393,377,85283,2,0,L|382:297,1,50,2|8,0:2|0:0,0:0:0:0:
381,114,85419,5,4,0:1:0:0:
424,91,85488,1,8,0:0:0:0:
473,100,85556,1,2,0:2:0:0:
506,136,85624,1,8,0:0:0:0:
512,184,85692,1,2,0:2:0:0:
487,227,85760,1,8,0:0:0:0:
442,246,85829,1,2,0:2:0:0:
394,234,85897,1,8,0:0:0:0:
365,192,85965,5,4,0:1:0:0:
353,182,86033,1,8,0:0:0:0:
339,175,86101,1,2,0:2:0:0:
325,169,86169,1,8,0:0:0:0:
311,166,86238,1,2,0:2:0:0:
296,164,86306,1,8,0:0:0:0:
281,164,86374,1,2,0:2:0:0:
266,166,86442,1,8,0:0:0:0:
233,158,86510,5,0,0:0:0:0:
236,177,86579,1,8,2:3:0:0:
239,197,86647,1,8,2:3:0:0:
242,217,86715,1,8,2:3:0:0:
245,236,86783,1,8,2:3:0:0:
248,256,86851,1,8,2:3:0:0:
252,276,86919,1,8,2:3:0:0:
255,296,86988,1,8,2:3:0:0:
290,315,87056,5,0,0:0:0:0:
264,351,87124,1,0,0:0:0:0:
221,365,87192,1,0,0:0:0:0:
179,347,87260,1,0,0:0:0:0:
154,308,87329,1,0,0:0:0:0:
125,287,87397,1,0,0:0:0:0:
96,278,87465,1,0,0:0:0:0:
72,285,87533,1,0,0:0:0:0:
58,300,87601,6,0,B|76:331|76:331|104:189,1,150,6|0,0:0|0:0,0:0:0:0:
22,141,87874,5,2,0:2:0:0:
41,145,87942,1,8,0:0:0:0:
61,145,88010,1,2,0:2:0:0:
80,139,88079,1,8,0:0:0:0:
97,129,88147,1,2,0:1:0:0:
111,115,88215,1,8,0:0:0:0:
121,97,88283,1,2,0:2:0:0:
126,78,88351,1,8,0:0:0:0:
126,58,88419,2,0,P|118:40|90:13,3,50,2|8|2|8,0:2|0:0|0:2|0:0,0:0:0:0:
276,9,88692,5,2,0:1:0:0:
238,21,88760,1,8,0:0:0:0:
210,50,88829,1,2,0:2:0:0:
200,88,88897,1,8,0:0:0:0:
208,126,88965,1,2,0:2:0:0:
233,157,89033,1,8,0:0:0:0:
270,173,89101,5,2,0:2:0:0:
273,153,89169,1,8,0:0:0:0:
280,134,89238,1,2,0:1:0:0:
292,118,89306,1,8,0:0:0:0:
307,105,89374,1,2,0:2:0:0:
325,96,89442,1,8,0:0:0:0:
345,92,89510,2,0,P|378:123|378:153,1,50,2|8,0:1|0:0,0:0:0:0:
456,175,89647,2,0,P|457:220|436:241,1,50,2|8,0:2|0:0,0:0:0:0:
311,226,89783,5,2,0:1:0:0:
275,258,89851,1,8,0:0:0:0:
285,305,89919,1,2,0:2:0:0:
330,321,89988,1,8,0:0:0:0:
370,292,90056,5,2,0:0:0:0:
347,272,90124,1,8,0:0:0:0:
318,264,90192,1,2,0:0:0:0:
289,270,90260,1,8,0:0:0:0:
263,285,90329,2,0,P|252:315|207:336,3,50,2|8|2|8,0:2|0:0|0:2|0:0,0:0:0:0:
154,372,90601,2,0,P|125:385|78:368,3,50,2|8|2|8,0:2|0:0|0:2|0:0,0:0:0:0:
47,284,90874,5,2,0:1:0:0:
64,248,90942,1,8,0:0:0:0:
82,212,91010,1,2,0:2:0:0:
100,176,91079,1,8,0:0:0:0:
117,140,91147,5,2,0:2:0:0:
91,155,91215,1,8,0:0:0:0:
62,156,91283,1,2,0:2:0:0:
35,143,91351,1,8,0:0:0:0:
19,118,91419,2,0,P|39:97|67:93,3,50,2|8|2|8,0:1|0:0|0:2|0:0,0:0:0:0:
92,10,91692,2,0,P|120:9|147:24,3,50,2|8|2|8,0:1|0:0|0:2|0:0,0:0:0:0:
211,146,91965,5,6,0:0:0:0:
257,158,92033,1,8,0:0:0:0:
301,136,92101,1,2,0:2:0:0:
319,91,92169,1,8,0:0:0:0:
304,45,92238,5,2,0:0:0:0:
276,56,92306,1,8,0:0:0:0:
259,80,92374,1,2,0:0:0:0:
257,110,92442,1,8,0:0:0:0:
262,139,92510,2,0,P|272:173|309:194,3,50,2|8|2|8,0:1|0:0|0:2|0:0,0:0:0:0:
240,276,92783,2,0,P|215:263|195:227,3,50,2|8|2|8,0:2|0:0|0:2|0:0,0:0:0:0:
163,131,93056,5,2,0:1:0:0:
123,133,93124,1,8,0:0:0:0:
90,155,93192,1,2,0:2:0:0:
74,191,93260,1,8,0:0:0:0:
78,230,93328,5,2,0:2:0:0:
99,208,93397,1,8,0:0:0:0:
127,199,93465,1,2,0:2:0:0:
156,203,93533,1,8,0:0:0:0:
174,227,93601,2,0,P|146:261|106:250,3,50,2|8|2|8,0:2|0:0|0:2|0:0,0:0:0:0:
0,253,93874,2,0,P|27:218|69:221,3,50,2|8|2|8,0:2|0:0|0:2|0:0,0:0:0:0:
31,77,94147,5,6,0:0:0:0:
64,55,94215,1,8,0:0:0:0:
103,53,94283,1,2,0:2:0:0:
138,71,94351,1,8,0:0:0:0:
158,105,94419,5,2,0:2:0:0:
181,87,94488,1,8,0:0:0:0:
195,60,94556,1,2,0:2:0:0:
194,30,94624,1,8,0:0:0:0:
183,2,94692,2,0,P|212:-2|238:7,3,50,2|8|2|8,0:1|0:0|0:2|0:0,0:0:0:0:
335,0,94965,2,0,P|358:15|376:43,3,50,2|8|2|8,0:1|0:0|0:2|0:0,0:0:0:0:
278,172,95238,5,0,2:3:0:0:
286,166,95306,1,8,2:3:0:0:
294,160,95374,1,8,2:3:0:0:
302,155,95442,1,8,2:3:0:0:
311,149,95510,1,8,2:3:0:0:
319,143,95579,1,8,2:3:0:0:
327,138,95647,1,8,2:3:0:0:
335,132,95715,1,8,2:3:0:0:
337,103,95783,5,0,0:0:0:0:
350,117,95851,1,0,0:0:0:0:
364,132,95919,1,8,2:3:0:0:
377,146,95988,1,8,2:3:0:0:
391,161,96056,1,8,2:3:0:0:
405,176,96124,1,8,2:3:0:0:
417,190,96192,1,8,2:3:0:0:
432,205,96260,1,8,2:3:0:0:
461,216,96329,6,0,B|505:214|505:214|417:312,1,150,6|0,0:0|0:0,0:0:0:0:
354,377,96601,5,2,0:2:0:0:
341,361,96669,1,8,0:0:0:0:
329,345,96738,1,2,0:2:0:0:
316,330,96806,1,8,0:0:0:0:
318,303,96874,1,2,0:1:0:0:
304,289,96942,1,8,0:0:0:0:
289,275,97010,1,2,0:2:0:0:
275,261,97079,1,8,0:0:0:0:
258,250,97147,2,0,P|236:266|225:290,3,50,2|8|2|8,0:2|0:0|0:2|0:0,0:0:0:0:
111,355,97419,5,2,0:1:0:0:
128,330,97488,1,8,0:0:0:0:
134,301,97556,1,2,0:2:0:0:
128,272,97624,1,8,0:0:0:0:
110,248,97692,1,2,0:1:0:0:
84,234,97760,1,8,0:0:0:0:
52,234,97829,5,2,0:2:0:0:
80,260,97897,1,8,0:0:0:0:
119,267,97965,1,2,0:1:0:0:
155,251,98033,1,8,0:0:0:0:
177,219,98101,1,2,0:2:0:0:
181,179,98169,1,8,0:0:0:0:
169,139,98238,2,0,P|156:121|131:108,3,50,2|8|2|8,0:2|0:0|0:2|0:0,0:0:0:0:
50,12,98510,5,2,0:1:0:0:
66,36,98579,1,8,0:0:0:0:
91,53,98647,1,2,0:2:0:0:
119,61,98715,1,8,0:0:0:0:
149,58,98783,1,2,0:2:0:0:
176,45,98851,1,8,0:0:0:0:
200,22,98919,5,2,0:2:0:0:
160,25,98988,1,8,0:0:0:0:
128,47,99056,1,2,0:1:0:0:
111,83,99124,1,8,0:0:0:0:
115,123,99192,1,2,0:2:0:0:
138,155,99260,1,8,0:0:0:0:
174,175,99329,2,0,P|200:180|225:174,3,50,2|8|2|8,0:2|0:0|0:2|0:0,0:0:0:0:
278,26,99601,5,2,0:1:0:0:
326,27,99669,1,8,0:0:0:0:
356,64,99738,1,2,0:2:0:0:
350,112,99806,1,8,0:0:0:0:
309,139,99874,5,0,0:0:0:0:
321,112,99942,1,0,0:0:0:0:
346,96,100010,1,0,0:0:0:0:
376,96,100078,1,0,0:0:0:0:
404,108,100147,2,0,P|439:127|447:166,3,50,2|8|2|8,0:2|0:0|0:2|0:0,0:0:0:0:
495,220,100419,2,0,P|496:259|466:286,3,50,2|8|2|8,0:2|0:0|0:2|0:0,0:0:0:0:
357,353,100692,5,2,0:0:0:0:
355,304,100760,1,8,0:0:0:0:
321,268,100828,1,2,0:0:0:0:
275,250,100897,1,8,0:0:0:0:
246,210,100965,1,2,0:0:0:0:
242,161,101033,1,8,0:0:0:0:
257,133,101101,5,2,0:2:0:0:
287,157,101169,1,8,0:0:0:0:
303,194,101238,1,2,0:2:0:0:
299,233,101306,1,8,0:0:0:0:
277,266,101374,1,2,0:2:0:0:
241,284,101442,1,8,0:0:0:0:
201,284,101510,2,0,P|176:265|166:236,3,50,2|8|2|8,0:2|0:0|0:2|0:0,0:0:0:0:
172,375,101783,5,2,0:1:0:0:
211,379,101851,1,8,0:0:0:0:
247,363,101919,1,2,0:2:0:0:
271,331,101988,1,8,0:0:0:0:
283,293,102056,2,0,P|272:279|240:268,1,40,2|8,0:2|0:0,0:0:0:0:
244,186,102192,2,0,P|226:183|195:198,1,40,2|8,0:2|0:0,0:0:0:0:
89,257,102329,5,2,0:1:0:0:
70,233,102397,1,8,0:0:0:0:
68,204,102465,1,2,0:2:0:0:
83,179,102533,1,8,0:0:0:0:
110,166,102601,1,2,0:2:0:0:
139,172,102669,1,8,0:0:0:0:
160,193,102738,1,2,0:2:0:0:
165,222,102806,1,8,0:0:0:0:
154,249,102874,5,4,0:1:0:0:
129,206,102942,1,8,0:0:0:0:
136,158,103010,1,2,0:2:0:0:
172,124,103079,1,8,0:0:0:0:
221,121,103147,1,2,0:2:0:0:
263,149,103215,1,8,0:0:0:0:
306,171,103283,1,2,0:2:0:0:
354,163,103351,1,8,0:0:0:0:
388,128,103419,1,4,0:1:0:0:
393,79,103488,1,8,0:0:0:0:
367,37,103556,1,2,0:2:0:0:
321,20,103624,1,8,0:0:0:0:
272,28,103692,2,0,P|264:63|267:79,3,50,2|8|2|8,0:2|0:0|0:2|0:0,0:0:0:0:
200,230,103965,5,4,0:1:0:0:
156,208,104033,1,8,2:3:0:0:
146,161,104101,1,8,2:3:0:0:
176,123,104169,1,8,2:3:0:0:
224,123,104238,1,8,2:3:0:0:
255,160,104306,1,8,2:3:0:0:
248,210,104374,2,0,P|212:210|191:234,1,50,8|8,2:3|2:3,0:0:0:0:
83,286,104510,5,2,0:0:0:0:
68,237,104579,1,8,2:3:0:0:
55,188,104647,1,8,2:3:0:0:
44,144,104715,1,8,2:3:0:0:
35,105,104783,1,8,2:3:0:0:
28,75,104851,1,8,2:3:0:0:
23,55,104919,2,0,P|46:79|61:110,1,50,8|8,2:3|2:3,0:0:0:0:
113,177,105056,6,0,B|70:173|70:173|62:180|62:180|-1:174,2,100,6|8|0,0:0|0:0|0:0,0:0:0:0:
180,78,105397,1,0,0:0:0:0:
196,88,105465,2,0,L|212:194,1,100,8|2,0:0|0:0,0:0:0:0:
310,228,105738,2,0,L|326:122,1,100,8|0,0:0|0:0,0:0:0:0:
361,298,105942,1,0,0:0:0:0:
352,309,106010,6,0,B|303:325|303:325|262:298,1,100,8|2,0:0|0:0,0:0:0:0:
188,197,106283,2,0,P|174:251|172:313,1,100,8|0,0:0|0:0,0:0:0:0:
20,381,106488,1,0,0:0:0:0:
38,379,106556,2,0,P|78:334|68:273,1,100,8|2,0:0|0:0,0:0:0:0:
27,218,106829,2,0,L|41:99,1,100,8|0,0:0|0:0,0:0:0:0:
43,93,107033,1,0,0:0:0:0:
45,78,107101,1,8,0:0:0:0:
252,134,107238,6,0,P|276:191|264:233,2,100,2|8|0,0:0|0:0|0:0,0:0:0:0:
167,78,107579,1,0,0:0:0:0:
172,62,107647,2,0,L|313:34,1,100,8|2,0:0|0:0,0:0:0:0:
188,197,107919,2,0,L|47:169,1,100,8|0,0:0|0:0,0:0:0:0:
340,116,108124,1,0,0:0:0:0:
357,115,108192,2,0,P|388:165|354:195,1,100,8|2,0:0|0:0,0:0:0:0:
295,299,108465,2,0,P|361:277|424:271,1,100,8|0,0:0|0:0,0:0:0:0:
410,274,108669,1,0,0:0:0:0:
419,279,108738,1,8,0:0:0:0:
193,216,108874,6,0,B|180:211|187:187|187:187|140:255|190:325,1,150.000005722046,4|8,0:2|0:0,0:0:0:0:
301,101,109147,2,0,B|286:135|255:135|255:135|209:81|134:118|132:118,1,150.000005722046,4|8,0:2|0:0,0:0:0:0:
61,153,109419,6,0,B|48:179|48:179|29:68,2,125,4|8|0,0:1|0:0|0:0,0:0:0:0:
112,68,109760,1,0,0:0:0:0:
108,39,109829,2,0,P|59:-3|-33:36,1,125,8|2,0:0|0:0,0:0:0:0:
153,140,110101,2,0,P|216:148|272:65,1,125,8|0,0:0|0:0,0:0:0:0:
267,99,110306,1,0,0:0:0:0:
268,88,110374,1,8,0:0:0:0:
124,230,110510,6,0,P|122:298|181:361,2,125,2|8|0,0:0|0:0|0:0,0:0:0:0:
300,264,110851,1,0,0:0:0:0:
310,275,110919,2,0,B|257:280|207:270|207:270|237:255,1,125,8|2,0:0|0:0,0:0:0:0:
370,220,111192,2,0,L|341:356,1,125,8|0,0:0|0:0,0:0:0:0:
341,360,111397,1,0,0:0:0:0:
338,374,111465,1,8,0:0:0:0:
309,137,111601,6,0,B|295:113|295:113|419:134,2,125,2|8|0,0:0|0:0|0:0,0:0:0:0:
252,194,111942,1,0,0:0:0:0:
244,183,112010,2,0,L|266:38,1,125,8|2,0:0|0:0,0:0:0:0:
119,0,112283,2,0,L|141:145,1,125,8|2,0:0|0:0,0:0:0:0:
141,141,112488,1,0,0:0:0:0:
145,154,112556,1,8,0:0:0:0:
82,263,112692,6,0,L|14:233,3,62.5,2|8|8|8,0:0|2:3|2:3|2:3,0:0:0:0:
166,345,112965,2,0,L|98:375,3,62.5,2|8|8|8,0:2|2:3|2:3|2:3,0:0:0:0:
215,237,113238,5,0,0:0:0:0:
251,203,113306,1,0,0:0:0:0:
300,195,113374,1,0,0:0:0:0:
341,222,113442,1,0,0:0:0:0:
364,265,113510,1,0,0:0:0:0:
394,287,113579,1,0,0:0:0:0:
425,284,113647,1,0,0:0:0:0:
441,265,113715,1,0,0:0:0:0:
446,251,113783,6,0,B|465:235|465:235|458:327,2,100,6|8|2,0:0|0:0|0:0,0:0:0:0:
393,172,114192,2,0,P|434:129|485:131,1,100,8|2,0:0|0:0,0:0:0:0:
512,38,114465,2,0,P|468:17|405:41,1,100,8|0,0:0|0:0,0:0:0:0:
262,0,114669,1,0,0:0:0:0:
276,4,114738,2,0,P|324:49|309:111,1,100,8|2,0:0|0:0,0:0:0:0:
227,104,115010,6,0,P|210:157|223:211,1,100,8|0,0:0|0:0,0:0:0:0:
330,242,115215,1,0,0:0:0:0:
340,231,115283,2,0,B|340:202|340:202|270:152,1,100,8|2,0:0|0:0,0:0:0:0:
108,100,115556,2,0,P|158:78|169:17,1,100,8|0,0:0|0:0,0:0:0:0:
174,28,115760,1,0,0:0:0:0:
167,14,115829,1,8,0:0:0:0:
81,213,115965,6,0,P|61:161|2:146,2,100,2|8|0,0:0|0:0|0:0,0:0:0:0:
37,314,116306,1,0,0:0:0:0:
39,329,116374,2,0,B|39:350|39:350|110:298,1,100,8|2,0:0|0:0,0:0:0:0:
220,219,116647,2,0,L|196:334,1,100,8|0,0:0|0:0,0:0:0:0:
307,208,116851,1,0,0:0:0:0:
318,199,116919,2,0,P|366:214|388:287,1,100,8|2,0:0|0:0,0:0:0:0:
450,366,117192,2,0,L|479:246,1,100,8|0,0:0|0:0,0:0:0:0:
480,246,117397,1,0,0:0:0:0:
484,231,117465,1,8,0:0:0:0:
410,107,117601,6,0,B|424:107|426:83|426:83|452:148|397:201,1,150,4|8,0:2|0:0,0:0:0:0:
324,57,117874,2,0,B|328:69|325:89|325:89|348:14|406:-4,1,150.000005722046,4|8,0:2|0:0,0:0:0:0:
196,10,118147,6,0,P|190:72|121:110,2,125,4|8|0,0:1|0:0|0:0,0:0:0:0:
289,163,118488,1,0,0:0:0:0:
291,181,118556,2,0,B|285:217|285:217|246:121,1,125,8|2,0:0|0:0,0:0:0:0:
162,266,118829,2,0,P|238:292|254:359,1,125,8|0,0:0|0:0,0:0:0:0:
254,347,119033,1,0,0:0:0:0:
250,366,119101,1,8,0:0:0:0:
416,198,119238,6,0,P|364:247|353:323,2,125,2|8|0,0:0|0:0|0:0,0:0:0:0:
262,95,119579,1,0,0:0:0:0:
259,76,119647,2,0,L|383:34,1,125,8|2,0:0|0:0,0:0:0:0:
353,151,119919,2,0,L|229:192,1,125,8|0,0:0|0:0,0:0:0:0:
216,195,120124,1,0,0:0:0:0:
198,200,120192,1,8,0:0:0:0:
119,66,120329,6,0,P|189:46|222:-9,2,125,2|8|0,0:0|0:0|0:0,0:0:0:0:
399,94,120669,1,0,0:0:0:0:
389,77,120738,2,0,P|324:81|275:125,1,125,8|2,0:0|0:0,0:0:0:0:
364,303,121010,2,0,P|332:224|354:159,1,125,8|2,0:0|0:0,0:0:0:0:
349,171,121215,1,0,0:0:0:0:
363,159,121283,1,8,0:0:0:0:
360,32,121419,6,0,L|293:17,3,62.5,2|8|8|8,0:0|2:3|2:3|2:3,0:0:0:0:
181,151,121692,2,0,L|242:142,3,62.5,0|8|8|8,0:0|2:3|2:3|2:3,0:0:0:0:
89,53,121965,5,0,0:0:0:0:
49,71,122033,1,0,0:0:0:0:
26,107,122101,1,0,0:0:0:0:
26,150,122169,1,0,0:0:0:0:
47,187,122238,1,0,0:0:0:0:
67,201,122306,1,0,0:0:0:0:
81,221,122374,1,0,0:0:0:0:
88,245,122442,1,0,0:0:0:0:
86,270,122510,5,6,0:0:0:0:
126,221,122579,1,8,0:0:0:0:
187,211,122647,1,2,0:0:0:0:
241,241,122715,1,8,0:0:0:0:
264,298,122783,1,2,0:0:0:0:
311,338,122851,1,8,0:0:0:0:
373,340,122919,1,2,0:0:0:0:
425,304,122988,1,8,0:0:0:0:
440,243,123056,1,2,0:0:0:0:
422,183,123124,1,8,0:0:0:0:
368,150,123192,1,2,0:0:0:0:
305,150,123260,1,8,0:0:0:0:
248,178,123329,1,2,0:0:0:0:
186,167,123397,1,8,0:0:0:0:
149,116,123465,1,2,0:0:0:0:
154,53,123533,1,8,0:0:0:0:
200,11,123601,1,2,0:0:0:0:
262,7,123669,1,8,0:0:0:0:
310,47,123738,1,2,0:0:0:0:
323,107,123806,1,8,0:0:0:0:
300,165,123874,1,2,0:0:0:0:
245,195,123942,1,8,0:0:0:0:
182,191,124010,1,2,0:0:0:0:
129,156,124079,1,8,0:0:0:0:
107,97,124147,2,0,L|168:105,3,62.5,2|8|2|8,0:0|0:0|0:0|0:0,0:0:0:0:
236,20,124419,2,0,L|297:12,3,62.5,2|8|2|8,0:0|0:0|0:0|0:0,0:0:0:0:
424,113,124692,5,6,0:0:0:0:
462,161,124760,1,8,0:0:0:0:
459,224,124829,1,2,0:0:0:0:
414,267,124897,1,8,0:0:0:0:
351,265,124965,1,2,0:0:0:0:
301,226,125033,1,8,0:0:0:0:
274,169,125101,1,2,0:0:0:0:
218,139,125169,1,8,0:0:0:0:
155,150,125238,1,2,0:0:0:0:
117,199,125306,1,8,0:0:0:0:
117,261,125374,1,2,0:0:0:0:
157,308,125442,1,8,0:0:0:0:
218,318,125510,1,2,0:0:0:0:
272,286,125579,1,8,0:0:0:0:
292,227,125647,1,2,0:0:0:0:
265,170,125715,1,8,0:0:0:0:
205,152,125783,1,2,0:0:0:0:
155,177,125851,1,8,0:0:0:0:
144,225,125919,1,2,0:0:0:0:
165,263,125988,1,8,0:0:0:0:
201,269,126056,1,2,0:0:0:0:
225,249,126124,1,8,0:0:0:0:
230,224,126192,1,2,0:0:0:0:
220,207,126260,1,8,0:0:0:0:
209,199,126329,2,0,L|140:205,3,62.5,2|8|2|8,0:0|0:0|0:0|0:0,0:0:0:0:
20,309,126601,2,0,L|89:315,3,62.5,2|8|2|8,0:0|0:0|0:0|0:0,0:0:0:0:
248,365,126874,5,4,0:2:0:0:
292,341,126942,1,8,0:0:0:0:
308,293,127010,1,2,0:0:0:0:
295,243,127079,1,8,0:0:0:0:
254,213,127147,1,2,0:0:0:0:
216,180,127215,1,8,0:0:0:0:
211,130,127283,1,2,0:0:0:0:
233,85,127351,1,8,0:0:0:0:
278,63,127419,1,2,0:0:0:0:
327,75,127488,1,8,0:0:0:0:
357,114,127556,1,2,0:0:0:0:
364,163,127624,1,8,0:0:0:0:
359,212,127692,1,2,0:0:0:0:
386,253,127760,1,8,0:0:0:0:
433,270,127829,1,2,0:0:0:0:
480,253,127897,1,8,0:0:0:0:
502,208,127965,1,2,0:0:0:0:
494,158,128033,1,8,0:0:0:0:
458,123,128101,1,2,0:0:0:0:
408,117,128169,1,8,0:0:0:0:
364,143,128238,1,2,0:0:0:0:
333,182,128306,1,8,0:0:0:0:
285,197,128374,1,2,0:0:0:0:
239,175,128442,1,8,0:0:0:0:
225,127,128510,2,0,L|238:59,3,62.5,2|8|2|8,0:0|0:0|0:0|0:0,0:0:0:0:
111,6,128783,2,0,L|124:74,3,62.5,2|8|2|8,0:0|0:0|0:0|0:0,0:0:0:0:
24,181,129056,5,4,0:2:0:0:
65,153,129124,1,8,0:0:0:0:
114,154,129192,1,2,0:0:0:0:
155,182,129260,1,8,0:0:0:0:
176,228,129329,1,4,0:2:0:0:
217,255,129397,1,8,0:0:0:0:
266,248,129465,1,2,0:0:0:0:
303,214,129533,1,8,0:0:0:0:
312,165,129601,1,4,0:2:0:0:
287,121,129669,1,8,0:0:0:0:
238,103,129738,1,2,0:0:0:0:
195,128,129806,1,8,0:0:0:0:
182,175,129874,1,2,0:0:0:0:
209,216,129942,1,8,0:0:0:0:
258,224,130010,1,2,0:0:0:0:
291,187,130079,1,8,0:0:0:0:
285,137,130147,5,4,0:2:0:0:
244,175,130215,1,8,0:0:0:0:
241,231,130283,1,2,0:0:0:0:
285,265,130351,1,8,0:0:0:0:
341,266,130419,1,2,0:0:0:0:
383,224,130488,1,8,0:0:0:0:
439,225,130556,1,2,0:0:0:0:
479,263,130624,1,8,0:0:0:0:
487,318,130692,2,0,L|476:386,3,62.5,8|8|8|8,2:0|2:3|2:3|2:3,0:0:0:0:
355,225,130965,2,0,L|345:163,3,62.5,8|8|8|8,2:3|2:3|2:3|2:3,0:0:0:0:
252,341,131238,5,6,0:0:0:0:
202,338,131306,1,0,0:0:0:0:
166,302,131374,1,0,0:0:0:0:
158,252,131442,1,0,0:0:0:0:
182,208,131510,1,2,0:2:0:0:
226,184,131579,1,8,0:0:0:0:
254,143,131647,1,2,0:0:0:0:
261,93,131715,1,8,0:0:0:0:
236,49,131783,1,2,0:0:0:0:
189,29,131851,1,8,0:0:0:0:
140,41,131919,1,2,0:0:0:0:
110,81,131988,1,8,0:0:0:0:
107,130,132056,1,2,0:0:0:0:
130,173,132124,1,8,0:0:0:0:
172,199,132192,1,2,0:0:0:0:
220,208,132260,1,8,0:0:0:0:
269,196,132329,1,2,0:0:0:0:
304,160,132397,1,8,0:0:0:0:
349,139,132465,1,2,0:0:0:0:
398,142,132533,1,8,0:0:0:0:
442,165,132601,1,2,0:0:0:0:
461,210,132669,1,8,0:0:0:0:
455,260,132738,1,2,0:0:0:0:
423,298,132806,1,8,0:0:0:0:
373,302,132874,2,0,L|363:228,3,62.5,2|8|2|8,0:0|0:0|0:0|0:0,0:0:0:0:
254,222,133147,2,0,L|262:160,3,62.5,2|8|2|8,0:0|0:0|0:0|0:0,0:0:0:0:
444,43,133419,5,6,0:0:0:0:
418,85,133488,1,8,0:0:0:0:
371,103,133556,1,2,0:0:0:0:
322,89,133624,1,8,0:0:0:0:
291,48,133692,1,2,0:0:0:0:
257,10,133760,1,8,0:0:0:0:
207,4,133829,1,2,0:0:0:0:
162,25,133897,1,8,0:0:0:0:
140,70,133965,1,2,0:0:0:0:
151,119,134033,1,8,0:0:0:0:
189,150,134101,1,2,0:0:0:0:
238,159,134169,1,8,0:0:0:0:
287,155,134238,1,2,0:0:0:0:
330,178,134306,1,8,0:0:0:0:
353,222,134374,1,2,0:0:0:0:
343,271,134442,1,8,0:0:0:0:
304,303,134510,1,2,0:0:0:0:
253,304,134579,1,8,0:0:0:0:
215,271,134647,1,2,0:0:0:0:
191,227,134715,1,8,0:0:0:0:
158,189,134783,1,2,0:0:0:0:
108,184,134851,1,8,0:0:0:0:
66,212,134919,1,2,0:0:0:0:
50,260,134988,1,8,0:0:0:0:
69,306,135056,2,0,L|140:298,3,62.5,2|8|2|8,0:0|0:0|0:0|0:0,0:0:0:0:
256,384,135329,2,0,L|185:376,3,62.5,2|8|2|8,0:0|0:0|0:0|0:0,0:0:0:0:
106,164,135601,5,4,0:2:0:0:
137,125,135669,1,8,0:0:0:0:
186,115,135738,1,2,0:0:0:0:
232,134,135806,1,8,0:0:0:0:
264,171,135874,1,2,0:0:0:0:
286,215,135942,1,8,0:0:0:0:
328,240,136010,1,2,0:0:0:0:
378,238,136079,1,8,0:0:0:0:
420,212,136147,1,2,0:0:0:0:
441,167,136215,1,8,0:0:0:0:
432,117,136283,1,2,0:0:0:0:
399,78,136351,1,8,0:0:0:0:
351,61,136419,1,2,0:0:0:0:
301,72,136488,1,8,0:0:0:0:
273,113,136556,1,2,0:0:0:0:
269,162,136624,1,8,0:0:0:0:
293,205,136692,1,2,0:0:0:0:
304,253,136760,1,8,0:0:0:0:
284,299,136829,1,2,0:0:0:0:
241,324,136897,1,8,0:0:0:0:
191,323,136965,1,2,0:0:0:0:
152,290,137033,1,8,0:0:0:0:
142,240,137101,1,2,0:0:0:0:
162,194,137169,1,8,0:0:0:0:
205,167,137238,2,0,L|282:174,3,62.5,2|8|2|8,0:0|0:0|0:0|0:0,0:0:0:0:
326,281,137510,2,0,L|388:275,3,62.5,2|8|2|8,0:0|0:0|0:0|0:0,0:0:0:0:
447,130,137783,5,4,0:2:0:0:
423,86,137851,1,8,0:0:0:0:
379,60,137919,1,2,0:0:0:0:
328,64,137988,1,8,0:0:0:0:
294,101,138056,1,4,0:2:0:0:
263,140,138124,1,8,0:0:0:0:
213,148,138192,1,2,0:0:0:0:
168,126,138260,1,8,0:0:0:0:
146,80,138329,1,4,0:2:0:0:
157,31,138397,1,8,0:0:0:0:
196,0,138465,1,2,0:0:0:0:
245,0,138533,1,8,0:0:0:0:
282,32,138601,1,2,0:0:0:0:
282,81,138669,1,8,0:0:0:0:
248,119,138738,1,2,0:0:0:0:
198,120,138806,1,8,0:0:0:0:
168,80,138874,5,4,0:2:0:0:
224,80,138942,1,8,0:0:0:0:
263,119,139010,1,2,0:0:0:0:
271,175,139079,1,8,0:0:0:0:
240,221,139147,1,2,0:0:0:0:
202,262,139215,1,8,0:0:0:0:
197,317,139283,1,4,0:2:0:0:
232,360,139351,1,0,0:0:0:0:
286,373,139419,2,0,L|368:342,3,62.5
453,258,139692,2,0,L|383:243,3,62.5
306,98,139965,5,4,0:0:0:0:
325,120,140033,1,0,0:0:0:0:
351,135,140101,1,0,0:0:0:0:
380,139,140169,1,0,0:0:0:0:
409,132,140238,1,0,0:0:0:0:
433,114,140306,1,0,0:0:0:0:
450,89,140374,1,0,0:0:0:0:
455,60,140442,1,0,0:0:0:0:
449,31,140510,5,12,0:2:0:0:
419,33,140579,1,0,0:0:0:0:
393,49,140647,1,0,0:0:0:0:
376,73,140715,1,0,0:0:0:0:
371,102,140783,1,0,0:0:0:0:
379,131,140851,1,0,0:0:0:0:
399,154,140919,1,0,0:0:0:0:
426,167,140988,1,0,0:0:0:0:
451,184,141056,1,4,0:2:0:0:
466,210,141124,1,0,0:0:0:0:
469,239,141192,1,0,0:0:0:0:
460,268,141260,1,0,0:0:0:0:
439,289,141329,1,0,0:0:0:0:
412,301,141397,1,0,0:0:0:0:
382,300,141465,1,0,0:0:0:0:
356,287,141533,1,0,0:0:0:0:
337,263,141601,5,12,0:2:0:0:
361,246,141669,1,0,0:0:0:0:
390,237,141738,1,0,0:0:0:0:
420,239,141806,1,0,0:0:0:0:
447,250,141874,1,0,0:0:0:0:
470,270,141942,1,0,0:0:0:0:
485,295,142010,1,0,0:0:0:0:
491,325,142079,1,0,0:0:0:0:
487,357,142147,5,4,0:2:0:0:
458,331,142215,1,0,0:0:0:0:
423,310,142283,1,0,0:0:0:0:
385,298,142351,1,0,0:0:0:0:
346,293,142419,1,0,0:0:0:0:
306,297,142488,1,0,0:0:0:0:
268,308,142556,1,0,0:0:0:0:
233,327,142624,1,0,0:0:0:0:
209,359,142692,5,12,0:2:0:0:
210,319,142760,1,0,0:0:0:0:
197,281,142829,1,0,0:0:0:0:
170,252,142897,1,0,0:0:0:0:
132,238,142965,1,0,0:0:0:0:
94,227,143033,1,0,0:0:0:0:
67,197,143101,1,0,0:0:0:0:
61,158,143169,1,0,0:0:0:0:
77,122,143238,1,4,0:2:0:0:
110,100,143306,1,0,0:0:0:0:
149,99,143374,1,0,0:0:0:0:
183,120,143442,1,0,0:0:0:0:
197,142,143510,1,0,0:0:0:0:
199,181,143579,1,0,0:0:0:0:
176,213,143647,1,0,0:0:0:0:
139,225,143715,1,0,0:0:0:0:
101,212,143783,5,12,0:2:0:0:
127,182,143851,1,0,0:0:0:0:
163,166,143919,1,0,0:0:0:0:
203,168,143988,1,0,0:0:0:0:
238,188,144056,1,0,0:0:0:0:
275,202,144124,1,0,0:0:0:0:
314,196,144192,1,0,0:0:0:0:
345,171,144260,1,0,0:0:0:0:
357,132,144329,5,4,0:0:0:0:
395,162,144397,1,0,0:0:0:0:
404,210,144465,1,0,0:0:0:0:
381,254,144533,1,0,0:0:0:0:
336,272,144601,1,0,0:0:0:0:
289,258,144669,1,0,0:0:0:0:
262,217,144738,1,0,0:0:0:0:
267,169,144806,1,0,0:0:0:0:
304,135,144874,5,12,0:2:0:0:
307,183,144942,1,0,0:0:0:0:
279,223,145010,1,0,0:0:0:0:
232,236,145079,1,0,0:0:0:0:
182,229,145147,1,0,0:0:0:0:
134,215,145215,1,0,0:0:0:0:
89,234,145283,1,0,0:0:0:0:
64,276,145351,1,0,0:0:0:0:
69,325,145419,1,4,0:2:0:0:
103,360,145488,1,0,0:0:0:0:
152,367,145556,1,0,0:0:0:0:
193,339,145624,1,0,0:0:0:0:
195,290,145692,1,0,0:0:0:0:
158,259,145760,1,0,0:0:0:0:
111,270,145829,1,0,0:0:0:0:
92,314,145897,1,0,0:0:0:0:
118,355,145965,5,12,0:2:0:0:
149,305,146033,1,0,0:0:0:0:
141,247,146101,1,0,0:0:0:0:
94,210,146169,1,0,0:0:0:0:
58,163,146238,1,2,0:2:0:0:
67,106,146306,1,0,0:0:0:0:
116,74,146374,1,0,0:0:0:0:
173,89,146442,1,0,0:0:0:0:
200,143,146510,5,4,0:2:0:0:
171,151,146579,1,0,0:0:0:0:
141,151,146647,1,0,0:0:0:0:
112,142,146715,1,0,0:0:0:0:
88,126,146783,1,0,0:0:0:0:
69,102,146851,1,0,0:0:0:0:
58,75,146919,1,0,0:0:0:0:
55,45,146988,1,0,0:0:0:0:
60,15,147056,5,12,0:2:0:0:
88,23,147124,1,0,0:0:0:0:
113,40,147192,1,0,0:0:0:0:
131,64,147260,1,0,0:0:0:0:
141,92,147329,1,0,0:0:0:0:
143,122,147397,1,0,0:0:0:0:
135,150,147465,1,0,0:0:0:0:
119,176,147533,1,0,0:0:0:0:
93,194,147601,5,4,0:1:0:0:
125,216,147669,1,0,0:0:0:0:
164,223,147738,1,0,0:0:0:0:
202,213,147806,1,0,0:0:0:0:
233,188,147874,1,2,0:2:0:0:
250,152,147942,1,0,0:0:0:0:
250,112,148010,1,2,0:2:0:0:
233,76,148079,1,0,0:0:0:0:
202,49,148147,5,10,0:2:0:0:
183,94,148215,1,0,0:0:0:0:
196,141,148283,1,2,0:2:0:0:
235,171,148351,1,0,0:0:0:0:
284,172,148419,1,2,0:2:0:0:
323,142,148488,1,0,0:0:0:0:
336,95,148556,1,2,0:2:0:0:
318,49,148624,1,0,0:0:0:0:
276,25,148692,5,4,0:2:0:0:
273,54,148760,1,0,0:0:0:0:
283,82,148829,1,0,0:0:0:0:
302,105,148897,1,0,0:0:0:0:
329,117,148965,1,0,0:0:0:0:
359,118,149033,1,0,0:0:0:0:
387,107,149101,1,0,0:0:0:0:
408,86,149169,1,0,0:0:0:0:
420,58,149238,5,12,0:2:0:0:
444,75,149306,1,0,0:0:0:0:
459,100,149374,1,0,0:0:0:0:
464,130,149442,1,0,0:0:0:0:
457,159,149510,1,0,0:0:0:0:
439,183,149579,1,0,0:0:0:0:
416,202,149647,1,0,0:0:0:0:
391,218,149715,1,0,0:0:0:0:
377,245,149783,1,4,0:2:0:0:
376,274,149851,1,0,0:0:0:0:
389,301,149919,1,0,0:0:0:0:
412,319,149988,1,0,0:0:0:0:
442,325,150056,1,0,0:0:0:0:
470,317,150124,1,0,0:0:0:0:
492,296,150192,1,0,0:0:0:0:
502,268,150260,1,0,0:0:0:0:
501,238,150329,5,12,0:2:0:0:
471,233,150397,1,0,0:0:0:0:
441,236,150465,1,0,0:0:0:0:
413,246,150533,1,0,0:0:0:0:
388,262,150601,1,4,0:2:0:0:
367,284,150669,1,0,0:0:0:0:
353,310,150738,1,0,0:0:0:0:
345,339,150806,1,0,0:0:0:0:
345,370,150874,5,2,0:2:0:0:
380,353,150942,1,0,0:0:0:0:
405,322,151010,1,0,0:0:0:0:
415,283,151079,1,0,0:0:0:0:
406,245,151147,1,0,0:0:0:0:
384,211,151215,1,0,0:0:0:0:
364,177,151283,1,0,0:0:0:0:
361,137,151351,1,0,0:0:0:0:
373,99,151419,5,12,0:2:0:0:
404,123,151488,1,0,0:0:0:0:
418,160,151556,1,0,0:0:0:0:
410,198,151624,1,0,0:0:0:0:
383,227,151692,1,0,0:0:0:0:
345,238,151760,1,0,0:0:0:0:
307,226,151829,1,0,0:0:0:0:
278,198,151897,1,0,0:0:0:0:
245,175,151965,1,4,0:2:0:0:
205,173,152033,1,0,0:0:0:0:
170,190,152101,1,0,0:0:0:0:
149,224,152169,1,0,0:0:0:0:
147,263,152238,1,0,0:0:0:0:
165,298,152306,1,0,0:0:0:0:
199,319,152374,1,0,0:0:0:0:
239,319,152442,1,0,0:0:0:0:
274,301,152510,5,12,0:2:0:0:
248,270,152579,1,0,0:0:0:0:
214,249,152647,1,0,0:0:0:0:
175,240,152715,1,0,0:0:0:0:
136,243,152783,1,0,0:0:0:0:
99,259,152851,1,0,0:0:0:0:
69,285,152919,1,0,0:0:0:0:
49,319,152988,1,0,0:0:0:0:
40,359,153056,5,4,0:2:0:0:
88,349,153124,1,0,0:0:0:0:
120,312,153192,1,0,0:0:0:0:
123,263,153260,1,0,0:0:0:0:
100,217,153329,1,0,0:0:0:0:
99,167,153397,1,0,0:0:0:0:
125,125,153465,1,0,0:0:0:0:
169,104,153533,1,0,0:0:0:0:
216,119,153601,5,12,0:2:0:0:
183,155,153669,1,0,0:0:0:0:
135,168,153738,1,0,0:0:0:0:
88,153,153806,1,0,0:0:0:0:
57,115,153874,1,0,0:0:0:0:
52,66,153942,1,0,0:0:0:0:
74,22,154010,1,0,0:0:0:0:
117,0,154079,1,0,0:0:0:0:
167,3,154147,1,4,0:2:0:0:
201,37,154215,1,0,0:0:0:0:
203,86,154283,1,0,0:0:0:0:
172,123,154351,1,0,0:0:0:0:
123,128,154419,1,0,0:0:0:0:
84,99,154488,1,0,0:0:0:0:
75,51,154556,1,0,0:0:0:0:
101,10,154624,1,0,0:0:0:0:
148,8,154692,5,12,0:2:0:0:
115,56,154760,1,0,0:0:0:0:
123,114,154829,1,0,0:0:0:0:
160,162,154897,1,0,0:0:0:0:
198,205,154965,1,2,0:2:0:0:
190,263,155033,1,0,0:0:0:0:
142,295,155101,1,0,0:0:0:0:
86,280,155169,1,0,0:0:0:0:
62,227,155238,5,4,0:0:0:0:
91,222,155306,1,0,0:0:0:0:
121,226,155374,1,0,0:0:0:0:
148,238,155442,1,0,0:0:0:0:
172,257,155510,1,0,0:0:0:0:
189,281,155579,1,0,0:0:0:0:
199,309,155647,1,0,0:0:0:0:
202,339,155715,1,0,0:0:0:0:
194,367,155783,5,12,0:2:0:0:
222,357,155851,1,0,0:0:0:0:
247,341,155919,1,0,0:0:0:0:
266,318,155988,1,0,0:0:0:0:
278,290,156056,1,0,0:0:0:0:
282,261,156124,1,0,0:0:0:0:
278,231,156192,1,0,0:0:0:0:
265,204,156260,1,0,0:0:0:0:
246,181,156329,5,8,2:0:0:0:
251,238,156397,1,8,2:0:0:0:
301,268,156465,1,8,2:0:0:0:
355,247,156533,1,8,2:0:0:0:
380,193,156601,1,8,2:0:0:0:
425,157,156669,1,8,2:0:0:0:
481,169,156738,1,8,2:0:0:0:
507,221,156806,1,0,0:0:0:0:
478,272,156874,5,0,0:0:0:0:
466,244,156942,1,0,0:0:0:0:
454,216,157010,1,0,0:0:0:0:
443,189,157079,1,0,0:0:0:0:
431,161,157147,1,0,0:0:0:0:
419,133,157215,1,0,0:0:0:0:
408,106,157283,1,0,0:0:0:0:
396,78,157351,1,0,0:0:0:0:
383,53,157419,6,0,B|384:27|404:13|404:13|342:-7|221:45|273:154|273:154|279:112|326:93,1,350,4|0,0:0|0:0,0:0:0:0:
320,244,157965,2,0,B|363:282|377:233|433:235|433:235|397:191|343:206|343:206|288:267|215:222,1,350,4|0,0:0|0:0,0:0:0:0:
176,153,158510,5,12,0:2:0:0:
140,132,158579,1,0,0:0:0:0:
100,132,158647,1,0,0:0:0:0:
65,152,158715,1,0,0:0:0:0:
46,187,158783,1,0,0:0:0:0:
43,226,158851,1,0,0:0:0:0:
62,260,158919,1,0,0:0:0:0:
96,281,158988,1,0,0:0:0:0:
135,281,159056,5,4,0:2:0:0:
145,270,159124,1,0,0:0:0:0:
152,256,159192,1,0,0:0:0:0:
150,242,159260,1,0,0:0:0:0:
140,231,159329,1,0,0:0:0:0:
125,228,159397,1,0,0:0:0:0:
112,234,159465,1,0,0:0:0:0:
104,247,159533,1,0,0:0:0:0:
101,261,159601,6,0,B|76:298|86:341|86:341|26:301|18:253|18:253|23:251|23:251|78:178|57:84,1,350,4|0,0:2|0:0,0:0:0:0:
111,34,160147,2,0,B|154:69|152:131|152:131|177:90|177:90|170:27|109:18,1,262.500010013581,2|0,0:0|0:0,0:0:0:0:
6,59,160692,6,0,B|291:105|291:105|247:87|251:42,1,350,8|0,2:0|0:0,0:0:0:0:
321,24,161238,2,0,B|353:29|381:14|381:14|392:27|397:44|397:44|386:59|371:68|371:68|349:40|320:30,1,175
489,61,161783,6,0,B|497:137|438:173|438:173|426:172|426:172|470:213|464:275|464:275|506:230|495:177,1,350,4|0,0:0|0:0,0:0:0:0:
375,248,162329,2,0,B|304:255|265:198|265:198|267:209|267:209|226:232|215:280|215:280|164:224|88:241,1,350,4|0,0:0|0:0,0:0:0:0:
28,211,162874,5,12,0:2:0:0:
25,250,162942,1,0,0:0:0:0:
39,287,163010,1,0,0:0:0:0:
70,312,163079,1,0,0:0:0:0:
109,320,163147,1,0,0:0:0:0:
146,305,163215,1,0,0:0:0:0:
172,274,163283,1,0,0:0:0:0:
209,259,163351,1,0,0:0:0:0:
247,269,163419,5,4,0:2:0:0:
254,281,163488,1,0,0:0:0:0:
252,297,163556,1,0,0:0:0:0:
242,307,163624,1,0,0:0:0:0:
227,310,163692,1,0,0:0:0:0:
213,303,163760,1,0,0:0:0:0:
206,291,163829,1,0,0:0:0:0:
208,276,163897,1,0,0:0:0:0:
216,263,163965,6,0,B|240:216|291:214|291:214|299:210|299:210|358:282|435:250|435:250|359:253|346:206,1,350,4|0,0:2|0:0,0:0:0:0:
450,134,164510,2,0,P|422:167|449:129,1,175
482,40,165056,6,0,B|381:-13|278:66|335:94|215:235|88:142|88:142|80:126|80:107|80:107|102:151|158:150|158:150,1,562.500021457673,8|0,2:2|0:0,0:0:0:0:
164,62,166147,6,0,B|181:37|184:-1|184:-1|206:311,1,350,4|0,0:0|0:0,0:0:0:0:
137,365,166692,2,0,B|115:323|75:319|75:319|85:314|85:314|126:224|254:256|254:256|209:272|206:325,1,350,4|0,0:0|0:0,0:0:0:0:
278,360,167238,5,12,0:2:0:0:
317,367,167306,1,0,0:0:0:0:
352,348,167374,1,0,0:0:0:0:
376,316,167442,1,0,0:0:0:0:
376,276,167510,1,0,0:0:0:0:
358,239,167579,1,0,0:0:0:0:
326,214,167647,1,0,0:0:0:0:
306,179,167715,1,0,0:0:0:0:
313,139,167783,5,4,0:2:0:0:
326,145,167851,1,0,0:0:0:0:
333,159,167919,1,0,0:0:0:0:
331,173,167988,1,0,0:0:0:0:
321,184,168056,1,0,0:0:0:0:
306,187,168124,1,0,0:0:0:0:
293,181,168192,1,0,0:0:0:0:
285,168,168260,1,0,0:0:0:0:
282,151,168329,6,0,B|356:112|352:1|352:1|374:109|469:131,1,350,4|0,0:2|0:0,0:0:0:0:
444,209,168874,2,0,B|389:237|392:318|392:318|376:239|307:223,1,262.500010013581
168,312,169419,6,0,B|192:296|237:311|237:311|221:210|140:200|140:200|96:255|26:230,1,350,8|0,2:0|0:0,0:0:0:0:
59,153,169965,2,0,B|56:147|41:139|41:139|53:79|53:79|85:132|85:132|73:145|70:156,1,175
155,41,170510,6,0,B|226:23|289:50|289:50|305:122|305:122|375:170|447:129,1,350,4|0,0:0|0:0,0:0:0:0:
401,53,171056,2,0,B|380:35|372:16|372:16|416:269|416:269|418:237|434:217,1,350,4|0,0:0|0:0,0:0:0:0:
470,328,171601,5,12,0:2:0:0:
434,349,171669,1,0,0:0:0:0:
394,349,171738,1,0,0:0:0:0:
359,329,171806,1,0,0:0:0:0:
340,294,171874,1,0,0:0:0:0:
337,255,171942,1,0,0:0:0:0:
356,221,172010,1,0,0:0:0:0:
390,200,172079,1,0,0:0:0:0:
429,200,172147,5,4,0:2:0:0:
439,211,172215,1,0,0:0:0:0:
446,225,172283,1,0,0:0:0:0:
444,239,172351,1,0,0:0:0:0:
434,250,172419,1,0,0:0:0:0:
419,253,172488,1,0,0:0:0:0:
406,247,172556,1,0,0:0:0:0:
398,234,172624,1,0,0:0:0:0:
397,219,172692,6,0,B|410:182|457:167|457:167|376:106|288:138|288:138|349:133|380:185,1,350,4|0,0:2|0:0,0:0:0:0:
303,221,173238,6,0,L|299:262,1,25
197,358,173510,2,0,L|193:317,1,25
77,73,173783,2,0,B|66:17|66:17|29:277,1,300,4|0,0:2|0:0,0:0:0:0:
63,288,174260,1,0,0:0:0:0:
63,288,174329,2,0,L|49:237,1,33.3333333333333
148,178,174601,1,0,0:0:0:0:
147,62,174874,6,0,B|215:59|250:114|250:114|259:90|259:90|270:177|335:217|429:171|331:36|286:146|341:152,1,350,4|0,0:2|0:0,0:0:0:0:
322,286,175419,2,0,B|352:248|352:248|400:220|400:220|402:212|402:212|406:219|406:219|472:253|472:253|483:255|483:255|473:258|473:258|399:302|399:302|353:361,1,350,4|0,0:2|0:0,0:0:0:0:
355,378,175965,1,12,0:2:0:0:
290,147,176238,1,0,0:0:0:0:
174,258,176510,2,0,B|163:315|189:354|189:354|151:315|103:317|103:317|102:284|132:265|132:265|72:254|63:187,1,350,4|0,0:2|0:0,0:0:0:0:
43,8,177056,6,0,P|47:70|125:108,1,150,4|0,0:2|0:0,0:0:0:0:
190,17,177329,1,0,0:0:0:0:
280,147,177465,1,0,0:0:0:0:
366,45,177601,2,0,B|385:65|385:65|406:86|437:89|437:89|440:124|460:150|460:150|474:173|474:173|453:157|453:157|426:139|392:134|392:134|392:101|370:79|370:79|352:61,1,350,4|0,0:2|0:0,0:0:0:0:
316,38,178147,5,12,0:2:0:0:
311,246,178419,1,0,0:0:0:0:
235,151,178692,2,0,B|184:143|160:103|160:103|260:348,1,350,4|0,0:2|0:0,0:0:0:0:
320,272,179238,6,0,B|356:306|349:355|349:355|396:178|396:178|387:216|408:251,1,350,4|0,0:0|0:0,0:0:0:0:
483,199,179783,2,0,B|445:135|389:129|389:129|376:180|329:191|329:191|356:110|287:54,1,350,4|0,0:2|0:0,0:0:0:0:
235,148,180329,5,12,0:2:0:0:
465,73,180601,1,0,0:0:0:0:
425,293,180874,2,0,B|368:264|309:285|309:285|237:321|178:291|178:291|238:296|271:263,1,350,4|0,0:2|0:0,0:0:0:0:
201,218,181419,6,0,B|126:209|100:263|106:301|106:301|75:238|-2:224|-2:224|53:222|88:173,1,350,4|0,0:2|0:0,0:0:0:0:
195,146,181965,2,0,B|219:142|243:158|243:158|174:71|32:40|32:40|69:57|84:91,1,350,2|0,0:2|0:0,0:0:0:0:
88,93,182510,5,8,0:2:0:0:
241,38,182783,1,0,0:0:0:0:
38,171,183056,2,0,P|127:198|147:278,1,150,4|0,0:2|0:0,0:0:0:0:
129,342,183329,5,0,0:0:0:0:
252,160,183465,1,0,0:0:0:0:
303,290,183601,6,0,B|264:288|244:317|244:317|377:282|457:316|457:316|415:302|374:323,1,350,4|0,0:0|0:0,0:0:0:0:
424,383,184147,2,0,B|441:117|441:117|440:164|406:197,1,350,4|0,0:2|0:0,0:0:0:0:
387,224,184692,5,12,0:2:0:0:
499,35,184965,1,0,0:0:0:0:
270,135,185238,2,0,B|157:73|23:79|23:79|79:70|108:9,1,350,4|0,0:2|0:0,0:0:0:0:
21,0,185783,6,0,B|64:116|64:116|74:131|74:131|111:254|111:254|95:211|57:193,1,350,4|0,0:2|0:0,0:0:0:0:
24,279,186329,2,0,B|55:343|123:351|169:328|169:328|175:275|221:258|221:258|269:305|247:361,1,350,4|0,0:2|0:0,0:0:0:0:
252,359,186874,5,12,0:2:0:0:
93,189,187147,1,0,0:0:0:0:
128,349,187419,2,0,B|163:273|234:263|234:263|287:308|287:308|381:303|412:209,1,350,4|0,0:2|0:0,0:0:0:0:
487,185,187965,6,0,B|444:30|444:30|330:67|330:67|386:116,1,350,4|0,0:2|0:0,0:0:0:0:
356,211,188510,2,0,B|160:35|160:35|186:78|185:124,1,350,4|0,0:2|0:0,0:0:0:0:
175,156,189056,5,12,0:2:0:0:
395,0,189329,1,0,0:0:0:0:
478,182,189601,2,0,B|498:143|498:143|361:235|210:313,1,350,4|0,0:2|0:0,0:0:0:0:
290,355,190147,6,0,P|295:292|211:216,1,150,4|0,0:2|0:0,0:0:0:0:
113,153,190419,1,0,0:0:0:0:
201,43,190556,1,0,0:0:0:0:
279,133,190692,1,0,0:0:0:0:
378,91,190829,1,0,0:0:0:0:
369,96,190897,1,0,0:0:0:0:
364,104,190965,1,10,0:0:0:0:
412,268,191238,5,0,0:0:0:0:
393,259,191306,1,0,0:0:0:0:
373,256,191374,1,0,0:0:0:0:
352,259,191442,1,0,0:0:0:0:
335,270,191510,5,0,0:0:0:0:
223,370,191647,1,0,0:0:0:0:
311,183,191783,1,0,0:0:0:0:
175,293,191919,1,0,0:0:0:0:
227,176,192056,1,0,0:0:0:0:
139,210,192192,1,0,0:0:0:0:
54,356,192329,6,0,B|12:333|17:277|17:277|109:243|99:134|99:134|87:206|16:211,1,350,4|0,0:0|0:0,0:0:0:0:
8,124,192874,2,0,B|116:129|116:129|208:231|208:231|332:239,1,350,4|0,0:2|0:0,0:0:0:0:
343,235,193419,5,12,0:2:0:0:
233,54,193692,1,0,0:0:0:0:
434,37,193965,2,0,B|481:53|523:19|523:19|479:120|367:112|367:112|418:111|425:74,1,350,4|0,0:2|0:0,0:0:0:0:
354,31,194510,6,0,B|324:0|324:0|369:158|396:326,1,350,4|0,0:2|0:0,0:0:0:0:
329,381,195056,2,0,B|154:353|154:353|225:256|225:256|318:270,1,350,4|0,0:0|0:0,0:0:0:0:
299,280,195601,5,12,0:2:0:0:
68,358,195874,1,0,0:0:0:0:
170,162,196147,2,0,B|184:144|184:144|113:106|87:29|87:29|86:110|45:173|45:173|70:191,1,350,4|0,0:2|0:0,0:0:0:0:
133,242,196692,6,0,B|200:264|247:203|247:203|288:287|288:287|330:216|436:231,1,350,4|0,0:0|0:0,0:0:0:0:
382,323,197238,2,0,B|287:93|287:93|319:150|376:150,1,350,4|0,0:2|0:0,0:0:0:0:
402,150,197783,5,12,0:2:0:0:
258,0,198056,1,0,0:0:0:0:
61,59,198329,2,0,B|10:204|10:204|85:260|85:260|73:159,1,350,4|0,0:2|0:0,0:0:0:0:
137,101,198874,6,0,B|160:66|194:45|194:45|161:36|142:6|142:6|172:235,1,350,4|0,0:0|0:0,0:0:0:0:
151,301,199419,2,0,B|136:262|77:267|77:267|187:227|345:219,1,350,4|0,0:0|0:0,0:0:0:0:
371,225,199965,5,12,0:2:0:0:
347,47,200238,1,0,0:0:0:0:
467,279,200510,2,0,B|497:322|497:322|461:19,1,350,2|0,0:2|0:0,0:0:0:0:
365,69,201056,6,0,B|247:80|247:80|243:85|243:85|103:97|103:97|156:86|181:42,1,350,4|0,0:2|0:0,0:0:0:0:
95,19,201601,2,0,B|52:68|85:135|85:135|147:202|111:265|111:265|112:214|76:174,1,350,4|0,0:0|0:0,0:0:0:0:
51,177,202147,5,12,0:2:0:0:
96,376,202419,1,0,0:0:0:0:
210,166,202692,2,0,B|293:184|293:184|308:250|308:250|442:274|442:274|391:236,1,350,4|0,0:2|0:0,0:0:0:0:
359,135,203238,6,0,B|273:236|249:363|249:363|247:302|200:264,1,350,4|0,0:2|0:0,0:0:0:0:
142,355,203783,2,0,B|51:357|5:250|90:167|90:167|80:241|149:276,1,350,4|0,0:0|0:0,0:0:0:0:
148,249,204329,5,12,0:2:0:0:
216,53,204601,1,0,0:0:0:0:
404,274,204874,2,0,B|251:208|251:208|351:142|351:142|369:231,1,350,4|0,0:2|0:0,0:0:0:0:
449,201,205419,6,0,B|184:97|184:97|226:100|264:66,1,350,4|0,0:2|0:0,0:0:0:0:
190,16,205965,2,0,B|206:27|206:27|164:90|164:172|164:172|138:95|66:57|66:57|81:39,1,350,4|0,0:2|0:0,0:0:0:0:
95,7,206510,1,12,0:2:0:0:
10,224,206783,1,0,0:0:0:0:
252,142,207056,6,0,B|389:169|389:169|415:245|415:245|267:215,1,350,4|0,0:2|0:0,0:0:0:0:
206,209,207601,6,0,B|175:199|163:150|163:150|157:285|208:362|208:362|201:324|225:290,1,350,4|0,0:2|0:0,0:0:0:0:
237,295,208147,2,0,L|197:288,1,25
338,379,208419,2,0,L|298:386,1,25
447,289,208692,6,0,B|431:331|431:331|387:73,1,300,4|0,0:1|0:0,0:0:0:0:
420,59,209169,1,0,0:0:0:0:
420,59,209238,2,0,L|413:99,1,25
295,0,209510,2,0,L|302:40,1,25
276,171,209783,6,0,B|238:200|193:196|193:196|275:227|347:191|347:191|297:224|297:285,1,350,4|0,0:0|0:0,0:0:0:0:
413,287,210329,2,0,B|439:293|466:274|466:274|431:350|358:334|358:334|290:315|212:364,1,300,4|0,0:0|0:0,0:0:0:0:
146,377,210874,5,12,0:2:0:0:
159,339,210942,1,0,0:0:0:0:
154,300,211010,1,0,0:0:0:0:
131,267,211079,1,0,0:0:0:0:
96,248,211147,1,0,0:0:0:0:
68,220,211215,1,0,0:0:0:0:
59,181,211283,1,0,0:0:0:0:
72,144,211351,1,0,0:0:0:0:
102,118,211419,5,4,0:2:0:0:
112,128,211488,1,0,0:0:0:0:
121,140,211556,1,0,0:0:0:0:
128,153,211624,1,0,0:0:0:0:
132,168,211692,1,0,0:0:0:0:
133,183,211760,1,0,0:0:0:0:
131,198,211829,1,0,0:0:0:0:
127,212,211897,1,0,0:0:0:0:
120,225,211965,6,0,B|101:274|57:283|57:283|161:283|238:333|238:333|209:309|204:272,1,350,4|0,0:2|0:0,0:0:0:0:
301,261,212510,2,0,B|342:298|331:359|331:359|368:315|368:315|343:257|372:198,1,280
470,260,213056,6,0,B|279:186|279:186|291:99|291:99|298:137|335:169,1,350,12|0,0:2|0:0,0:0:0:0:
398,100,213601,2,0,P|427:96|389:95,1,175,4|0,0:2|0:0,0:0:0:0:
289,12,214147,6,0,B|260:69|288:135|288:135|119:102|119:102|148:106|174:91,1,350,4|0,0:0|0:0,0:0:0:0:
126,14,214692,2,0,B|74:62|90:123|90:123|81:132|81:132|144:142|161:187|161:187|96:201|89:275,1,350,4|0,0:0|0:0,0:0:0:0:
103,358,215238,5,12,0:2:0:0:
130,329,215306,1,0,0:0:0:0:
167,315,215374,1,0,0:0:0:0:
207,318,215442,1,0,0:0:0:0:
244,333,215510,1,0,0:0:0:0:
283,338,215579,1,0,0:0:0:0:
320,325,215647,1,0,0:0:0:0:
348,297,215715,1,0,0:0:0:0:
359,259,215783,5,4,0:2:0:0:
344,262,215851,1,0,0:0:0:0:
331,269,215919,1,0,0:0:0:0:
320,280,215988,1,0,0:0:0:0:
313,293,216056,1,0,0:0:0:0:
309,307,216124,1,0,0:0:0:0:
309,322,216192,1,0,0:0:0:0:
313,336,216260,1,0,0:0:0:0:
320,350,216329,6,0,B|401:388|477:356|477:356|458:312|486:276|486:276|413:315|356:283,1,350,4|0,0:2|0:0,0:0:0:0:
382,184,216874,2,0,P|444:187|384:204,1,175
461,73,217419,6,0,B|407:53|320:64|286:170|286:170|261:117|288:62|288:62|225:61|200:10|200:10|149:45|152:125|173:168,1,600,12|0,0:2|0:0,0:0:0:0:
214,264,218510,6,0,B|229:282|266:285|266:285|131:288|54:214|54:214|81:245|86:282,1,350,4|0,0:1|0:0,0:0:0:0:
6,279,219056,2,0,B|80:284|116:235|116:235|153:182|226:176|226:176|157:163|138:85,1,350,4|0,0:0|0:0,0:0:0:0:
199,40,219601,5,12,0:2:0:0:
214,76,219669,1,0,0:0:0:0:
245,100,219738,1,0,0:0:0:0:
284,106,219806,1,0,0:0:0:0:
321,93,219874,1,0,0:0:0:0:
347,63,219942,1,0,0:0:0:0:
384,46,220010,1,0,0:0:0:0:
424,47,220079,1,0,0:0:0:0:
456,68,220147,5,4,0:2:0:0:
445,78,220215,1,0,0:0:0:0:
434,88,220283,1,0,0:0:0:0:
423,99,220351,1,0,0:0:0:0:
413,109,220419,1,0,0:0:0:0:
402,120,220488,1,0,0:0:0:0:
391,130,220556,1,0,0:0:0:0:
380,141,220624,1,0,0:0:0:0:
371,153,220692,6,0,B|316:202|316:202|396:204|481:243|487:304|487:304|463:271|422:265,1,350,4|0,0:2|0:0,0:0:0:0:
415,345,221238,2,0,B|369:329|362:283|362:283|308:324|308:324|339:338,1,175
209,311,221783,6,0,B|200:339|210:364|210:364|247:280|247:280|348:203|348:203|307:218|269:207,1,350,12|0,0:2|0:0,0:0:0:0:
306,135,222329,2,0,B|309:124|321:111|321:111|300:92|300:92|289:58|289:58|289:93|289:93|277:118|277:118|292:126|297:135,1,175
195,17,222874,6,0,B|203:93|144:129|132:128|132:128|176:169|170:231|170:231|175:167|216:136,1,350,4|0,0:0|0:0,0:0:0:0:
80,206,223419,6,0,B|47:219|11:207|11:207|25:297|108:317|108:317|158:273|222:288,1,350,4|0,0:0|0:0,0:0:0:0:
285,215,223965,1,12,0:2:0:0:
293,253,224033,1,0,0:0:0:0:
319,283,224101,1,0,0:0:0:0:
357,296,224169,1,0,0:0:0:0:
396,290,224238,1,0,0:0:0:0:
427,265,224306,1,0,0:0:0:0:
443,229,224374,1,0,0:0:0:0:
439,190,224442,1,0,0:0:0:0:
419,156,224510,5,4,0:2:0:0:
405,162,224579,1,0,0:0:0:0:
393,170,224647,1,0,0:0:0:0:
382,181,224715,1,0,0:0:0:0:
374,194,224783,1,0,0:0:0:0:
369,208,224851,1,0,0:0:0:0:
366,222,224919,1,0,0:0:0:0:
366,237,224988,1,0,0:0:0:0:
368,251,225056,6,0,B|366:300|404:327|404:327|319:293|249:298|249:298|269:302|286:323,1,280,4|0,0:2|0:0,0:0:0:0:
293,200,225601,6,0,L|289:241,1,25
163,356,225874,2,0,L|159:315,1,25
109,90,226147,2,0,B|92:41|92:41|61:239,1,250,4|0,0:2|0:0,0:0:0:0:
53,343,226556,5,0,0:0:0:0:
53,343,226624,1,0,0:0:0:0:
53,343,226692,2,0,L|59:300,1,25,12|0,0:0|0:0,0:0:0:0:
68,126,226965,1,0,0:0:0:0:
68,126,227238,6,0,B|158:179|126:311|126:311|67:246|67:246|153:162|269:165|269:165|201:228|236:318|236:318|339:298|361:208|361:208|324:210|305:241|305:241|309:341|403:362,1,1079.99996704102,4|0,0:0|2:0,0:0:0:0:
405,268,229965,6,0,P|361:273|327:314,1,80,2|0,2:0|2:0,0:0:0:0:
253,307,230238,2,0,P|266:249|301:221,1,80,2|0,2:0|2:0,0:0:0:0:
346,186,230510,2,0,B|295:243|210:235|210:235|211:186|254:154|254:154|201:114|143:127|143:127|130:161|159:205,1,419.999987182618,2|0,2:0|0:0,0:0:0:0:
210,339,231601,2,0,B|140:335|123:274|123:274|110:297|81:302|81:302|106:315|114:341,1,209.999993591309,2|0,0:0|0:0,0:0:0:0:
59,216,232692,6,0,P|97:188|146:190,1,80,2|0,0:0|0:0,0:0:0:0:
209,214,232965,2,0,P|212:165|183:122,1,80,2|0,0:0|0:0,0:0:0:0:
151,75,233238,2,0,B|189:41|256:58|274:111|274:111|292:49|347:21|395:27|395:27|361:36|347:71,1,359.999989013672,2|0,0:0|0:0,0:0:0:0:
469,164,234329,6,0,P|455:127|413:103,1,80,2|0,0:0|0:0,0:0:0:0:
368,38,234601,2,0,P|342:77|340:124,1,80,2|0,0:0|0:0,0:0:0:0:
388,188,234874,2,0,B|351:217|286:209|260:158|260:158|215:217|239:273|239:273|262:330|234:366|234:366|245:338|219:297,1,419.999987182618,2|0,0:0|0:0,0:0:0:0:
161,269,235965,6,0,P|146:314|155:356,1,80,2|0,0:0|0:0,0:0:0:0:
64,260,236238,2,0,P|75:214|59:172,1,80,2|0,0:0|0:0,0:0:0:0:
128,149,236510,2,0,B|49:156|20:95|37:19|113:17|113:17|135:58|135:58|141:80|141:80|171:19|238:30|258:50,1,419.999987182618,2|0,0:0|0:0,0:0:0:0:
213,111,237601,6,0,B|191:126|215:153|238:126|217:111,1,59.9999981689454,2|0,0:0|0:0,0:0:0:0:
301,45,237874,2,0,B|322:30|300:7|275:30|296:44,1,59.9999981689454,2|0,0:0|0:0,0:0:0:0:
399,136,238147,2,0,B|429:120|463:79|454:12|454:12|496:102|444:179|444:179|461:176|461:176|398:237|428:312|428:312|426:258|467:229,1,560,2|0,0:0|0:0,0:0:0:0:
505,302,239238,6,0,P|501:348|476:372,1,59.9999981689454,2|0,0:0|0:0,0:0:0:0:
376,339,239510,2,0,P|400:319|448:314,1,59.9999981689454,2|0,0:0|0:0,0:0:0:0:
468,230,239783,2,0,B|437:212|343:217|282:279|282:344|282:344|230:264|230:264|109:231|109:231|161:250|174:318,1,560,2|0,0:0|0:0,0:0:0:0:
80,317,240874,6,0,P|40:276|39:236,1,80,2|0,0:0|0:0,0:0:0:0:
90,184,241147,2,0,P|109:200|83:189,1,80,2|0,0:0|0:0,0:0:0:0:
179,202,241419,2,0,B|182:154|150:115|106:106|70:117|70:117|120:95|144:39|117:-10|117:-10|204:13|236:55|232:114,1,479.999985351563,2|0,0:0|0:0,0:0:0:0:
228,210,243601,6,0,P|267:181|276:164,1,59.9999981689454,2|0,0:0|0:0,0:0:0:0:
255,94,243874,2,0,P|304:98|331:118,1,59.9999981689454,2|0,0:0|0:0,0:0:0:0:
344,175,244147,2,0,B|431:146|467:19|467:19|398:41|322:20|322:20|379:30|407:85|389:128,1,479.999985351563,2|0,0:0|0:0,0:0:0:0:
311,85,246329,6,0,L|346:139,1,50,2|0,0:0|0:0,0:0:0:0:
417,168,246601,2,0,L|358:199,1,50,2|0,0:0|0:0,0:0:0:0:
282,174,246874,2,0,B|259:149|259:149|246:234|312:306|312:306|260:279|217:308|217:308|242:259|201:214,1,400,2|0,0:0|0:0,0:0:0:0:
203,368,249056,6,0,L|237:343,1,40,2|0,0:0|0:0,0:0:0:0:
218,270,249329,2,0,L|261:273,1,40,2|0,0:0|0:0,0:0:0:0:
309,343,249601,2,0,B|316:283|371:270|371:270|342:216|371:154|371:154|358:212|392:257,1,320,2|0,0:0|0:0,0:0:0:0:
490,293,251782,6,0,L|425:293,1,59.9999981689454,2|0,0:0|0:0,0:0:0:0:
380,367,252328,2,0,L|337:324,1,59.9999981689454,2|0,0:0|0:0,0:0:0:0:
214,250,252873,2,0,P|193:174|226:259,1,460,2|0,2:0|2:0,2:0:0:0:
104,247,256146,5,4,0:0:0:0:
104,242,256214,1,0,0:0:0:0:
105,237,256282,1,0,0:0:0:0:
105,232,256351,1,0,0:0:0:0:
106,227,256419,1,0,0:0:0:0:
106,222,256487,1,0,0:0:0:0:
107,217,256555,1,0,0:0:0:0:
108,212,256623,1,0,0:0:0:0:
108,207,256691,1,12,0:2:0:0:
109,202,256760,1,0,0:0:0:0:
109,197,256828,1,0,0:0:0:0:
110,192,256896,1,0,0:0:0:0:
110,187,256964,1,0,0:0:0:0:
111,182,257032,1,0,0:0:0:0:
112,177,257101,1,0,0:0:0:0:
112,172,257169,1,0,0:0:0:0:
113,167,257237,1,4,0:2:0:0:
113,162,257305,1,0,0:0:0:0:
114,157,257373,1,0,0:0:0:0:
114,152,257441,1,0,0:0:0:0:
115,147,257510,1,0,0:0:0:0:
116,142,257578,1,0,0:0:0:0:
116,137,257646,1,0,0:0:0:0:
117,132,257714,1,0,0:0:0:0:
117,127,257782,1,8,0:2:0:0:
118,122,257851,1,0,0:0:0:0:
118,117,257919,1,0,0:0:0:0:
119,112,257987,1,0,0:0:0:0:
120,107,258055,1,0,0:0:0:0:
120,102,258123,1,0,0:0:0:0:
121,97,258191,1,0,0:0:0:0:
121,93,258260,1,0,0:0:0:0:
122,88,258328,5,4,0:2:0:0:
137,113,258396,1,0,0:0:0:0:
164,128,258464,1,0,0:0:0:0:
193,128,258532,1,0,0:0:0:0:
219,113,258601,1,0,0:0:0:0:
238,90,258669,1,0,0:0:0:0:
260,70,258737,1,0,0:0:0:0:
288,61,258805,1,0,0:0:0:0:
317,62,258873,1,8,0:2:0:0:
343,76,258941,1,0,0:0:0:0:
355,103,259010,1,0,0:0:0:0:
354,132,259078,1,0,0:0:0:0:
335,155,259146,1,0,0:0:0:0:
306,163,259214,1,0,0:0:0:0:
276,161,259282,1,0,0:0:0:0:
246,167,259351,1,0,0:0:0:0:
224,188,259419,1,4,0:2:0:0:
217,217,259487,1,0,0:0:0:0:
225,245,259555,1,0,0:0:0:0:
248,263,259623,1,0,0:0:0:0:
279,269,259691,1,0,0:0:0:0:
306,257,259760,1,0,0:0:0:0:
317,229,259828,1,0,0:0:0:0:
314,199,259896,1,0,0:0:0:0:
292,177,259964,1,8,0:2:0:0:
262,170,260032,1,0,0:0:0:0:
232,175,260101,1,0,0:0:0:0:
204,187,260169,1,0,0:0:0:0:
174,182,260237,1,0,0:0:0:0:
153,160,260305,1,0,0:0:0:0:
152,130,260373,1,0,0:0:0:0:
167,104,260441,1,0,0:0:0:0:
193,88,260510,5,4,0:0:0:0:
191,137,260578,1,0,0:0:0:0:
155,171,260646,1,0,0:0:0:0:
105,162,260714,1,0,0:0:0:0:
67,128,260782,1,0,0:0:0:0:
71,77,260851,1,0,0:0:0:0:
108,44,260919,1,0,0:0:0:0:
157,41,260987,1,0,0:0:0:0:
199,67,261055,1,8,0:2:0:0:
220,112,261123,1,0,0:0:0:0:
254,147,261191,1,0,0:0:0:0:
302,161,261260,1,0,0:0:0:0:
351,151,261328,1,0,0:0:0:0:
385,114,261396,1,0,0:0:0:0:
386,64,261464,1,0,0:0:0:0:
349,29,261532,1,0,0:0:0:0:
298,29,261601,1,4,0:2:0:0:
266,67,261669,1,0,0:0:0:0:
262,116,261737,1,0,0:0:0:0:
294,154,261805,1,0,0:0:0:0:
340,172,261873,1,0,0:0:0:0:
373,209,261941,1,0,0:0:0:0:
390,256,262010,1,0,0:0:0:0:
374,303,262078,1,0,0:0:0:0:
340,339,262146,5,12,0:2:0:0:
297,296,262214,1,0,0:0:0:0:
300,236,262282,1,0,0:0:0:0:
350,202,262351,1,0,0:0:0:0:
409,204,262419,1,0,0:0:0:0:
451,162,262487,1,0,0:0:0:0:
452,102,262555,1,0,0:0:0:0:
418,52,262623,1,0,0:0:0:0:
359,40,262691,5,4,0:2:0:0:
344,77,262760,1,0,0:0:0:0:
308,94,262828,1,0,0:0:0:0:
268,90,262896,1,0,0:0:0:0:
237,64,262964,1,0,0:0:0:0:
210,34,263032,1,0,0:0:0:0:
171,20,263101,1,0,0:0:0:0:
132,28,263169,1,0,0:0:0:0:
103,56,263237,1,12,0:2:0:0:
98,95,263305,1,0,0:0:0:0:
115,131,263373,1,0,0:0:0:0:
149,150,263441,1,0,0:0:0:0:
188,142,263510,1,0,0:0:0:0:
211,110,263578,1,0,0:0:0:0:
208,70,263646,1,0,0:0:0:0:
178,43,263714,1,0,0:0:0:0:
138,47,263782,5,4,0:1:0:0:
155,94,263851,1,0,0:0:0:0:
197,120,263919,1,0,0:0:0:0:
244,104,263987,1,0,0:0:0:0:
278,68,264055,1,2,0:2:0:0:
322,46,264123,1,0,0:0:0:0:
371,49,264191,1,2,0:2:0:0:
413,76,264260,1,0,0:0:0:0:
437,119,264328,5,10,0:2:0:0:
436,129,264396,1,0,0:0:0:0:
435,138,264464,1,2,0:2:0:0:
434,148,264532,1,0,0:0:0:0:
433,158,264601,1,2,0:2:0:0:
432,168,264669,1,0,0:0:0:0:
431,178,264737,1,2,0:2:0:0:
430,188,264805,1,0,0:0:0:0:
429,198,264873,1,4,0:2:0:0:
455,230,264941,5,0,0:0:0:0:
450,230,265010,1,0,0:0:0:0:
445,230,265078,1,0,0:0:0:0:
440,231,265146,1,0,0:0:0:0:
435,231,265214,1,0,0:0:0:0:
430,232,265282,1,0,0:0:0:0:
425,232,265351,1,0,0:0:0:0:
420,232,265419,1,12,0:2:0:0:
415,233,265487,1,0,0:0:0:0:
410,233,265555,1,0,0:0:0:0:
405,234,265623,1,0,0:0:0:0:
400,234,265691,1,0,0:0:0:0:
395,235,265760,1,0,0:0:0:0:
390,235,265828,1,0,0:0:0:0:
385,235,265896,1,0,0:0:0:0:
380,236,265964,1,4,0:2:0:0:
375,236,266032,1,0,0:0:0:0:
370,237,266101,1,0,0:0:0:0:
365,237,266169,1,0,0:0:0:0:
360,238,266237,1,0,0:0:0:0:
355,238,266305,1,0,0:0:0:0:
350,238,266373,1,0,0:0:0:0:
345,239,266441,1,0,0:0:0:0:
340,239,266510,1,12,0:2:0:0:
335,240,266578,1,0,0:0:0:0:
330,240,266646,1,0,0:0:0:0:
325,241,266714,1,0,0:0:0:0:
320,241,266782,1,0,0:0:0:0:
315,241,266851,1,0,0:0:0:0:
310,242,266919,1,0,0:0:0:0:
305,242,266987,1,0,0:0:0:0:
300,243,267055,5,2,0:2:0:0:
310,214,267123,1,0,0:0:0:0:
306,184,267191,1,0,0:0:0:0:
289,158,267260,1,0,0:0:0:0:
261,146,267328,1,0,0:0:0:0:
231,147,267396,1,0,0:0:0:0:
206,164,267464,1,0,0:0:0:0:
186,186,267532,1,0,0:0:0:0:
157,195,267601,1,12,0:2:0:0:
127,188,267669,1,0,0:0:0:0:
106,166,267737,1,0,0:0:0:0:
101,136,267805,1,0,0:0:0:0:
116,110,267873,1,0,0:0:0:0:
143,97,267941,1,0,0:0:0:0:
172,104,268010,1,0,0:0:0:0:
193,124,268078,1,0,0:0:0:0:
196,153,268146,1,4,0:2:0:0:
184,180,268214,1,0,0:0:0:0:
168,205,268282,1,0,0:0:0:0:
163,235,268351,1,0,0:0:0:0:
169,264,268419,1,0,0:0:0:0:
190,285,268487,1,0,0:0:0:0:
219,290,268555,1,0,0:0:0:0:
247,280,268623,1,0,0:0:0:0:
263,255,268691,1,12,0:2:0:0:
268,225,268760,1,0,0:0:0:0:
266,195,268828,1,0,0:0:0:0:
278,167,268896,1,0,0:0:0:0:
304,153,268964,1,0,0:0:0:0:
333,155,269032,1,0,0:0:0:0:
355,175,269101,1,0,0:0:0:0:
360,204,269169,1,0,0:0:0:0:
352,232,269237,5,4,0:0:0:0:
398,249,269305,1,0,0:0:0:0:
441,224,269373,1,0,0:0:0:0:
454,175,269441,1,0,0:0:0:0:
426,132,269510,1,0,0:0:0:0:
377,121,269578,1,0,0:0:0:0:
336,150,269646,1,0,0:0:0:0:
288,163,269714,1,0,0:0:0:0:
240,146,269782,1,12,0:2:0:0:
222,98,269851,1,0,0:0:0:0:
241,52,269919,1,0,0:0:0:0:
288,36,269987,1,0,0:0:0:0:
334,54,270055,1,0,0:0:0:0:
346,102,270123,1,0,0:0:0:0:
327,148,270191,1,0,0:0:0:0:
281,170,270260,1,0,0:0:0:0:
247,206,270328,1,4,0:2:0:0:
230,253,270396,1,0,0:0:0:0:
246,300,270464,1,0,0:0:0:0:
289,324,270532,1,0,0:0:0:0:
341,316,270601,1,0,0:0:0:0:
365,272,270669,1,0,0:0:0:0:
355,223,270737,1,0,0:0:0:0:
310,200,270805,1,0,0:0:0:0:
261,213,270873,5,12,0:2:0:0:
285,267,270941,1,0,0:0:0:0:
345,270,271010,1,0,0:0:0:0:
377,219,271078,1,0,0:0:0:0:
434,203,271146,1,4,0:2:0:0:
482,238,271214,1,0,0:0:0:0:
498,295,271282,1,0,0:0:0:0:
465,346,271351,1,0,0:0:0:0:
406,357,271419,5,4,0:0:0:0:
380,326,271487,1,0,0:0:0:0:
340,322,271555,1,0,0:0:0:0:
303,339,271623,1,0,0:0:0:0:
276,368,271691,1,0,0:0:0:0:
236,377,271760,1,0,0:0:0:0:
197,365,271828,1,0,0:0:0:0:
175,331,271896,1,0,0:0:0:0:
174,291,271964,1,12,0:2:0:0:
194,256,272032,1,0,0:0:0:0:
230,238,272101,1,0,0:0:0:0:
269,244,272169,1,0,0:0:0:0:
306,257,272237,1,0,0:0:0:0:
345,249,272305,1,0,0:0:0:0:
368,217,272373,1,0,0:0:0:0:
374,177,272441,1,0,0:0:0:0:
351,143,272510,2,0,L|281:157,3,50,6|8|8|8,0:0|2:3|2:3|2:3,0:0:0:0:
196,61,272782,2,0,L|266:75,3,50,8|8|8|8,2:3|2:3|2:3|2:3,0:0:0:0:
437,58,273055,5,0,0:0:0:0:
439,96,273123,1,0,0:0:0:0:
444,135,273191,1,0,0:0:0:0:
448,174,273260,1,0,0:0:0:0:
485,200,273328,5,0,0:0:0:0:
480,229,273396,1,0,0:0:0:0:
477,258,273464,1,0,0:0:0:0:
473,287,273532,1,0,0:0:0:0:
468,316,273601,6,0,B|501:301|501:301|345:280,1,150,4|0,0:2|0:0,0:0:0:0:
250,354,273873,1,2,0:2:0:0:
234,340,273941,1,8,0:0:0:0:
219,327,274010,1,2,0:2:0:0:
204,314,274078,1,8,0:0:0:0:
165,306,274146,1,2,0:2:0:0:
161,286,274214,1,8,0:0:0:0:
158,266,274282,1,2,0:2:0:0:
154,247,274351,1,8,0:0:0:0:
174,212,274419,6,0,L|121:163,3,50,2|8|2|8,0:2|0:0|0:2|0:0,0:0:0:0:
11,73,274691,5,2,0:2:0:0:
40,99,274760,1,8,0:0:0:0:
79,107,274828,1,2,0:2:0:0:
116,95,274896,1,8,0:0:0:0:
142,63,274964,1,2,0:2:0:0:
174,41,275032,1,8,0:0:0:0:
214,38,275101,1,2,0:2:0:0:
249,56,275169,1,8,0:0:0:0:
266,93,275237,5,2,0:1:0:0:
227,85,275305,1,8,0:0:0:0:
189,98,275373,1,2,0:2:0:0:
164,128,275441,1,8,0:0:0:0:
158,168,275510,2,0,P|168:212|196:238,3,50,2|8|2|8,0:1|0:0|0:2|0:0,0:0:0:0:
304,191,275782,5,2,0:1:0:0:
333,166,275851,1,8,0:0:0:0:
371,171,275919,1,2,0:2:0:0:
394,203,275987,1,8,0:0:0:0:
383,240,276055,5,2,0:2:0:0:
355,230,276123,1,8,0:0:0:0:
326,225,276191,1,2,0:2:0:0:
296,226,276260,1,8,0:0:0:0:
266,233,276328,1,2,0:1:0:0:
239,247,276396,1,8,0:0:0:0:
216,265,276464,1,2,0:2:0:0:
196,287,276532,1,8,0:0:0:0:
176,309,276601,2,0,P|151:320|121:325,3,50,2|8|2|8,0:1|0:0|0:2|0:0,0:0:0:0:
16,207,276873,5,2,0:1:0:0:
52,222,276941,1,8,0:0:0:0:
91,217,277010,1,2,0:2:0:0:
123,193,277078,1,8,0:0:0:0:
139,157,277146,1,2,0:2:0:0:
134,118,277214,1,8,0:0:0:0:
111,86,277282,1,2,0:2:0:0:
74,70,277351,1,8,0:0:0:0:
35,75,277419,2,0,P|37:105|53:127,3,50,2|8|2|8,0:1|0:0|0:2|0:0,0:0:0:0:
42,218,277691,2,0,P|64:237|91:242,3,50,4|8|2|8,0:2|0:0|0:2|0:0,0:0:0:0:
235,228,277964,5,4,0:1:0:0:
248,242,278032,1,8,0:0:0:0:
262,256,278101,1,2,0:2:0:0:
276,270,278169,1,8,0:0:0:0:
290,285,278237,1,2,0:2:0:0:
304,299,278305,1,8,0:0:0:0:
318,313,278373,1,2,0:2:0:0:
332,328,278441,1,8,0:0:0:0:
348,345,278510,5,2,0:2:0:0:
360,317,278578,1,8,0:0:0:0:
372,290,278646,1,2,0:2:0:0:
384,262,278714,1,8,0:0:0:0:
401,225,278782,2,0,L|422:172,3,50,2|8|2|8,0:2|0:0|0:2|0:0,0:0:0:0:
497,52,279055,5,2,0:1:0:0:
470,81,279123,1,8,0:0:0:0:
433,97,279191,1,2,0:2:0:0:
394,96,279260,1,8,0:0:0:0:
358,79,279328,1,2,0:1:0:0:
332,49,279396,1,8,0:0:0:0:
321,11,279464,5,2,0:2:0:0:
346,27,279532,1,8,0:0:0:0:
360,52,279601,1,2,0:1:0:0:
360,82,279669,1,8,0:0:0:0:
345,108,279737,1,2,0:2:0:0:
319,123,279805,1,8,0:0:0:0:
289,128,279873,2,0,P|264:126|238:106,3,50,2|8|2|8,0:1|0:0|0:2|0:0,0:0:0:0:
171,21,280146,5,4,0:2:0:0:
162,39,280214,1,8,0:0:0:0:
148,53,280282,1,2,0:2:0:0:
130,61,280351,1,8,0:0:0:0:
109,62,280419,5,2,0:0:0:0:
99,90,280487,1,8,0:0:0:0:
104,119,280555,1,2,0:0:0:0:
123,142,280623,1,8,0:0:0:0:
150,154,280691,1,4,0:0:0:0:
179,162,280760,1,8,0:0:0:0:
200,182,280828,1,2,0:0:0:0:
208,211,280896,1,8,0:0:0:0:
208,242,280964,2,0,P|201:262|165:286,3,50,2|8|2|8,0:2|0:0|0:2|0:0,0:0:0:0:
203,376,281237,5,4,0:2:0:0:
215,348,281305,1,8,0:0:0:0:
236,327,281373,1,2,0:2:0:0:
263,315,281441,1,8,0:0:0:0:
293,313,281510,1,2,0:2:0:0:
322,323,281578,1,8,0:0:0:0:
349,335,281646,1,2,0:2:0:0:
379,332,281714,1,8,0:0:0:0:
407,321,281782,6,0,P|425:296|427:258,1,50,8|8,2:3|2:3,0:0:0:0:
335,188,281919,2,0,P|342:158|370:132,1,50,8|8,2:3|2:3,0:0:0:0:
436,51,282055,1,8,2:3:0:0:
482,63,282123,1,8,2:3:0:0:
512,102,282191,1,8,2:3:0:0:
510,151,282260,1,8,2:3:0:0:
481,179,282328,2,0,B|431:124|431:124|422:117|422:117|359:45,1,150,4|0,0:2|0:0,0:0:0:0:
307,12,282601,5,2,0:2:0:0:
293,26,282669,1,8,0:0:0:0:
280,41,282737,1,2,0:2:0:0:
267,56,282805,1,8,0:0:0:0:
259,91,282873,1,2,0:1:0:0:
246,106,282941,1,8,0:0:0:0:
232,121,283010,1,2,0:2:0:0:
219,136,283078,1,8,0:0:0:0:
206,151,283146,5,2,0:1:0:0:
170,114,283214,1,8,0:0:0:0:
140,86,283282,2,0,L|100:49,1,50,2|8,0:2|0:0,0:0:0:0:
6,23,283419,5,2,0:1:0:0:
33,33,283487,1,8,0:0:0:0:
54,54,283555,1,2,0:2:0:0:
64,82,283623,1,8,0:0:0:0:
61,112,283691,1,2,0:1:0:0:
45,137,283760,1,8,0:0:0:0:
18,153,283828,5,2,0:2:0:0:
31,115,283896,1,8,0:0:0:0:
60,88,283964,1,2,0:1:0:0:
98,79,284032,1,8,0:0:0:0:
137,88,284101,1,2,0:2:0:0:
167,114,284169,1,8,0:0:0:0:
181,152,284237,2,0,P|182:178|166:215,3,50,2|8|2|8,0:1|0:0|0:2|0:0,0:0:0:0:
31,258,284510,5,2,0:1:0:0:
45,294,284578,1,8,0:0:0:0:
78,316,284646,1,2,0:2:0:0:
117,316,284714,1,8,0:0:0:0:
152,296,284782,1,2,0:2:0:0:
186,277,284851,1,8,0:0:0:0:
225,284,284919,1,2,0:2:0:0:
251,313,284987,1,8,0:0:0:0:
253,354,285055,5,2,0:1:0:0:
214,345,285123,1,8,0:0:0:0:
183,320,285191,1,2,0:2:0:0:
168,284,285260,1,8,0:0:0:0:
173,244,285328,2,0,P|182:214|199:195,3,50,2|8|2|8,0:2|0:0|0:2|0:0,0:0:0:0:
287,74,285601,5,2,0:1:0:0:
306,68,285669,1,8,0:0:0:0:
325,71,285737,1,2,0:2:0:0:
341,83,285805,1,8,0:0:0:0:
351,100,285873,1,2,0:1:0:0:
352,120,285941,1,8,0:0:0:0:
344,138,286010,1,2,0:2:0:0:
329,151,286078,1,8,0:0:0:0:
306,157,286146,5,2,0:0:0:0:
290,182,286214,1,8,0:0:0:0:
285,211,286282,1,2,0:0:0:0:
290,241,286350,1,8,0:0:0:0:
303,268,286419,6,0,P|327:285|333:348,3,50,2|8|2|8,0:2|0:0|0:2|0:0,0:0:0:0:
453,364,286691,5,4,0:1:0:0:
421,339,286760,1,8,0:0:0:0:
404,304,286828,1,2,0:2:0:0:
405,264,286896,1,8,0:0:0:0:
424,229,286964,1,2,0:2:0:0:
455,203,287032,1,8,0:0:0:0:
476,169,287101,1,2,0:2:0:0:
473,130,287169,1,8,0:0:0:0:
447,101,287237,1,2,0:1:0:0:
408,92,287305,1,8,0:0:0:0:
373,109,287373,1,2,0:2:0:0:
354,143,287441,1,8,0:0:0:0:
358,183,287510,6,0,P|371:202|401:215,3,50,2|8|2|8,0:2|0:0|0:2|0:0,0:0:0:0:
396,350,287782,5,2,0:1:0:0:
375,316,287851,1,8,0:0:0:0:
340,297,287919,1,2,0:2:0:0:
301,299,287987,1,8,0:0:0:0:
267,327,288055,5,2,0:1:0:0:
295,317,288123,1,8,0:0:0:0:
317,298,288191,1,2,0:2:0:0:
330,271,288260,1,8,0:0:0:0:
331,241,288328,1,2,0:1:0:0:
320,213,288396,1,8,0:0:0:0:
299,192,288464,1,2,0:2:0:0:
272,181,288532,1,8,0:0:0:0:
242,183,288601,2,0,P|221:185|191:211,3,50,2|8|2|8,0:1|0:0|0:2|0:0,0:0:0:0:
131,354,288873,5,4,0:2:0:0:
84,371,288941,1,8,0:0:0:0:
37,357,289010,1,2,0:2:0:0:
7,318,289078,1,8,0:0:0:0:
6,269,289146,1,2,0:2:0:0:
35,229,289214,1,8,0:0:0:0:
82,214,289282,1,2,0:2:0:0:
128,229,289351,1,8,0:0:0:0:
152,271,289419,5,4,0:1:0:0:
133,274,289487,1,8,0:0:0:0:
113,272,289555,1,2,0:2:0:0:
94,265,289623,1,8,0:0:0:0:
78,253,289691,1,2,0:1:0:0:
65,238,289760,1,8,0:0:0:0:
57,220,289828,1,2,0:2:0:0:
54,200,289896,1,8,0:0:0:0:
36,167,289964,5,0,0:0:0:0:
45,168,290032,1,8,0:0:0:0:
55,169,290101,1,8,0:0:0:0:
65,171,290169,1,8,0:0:0:0:
75,172,290237,1,8,0:0:0:0:
85,174,290305,1,8,0:0:0:0:
95,175,290373,1,8,0:0:0:0:
105,177,290441,1,8,0:0:0:0:
124,198,290510,5,0,0:0:0:0:
147,179,290578,1,0,0:0:0:0:
170,160,290646,1,0,0:0:0:0:
193,141,290714,1,0,0:0:0:0:
217,122,290782,1,0,0:0:0:0:
240,103,290851,1,0,0:0:0:0:
263,84,290919,1,0,0:0:0:0:
286,65,290987,1,0,0:0:0:0:
310,46,291055,6,0,B|277:29|277:29|312:166,1,150,4|0,0:0|0:0,0:0:0:0:
447,241,291328,5,2,0:2:0:0:
433,214,291396,1,8,0:0:0:0:
408,198,291464,1,2,0:2:0:0:
379,194,291532,1,8,0:0:0:0:
351,204,291601,5,2,0:1:0:0:
360,253,291669,1,8,0:0:0:0:
335,295,291737,2,0,P|309:310|272:300,1,50,2|8,0:2|0:0,0:0:0:0:
153,233,291873,5,2,0:1:0:0:
168,207,291941,1,8,0:0:0:0:
195,196,292010,2,0,P|234:210|250:246,1,50,2|8,0:2|0:0,0:0:0:0:
83,315,292146,5,2,0:1:0:0:
48,295,292214,1,8,0:0:0:0:
34,257,292282,1,2,0:2:0:0:
42,218,292351,1,8,0:0:0:0:
70,189,292419,1,2,0:1:0:0:
99,162,292487,1,8,0:0:0:0:
106,122,292555,5,2,0:2:0:0:
71,142,292623,1,8,0:0:0:0:
68,181,292691,1,2,0:1:0:0:
93,211,292760,1,8,0:0:0:0:
132,214,292828,1,2,0:2:0:0:
162,190,292896,1,8,0:0:0:0:
169,150,292964,2,0,L|146:83,3,50,2|8|2|8,0:1|0:0|0:2|0:0,0:0:0:0:
189,310,293237,5,2,0:1:0:0:
227,318,293305,1,8,0:0:0:0:
262,299,293373,1,2,0:2:0:0:
282,265,293441,1,8,0:0:0:0:
275,225,293510,5,2,0:2:0:0:
312,200,293578,1,8,0:0:0:0:
356,196,293646,1,2,0:2:0:0:
393,219,293714,1,8,0:0:0:0:
409,260,293782,2,0,L|401:327,3,50,2|8|2|8,0:1|0:0|0:2|0:0,0:0:0:0:
492,156,294055,2,0,L|500:223,3,50,2|8|2|8,0:2|0:0|0:2|0:0,0:0:0:0:
309,119,294328,5,2,0:2:0:0:
291,82,294396,1,8,0:0:0:0:
298,42,294464,1,2,0:2:0:0:
327,15,294532,1,8,0:0:0:0:
366,8,294601,1,2,0:2:0:0:
404,17,294669,1,8,0:0:0:0:
424,50,294737,1,2,0:2:0:0:
424,90,294805,1,8,0:0:0:0:
399,121,294873,2,0,L|380:62,3,50,2|8|2|8,0:1|0:0|0:2|0:0,0:0:0:0:
253,0,295146,2,0,L|234:59,3,50,2|8|2|8,0:2|0:0|0:2|0:0,0:0:0:0:
86,91,295419,5,4,0:1:0:0:
91,130,295487,1,8,0:0:0:0:
97,170,295555,1,2,0:2:0:0:
102,209,295623,1,8,0:0:0:0:
108,249,295691,1,2,0:2:0:0:
113,289,295760,1,8,0:0:0:0:
119,328,295828,5,2,0:2:0:0:
138,281,295896,1,8,0:0:0:0:
176,249,295964,1,2,0:2:0:0:
225,246,296032,1,8,0:0:0:0:
270,265,296101,1,2,0:2:0:0:
304,301,296169,1,8,0:0:0:0:
303,350,296237,2,0,L|249:335,3,50,2|8|2|8,0:2|0:0|0:2|0:0,0:0:0:0:
281,166,296510,5,2,0:1:0:0:
320,135,296578,1,8,0:0:0:0:
370,137,296646,1,2,0:2:0:0:
411,164,296714,1,8,0:0:0:0:
420,212,296782,1,2,0:1:0:0:
401,247,296851,1,8,0:0:0:0:
372,254,296919,1,2,0:2:0:0:
354,243,296987,1,8,0:0:0:0:
349,228,297055,5,2,0:1:0:0:
320,255,297123,1,8,0:0:0:0:
281,265,297191,1,2,0:2:0:0:
241,257,297260,1,8,0:0:0:0:
212,229,297328,1,2,0:2:0:0:
186,197,297396,1,8,0:0:0:0:
147,185,297464,1,2,0:2:0:0:
108,194,297532,1,8,0:0:0:0:
80,223,297601,5,4,0:2:0:0:
120,252,297669,1,8,0:0:0:0:
169,245,297737,1,2,0:2:0:0:
208,213,297805,1,8,0:0:0:0:
222,165,297873,1,2,0:2:0:0:
197,121,297941,1,8,0:0:0:0:
149,106,298010,1,2,0:2:0:0:
114,70,298078,1,8,0:0:0:0:
113,19,298146,5,4,0:1:0:0:
123,29,298214,1,8,0:0:0:0:
131,41,298282,1,2,0:2:0:0:
137,55,298351,1,8,0:0:0:0:
140,69,298419,1,2,0:2:0:0:
141,84,298487,1,8,0:0:0:0:
139,99,298555,1,2,0:2:0:0:
135,114,298623,1,8,0:0:0:0:
118,137,298691,5,0,0:0:0:0:
141,134,298760,1,8,0:0:0:0:
166,130,298828,1,8,0:0:0:0:
191,127,298896,1,8,0:0:0:0:
216,123,298964,1,8,0:0:0:0:
240,119,299032,1,8,0:0:0:0:
265,116,299101,1,8,0:0:0:0:
290,112,299169,1,8,0:0:0:0:
326,90,299237,5,0,0:0:0:0:
323,104,299305,1,0,0:0:0:0:
321,119,299373,1,0,0:0:0:0:
319,134,299441,1,0,0:0:0:0:
299,169,299510,5,0,0:0:0:0:
302,183,299578,1,0,0:0:0:0:
304,198,299646,1,0,0:0:0:0:
306,213,299714,1,0,0:0:0:0:
340,242,299782,6,0,L|359:83,1,150,4|0,0:0|0:0,0:0:0:0:
495,27,300055,5,2,0:2:0:0:
506,43,300123,1,8,0:0:0:0:
511,62,300191,1,2,0:2:0:0:
510,82,300260,1,8,0:0:0:0:
502,100,300328,1,2,0:1:0:0:
489,116,300396,1,8,0:0:0:0:
472,126,300464,1,2,0:2:0:0:
453,130,300532,1,8,0:0:0:0:
433,127,300601,5,2,0:2:0:0:
439,87,300669,1,8,0:0:0:0:
427,48,300737,2,0,P|411:30|365:21,1,50,2|8,0:2|0:0,0:0:0:0:
234,36,300873,5,2,0:1:0:0:
205,62,300941,1,8,0:0:0:0:
198,101,301010,1,2,0:2:0:0:
216,136,301078,1,8,0:0:0:0:
251,154,301146,1,2,0:1:0:0:
290,146,301214,1,8,0:0:0:0:
316,117,301282,5,2,0:2:0:0:
276,119,301351,1,8,0:0:0:0:
247,146,301419,1,2,0:1:0:0:
248,185,301487,1,8,0:0:0:0:
271,218,301555,1,2,0:2:0:0:
278,257,301623,1,8,0:0:0:0:
256,290,301691,2,0,L|178:309,3,50,2|8|2|8,0:1|0:0|0:2|0:0,0:0:0:0:
53,158,301964,5,2,0:2:0:0:
81,117,302032,1,8,0:0:0:0:
129,105,302101,1,2,0:2:0:0:
177,118,302169,1,8,0:0:0:0:
201,161,302237,1,2,0:2:0:0:
195,201,302305,1,8,0:0:0:0:
167,229,302373,1,2,0:2:0:0:
127,236,302441,1,8,0:0:0:0:
89,221,302510,2,0,L|91:157,3,50,2|8|2|8,0:1|0:0|0:2|0:0,0:0:0:0:
7,331,302782,2,0,L|5:267,3,50,2|8|2|8,0:2|0:0|0:2|0:0,0:0:0:0:
186,368,303055,5,2,0:1:0:0:
224,358,303123,1,8,0:0:0:0:
247,325,303191,1,2,0:2:0:0:
252,284,303260,1,8,0:0:0:0:
233,248,303328,1,2,0:1:0:0:
201,223,303396,1,8,0:0:0:0:
174,193,303464,1,2,0:2:0:0:
166,153,303532,1,8,0:0:0:0:
184,115,303601,1,2,0:1:0:0:
217,94,303669,1,8,0:0:0:0:
256,97,303737,1,2,0:2:0:0:
284,125,303805,1,8,0:0:0:0:
286,164,303873,5,2,0:1:0:0:
325,195,303941,1,8,0:0:0:0:
375,188,304010,2,0,P|402:177|416:158,1,50,2|8,0:2|0:0,0:0:0:0:
436,41,304146,5,4,0:1:0:0:
387,49,304214,1,8,0:0:0:0:
359,90,304282,1,2,0:2:0:0:
368,138,304351,1,8,0:0:0:0:
408,166,304419,1,2,0:2:0:0:
456,183,304487,1,8,0:0:0:0:
479,228,304555,1,2,0:2:0:0:
470,276,304623,1,8,0:0:0:0:
435,310,304691,1,2,0:1:0:0:
387,322,304760,1,8,0:0:0:0:
342,300,304828,1,2,0:2:0:0:
323,253,304896,1,8,0:0:0:0:
332,204,304964,2,0,L|403:180,3,50,2|8|2|8,0:2|0:0|0:2|0:0,0:0:0:0:
267,341,305237,5,2,0:1:0:0:
216,343,305305,1,8,0:0:0:0:
172,319,305373,1,2,0:2:0:0:
154,272,305441,1,8,0:0:0:0:
170,224,305510,1,2,0:1:0:0:
204,204,305578,1,8,0:0:0:0:
242,216,305646,1,2,0:2:0:0:
247,255,305714,1,8,0:0:0:0:
216,280,305782,5,2,0:1:0:0:
219,230,305851,1,8,0:0:0:0:
254,195,305919,1,2,0:2:0:0:
303,190,305987,1,8,0:0:0:0:
339,224,306055,1,2,0:2:0:0:
387,235,306123,1,8,0:0:0:0:
431,211,306191,1,2,0:2:0:0:
439,161,306260,1,8,0:0:0:0:
413,118,306328,5,4,0:2:0:0:
369,159,306396,1,8,0:0:0:0:
363,218,306464,1,2,0:2:0:0:
401,263,306532,1,8,0:0:0:0:
408,322,306601,1,2,0:2:0:0:
373,371,306669,1,8,0:0:0:0:
313,377,306737,1,2,0:2:0:0:
264,340,306805,1,8,0:0:0:0:
270,280,306873,5,2,0:2:0:0:
278,292,306941,1,8,0:0:0:0:
278,307,307010,1,2,0:2:0:0:
274,321,307078,1,8,0:0:0:0:
265,333,307146,1,2,0:2:0:0:
252,341,307214,1,8,0:0:0:0:
238,344,307282,1,2,0:2:0:0:
223,342,307351,1,8,0:0:0:0:
187,316,307419,5,0,0:0:0:0:
189,291,307487,1,8,0:0:0:0:
191,266,307555,1,8,0:0:0:0:
194,241,307623,1,8,0:0:0:0:
196,216,307691,1,8,0:0:0:0:
198,191,307760,1,8,0:0:0:0:
201,166,307828,1,8,0:0:0:0:
202,141,307896,1,8,0:0:0:0:
185,104,307964,5,0,0:0:0:0:
214,109,308032,1,8,0:0:0:0:
243,114,308101,1,8,0:0:0:0:
272,120,308169,1,8,0:0:0:0:
303,144,308237,5,8,0:0:0:0:
317,141,308305,1,8,0:0:0:0:
331,137,308373,2,0,L|383:125,1,50,8|8,0:0|0:0,0:0:0:0:
494,145,308510,6,0,B|516:134|516:134|470:211,2,100,2|8|0,0:0|0:0|0:0,0:0:0:0:
488,30,308851,1,0,0:0:0:0:
474,44,308919,2,0,P|426:49|365:4,1,100,8|2,0:0|0:0,0:0:0:0:
269,1,309191,2,0,P|267:61|298:103,1,100,8|0,0:0|0:0,0:0:0:0:
207,197,309396,1,0,0:0:0:0:
215,215,309464,6,0,P|226:163|195:108,1,100,8|2,0:0|0:0,0:0:0:0:
116,29,309737,2,0,P|82:79|85:151,1,100,8|0,0:0|0:0,0:0:0:0:
108,243,309941,1,0,0:0:0:0:
114,260,310010,2,0,P|115:209|165:157,1,100,8|2,0:0|0:0,0:0:0:0:
227,357,310282,2,0,P|178:343|126:353,1,100,8|0,0:0|0:0,0:0:0:0:
111,359,310487,1,0,0:0:0:0:
99,370,310555,1,8,0:0:0:0:
244,247,310691,6,0,P|300:238|337:181,2,100,2|8|0,0:0|0:0|0:0,0:0:0:0:
264,78,311032,1,0,0:0:0:0:
270,64,311101,2,0,B|286:42|286:42|405:42,1,100,8|2,0:0|0:0,0:0:0:0:
135,26,311373,2,0,P|172:69|161:119,1,100,8|0,0:0|0:0,0:0:0:0:
75,231,311578,1,0,0:0:0:0:
60,224,311646,6,0,L|23:107,1,100,8|2,0:0|0:0,0:0:0:0:
187,211,311919,2,0,L|189:322,1,100,8|0,0:0|0:0,0:0:0:0:
191,330,312123,1,0,0:0:0:0:
191,350,312191,1,8,0:0:0:0:
468,337,312328,6,0,B|479:357|495:360|495:360|444:383|394:320,1,150.000005722046,4|8,0:2|0:0,0:0:0:0:
296,265,312601,2,0,B|295:289|311:303|311:303|330:240|410:234,1,150.000005722046,4|8,0:2|0:0,0:0:0:0:
505,158,312873,6,0,P|453:113|371:107,2,125,4|8|0,0:1|0:0|0:0,0:0:0:0:
272,29,313214,1,0,0:0:0:0:
272,4,313282,2,0,P|315:63|289:136,1,125,8|2,0:0|0:0,0:0:0:0:
406,207,313555,2,0,P|360:253|295:248,1,125,8|0,0:0|0:0,0:0:0:0:
282,237,313760,1,0,0:0:0:0:
264,219,313828,1,8,0:0:0:0:
150,45,313964,6,0,B|151:12|151:12|221:105,2,125,2|8|0,0:0|0:0|0:0,0:0:0:0:
132,170,314305,1,0,0:0:0:0:
129,194,314373,2,0,P|66:168|28:118,1,125,8|2,0:0|0:0,0:0:0:0:
18,246,314646,2,0,P|84:287|100:361,1,125,8|0,0:0|0:0,0:0:0:0:
101,353,314851,1,0,0:0:0:0:
97,377,314919,1,8,0:0:0:0:
157,244,315055,6,0,B|162:229|159:209|159:209|189:237|201:300,2,125,2|8|0,0:0|0:0|0:0,0:0:0:0:
62,164,315396,1,0,0:0:0:0:
64,138,315464,2,0,B|114:96|114:96|206:114,1,125,8|2,0:0|0:0,0:0:0:0:
242,203,315737,2,0,L|290:64,1,125,8|2,0:0|0:0,0:0:0:0:
294,62,315941,1,0,0:0:0:0:
305,39,316010,1,8,0:0:0:0:
418,30,316146,6,0,L|463:75,3,62.5,2|8|0|8,0:0|2:3|0:0|2:3,0:0:0:0:
512,179,316419,2,0,L|444:209,3,62.5,0|8|8|8,0:0|2:3|2:3|2:3,0:0:0:0:
375,315,316691,5,0,0:0:0:0:
347,349,316760,1,0,0:0:0:0:
305,356,316828,1,0,0:0:0:0:
264,341,316896,1,0,0:0:0:0:
238,308,316964,1,0,0:0:0:0:
222,290,317032,1,0,0:0:0:0:
199,282,317101,1,0,0:0:0:0:
174,284,317169,1,0,0:0:0:0:
155,302,317237,6,0,P|118:337|50:327,2,100,2|8|0,0:0|0:0|0:0,0:0:0:0:
89,155,317646,2,0,B|87:207|87:207|86:209|86:209|84:266,1,100,8|2,0:0|0:0,0:0:0:0:
209,120,317919,2,0,B|207:67|207:67|206:66|206:66|204:9,1,100,8|0,0:0|0:0,0:0:0:0:
359,73,318123,1,0,0:0:0:0:
372,80,318191,6,0,P|391:140|340:188,1,100,8|2,0:0|0:0,0:0:0:0:
217,248,318464,2,0,B|254:210|254:210|325:214,1,100,8|0,0:0|0:0,0:0:0:0:
375,273,318669,1,0,0:0:0:0:
381,287,318737,2,0,L|359:392,1,100,8|2,0:0|0:0,0:0:0:0:
505,281,319010,2,0,L|483:176,1,100,8|0,0:0|0:0,0:0:0:0:
479,160,319214,1,0,0:0:0:0:
476,150,319282,1,8,0:0:0:0:
312,73,319419,6,0,B|339:47|339:47|425:55,2,100,2|8|0,0:0|0:0|0:0,0:0:0:0:
277,170,319760,1,0,0:0:0:0:
267,158,319828,2,0,L|277:44,1,100,8|2,0:0|0:0,0:0:0:0:
148,0,320101,2,0,L|158:114,1,100,8|0,0:0|0:0,0:0:0:0:
104,221,320305,1,0,0:0:0:0:
88,234,320373,2,0,P|26:215|27:141,1,100,8|2,0:0|0:0,0:0:0:0:
182,179,320646,2,0,B|214:215|214:215|207:276,1,100,8|0,0:0|0:0,0:0:0:0:
203,290,320851,1,0,0:0:0:0:
200,302,320919,1,8,0:0:0:0:
461,221,321055,6,0,B|450:243|417:250|417:250|369:202|302:222,1,150.000005722046,2|8,0:0|0:0,0:0:0:0:
308,337,321328,2,0,P|323:353|307:325,1,150.000005722046,2|8,0:0|0:0,0:0:0:0:
89,333,321601,6,0,B|62:302|52:252|52:252|64:275|85:280,2,125,4|8|0,0:1|0:0|0:0,0:0:0:0:
175,265,321941,1,0,0:0:0:0:
181,254,322010,2,0,L|34:230,1,125,8|2,0:0|0:0,0:0:0:0:
202,168,322282,2,0,P|252:195|265:275,1,125,8|0,0:0|0:0,0:0:0:0:
262,286,322487,1,0,0:0:0:0:
256,298,322555,1,8,0:0:0:0:
110,151,322691,6,0,B|117:88|117:88|118:88|118:88|124:24,2,125,4|8|0,0:2|0:0|0:0,0:0:0:0:
32,93,323032,1,0,0:0:0:0:
38,84,323101,2,0,P|103:52|157:62,1,125,8|2,0:0|0:0,0:0:0:0:
250,9,323373,2,0,P|302:59|292:124,1,125,8|0,0:0|0:0,0:0:0:0:
290,135,323578,1,0,0:0:0:0:
287,145,323646,1,8,0:0:0:0:
400,284,323782,6,0,B|410:266|410:266|290:291,2,125,2|8|0,0:0|0:0|0:0,0:0:0:0:
454,369,324123,1,0,0:0:0:0:
461,360,324191,2,0,L|466:221,1,125,8|2,0:0|0:0,0:0:0:0:
437,131,324464,2,0,B|431:117|431:117|441:71|441:71|456:118|456:118|445:144,2,125,8|2|8,0:0|0:0|0:0,0:0:0:0:
341,213,324873,5,0,0:0:0:0:
312,221,324941,1,8,2:3:0:0:
282,214,325010,1,8,2:3:0:0:
262,191,325078,1,8,2:3:0:0:
262,160,325146,2,0,P|289:130|317:129,3,50,8|8|8|8,2:3|2:3|2:3|2:3,0:0:0:0:
282,300,325419,5,0,0:0:0:0:
256,342,325487,1,0,0:0:0:0:
209,360,325555,1,0,0:0:0:0:
160,348,325623,1,0,0:0:0:0:
133,305,325691,1,0,0:0:0:0:
112,270,325760,1,0,0:0:0:0:
84,257,325828,1,0,0:0:0:0:
63,257,325896,1,0,0:0:0:0:
43,265,325964,5,2,0:0:0:0:
85,317,326032,1,8,0:0:0:0:
153,313,326101,1,2,0:0:0:0:
189,256,326169,1,8,0:0:0:0:
165,193,326237,1,2,0:0:0:0:
96,176,326305,1,8,0:0:0:0:
63,115,326373,1,2,0:0:0:0:
81,49,326441,1,8,0:0:0:0:
138,12,326510,1,2,0:0:0:0:
206,24,326578,1,8,0:0:0:0:
247,78,326646,1,2,0:0:0:0:
237,148,326714,1,8,0:0:0:0:
277,203,326782,1,2,0:0:0:0:
344,219,326851,1,8,0:0:0:0:
404,187,326919,1,2,0:0:0:0:
429,123,326987,1,8,0:0:0:0:
406,58,327055,1,2,0:0:0:0:
342,25,327123,1,8,0:0:0:0:
275,42,327191,1,2,0:0:0:0:
238,100,327260,1,8,0:0:0:0:
248,167,327328,1,2,0:0:0:0:
301,211,327396,1,8,0:0:0:0:
370,200,327464,1,2,0:0:0:0:
432,231,327532,1,8,0:0:0:0:
457,296,327601,2,0,P|450:342|422:369,3,69.9999978637696,2|8|2|8,0:0|0:0|0:0|0:0,0:0:0:0:
309,373,327873,2,0,P|275:388|218:368,3,69.9999978637696,2|8|2|8,0:0|0:0|0:0|0:0,0:0:0:0:
108,265,328146,5,2,0:0:0:0:
97,206,328214,1,8,0:0:0:0:
134,161,328282,1,2,0:0:0:0:
192,158,328351,1,8,0:0:0:0:
234,199,328419,1,2,0:0:0:0:
233,259,328487,1,8,0:0:0:0:
274,300,328555,1,2,0:0:0:0:
333,302,328623,1,8,0:0:0:0:
378,264,328691,1,2,0:0:0:0:
385,206,328760,1,8,0:0:0:0:
352,158,328828,1,2,0:0:0:0:
293,142,328896,1,8,0:0:0:0:
245,108,328964,1,2,0:0:0:0:
241,50,329032,1,8,0:0:0:0:
282,9,329101,1,2,0:0:0:0:
340,13,329169,1,8,0:0:0:0:
370,65,329237,1,2,0:0:0:0:
344,112,329305,1,8,0:0:0:0:
296,107,329373,1,2,0:0:0:0:
278,68,329441,1,8,0:0:0:0:
299,39,329510,1,2,0:0:0:0:
329,35,329578,1,8,0:0:0:0:
351,55,329646,1,2,0:0:0:0:
351,78,329714,1,8,0:0:0:0:
339,92,329782,2,0,P|312:113|286:118,3,59.9999981689454,2|8|2|8,0:0|0:0|0:0|0:0,0:0:0:0:
164,252,330055,2,0,P|190:230|216:226,3,59.9999981689454,2|8|2|8,0:0|0:0|0:0|0:0,0:0:0:0:
345,338,330328,5,6,0:0:0:0:
398,363,330396,1,8,0:0:0:0:
455,350,330464,1,2,0:0:0:0:
493,305,330532,1,8,0:0:0:0:
495,246,330601,1,2,0:0:0:0:
460,198,330669,1,8,0:0:0:0:
403,182,330737,1,2,0:0:0:0:
349,204,330805,1,8,0:0:0:0:
317,256,330873,1,2,0:0:0:0:
263,280,330941,1,8,0:0:0:0:
205,269,331010,1,2,0:0:0:0:
164,226,331078,1,8,0:0:0:0:
155,168,331146,1,2,0:0:0:0:
181,115,331214,1,8,0:0:0:0:
233,87,331282,1,2,0:0:0:0:
291,94,331351,1,8,0:0:0:0:
334,136,331419,1,2,0:0:0:0:
345,193,331487,1,8,0:0:0:0:
313,242,331555,1,2,0:0:0:0:
255,253,331623,1,8,0:0:0:0:
207,221,331691,1,2,0:0:0:0:
195,164,331760,1,8,0:0:0:0:
226,115,331828,1,2,0:0:0:0:
287,110,331896,1,8,0:0:0:0:
333,147,331964,2,0,L|277:179,3,59.9999981689454,2|8|2|8,0:0|0:0|0:0|0:0,0:0:0:0:
234,341,332237,2,0,L|171:324,3,59.9999981689454,2|8|2|8,0:0|0:0|0:0|0:0,0:0:0:0:
24,246,332510,5,4,0:2:0:0:
0,203,332578,1,8,0:0:0:0:
9,155,332646,1,2,0:0:0:0:
48,124,332714,1,8,0:0:0:0:
97,126,332782,1,2,0:0:0:0:
133,159,332851,1,8,0:0:0:0:
139,209,332919,1,2,0:0:0:0:
175,242,332987,1,8,0:0:0:0:
223,253,333055,1,4,0:1:0:0:
270,238,333123,1,8,0:0:0:0:
303,201,333191,1,2,0:0:0:0:
313,153,333260,1,8,0:0:0:0:
297,106,333328,1,2,0:0:0:0:
259,74,333396,1,8,0:0:0:0:
211,65,333464,1,2,0:0:0:0:
164,82,333532,1,8,0:0:0:0:
139,123,333601,5,4,0:0:0:0:
185,173,333669,1,8,0:0:0:0:
253,181,333737,1,2,0:0:0:0:
310,143,333805,1,8,0:0:0:0:
328,77,333873,1,2,0:0:0:0:
388,43,333941,1,8,0:0:0:0:
454,59,334010,1,2,0:0:0:0:
493,115,334078,1,8,0:0:0:0:
494,186,334146,2,0,P|472:220|424:228,3,69.9999978637696,2|8|2|8,0:0|0:0|0:0|0:0,0:0:0:0:
392,329,334419,2,0,P|355:333|316:307,3,69.9999978637696,2|8|2|8,0:0|0:0|0:0|0:0,0:0:0:0:
251,186,334691,5,6,0:0:0:0:
199,155,334760,1,0,0:0:0:0:
141,171,334828,1,0,0:0:0:0:
118,227,334896,1,0,0:0:0:0:
139,282,334964,1,2,0:0:0:0:
195,302,335032,1,8,0:0:0:0:
251,281,335101,1,2,0:0:0:0:
273,225,335169,1,8,0:0:0:0:
248,170,335237,1,2,0:0:0:0:
255,109,335305,1,8,0:0:0:0:
303,74,335373,1,2,0:0:0:0:
362,80,335441,1,8,0:0:0:0:
397,128,335510,1,2,0:0:0:0:
393,187,335578,1,8,0:0:0:0:
356,235,335646,1,2,0:0:0:0:
351,294,335714,1,8,0:0:0:0:
383,344,335782,1,2,0:0:0:0:
442,351,335851,1,8,0:0:0:0:
487,312,335919,1,2,0:0:0:0:
491,252,335987,1,8,0:0:0:0:
458,200,336055,1,2,0:0:0:0:
401,180,336123,1,8,0:0:0:0:
345,202,336191,1,2,0:0:0:0:
317,255,336260,1,8,0:0:0:0:
313,314,336328,2,0,L|326:382,3,62.5,2|8|2|8,0:0|0:0|0:0|0:0,0:0:0:0:
209,211,336601,2,0,L|222:143,3,62.5,2|8|2|8,0:0|0:0|0:0|0:0,0:0:0:0:
122,334,336873,5,6,0:0:0:0:
72,329,336941,1,8,0:0:0:0:
41,289,337010,1,2,0:0:0:0:
47,240,337078,1,8,0:0:0:0:
87,210,337146,1,2,0:0:0:0:
136,217,337214,1,8,0:0:0:0:
176,243,337282,1,2,0:0:0:0:
224,231,337351,1,8,0:0:0:0:
246,188,337419,1,2,0:0:0:0:
235,139,337487,1,8,0:0:0:0:
193,112,337555,1,2,0:0:0:0:
144,123,337623,1,8,0:0:0:0:
124,168,337691,1,2,0:0:0:0:
139,214,337760,1,8,0:0:0:0:
182,240,337828,1,2,0:0:0:0:
231,236,337896,1,8,0:0:0:0:
265,200,337964,1,2,0:0:0:0:
313,183,338032,1,8,0:0:0:0:
362,191,338101,1,2,0:0:0:0:
391,230,338169,1,8,0:0:0:0:
389,279,338237,1,2,0:0:0:0:
360,319,338305,1,8,0:0:0:0:
310,328,338373,1,2,0:0:0:0:
266,305,338441,1,8,0:0:0:0:
256,255,338510,2,0,P|268:226|294:211,3,62.5,2|8|2|8,0:0|0:0|0:0|0:0,0:0:0:0:
323,111,338782,2,0,P|353:106|380:120,3,62.5,2|8|2|8,0:0|0:0|0:0|0:0,0:0:0:0:
431,283,339055,5,4,0:0:0:0:
408,315,339123,1,8,0:0:0:0:
368,327,339191,1,2,0:0:0:0:
328,316,339260,1,8,0:0:0:0:
308,282,339328,1,2,0:0:0:0:
280,251,339396,1,8,0:0:0:0:
243,238,339464,1,2,0:0:0:0:
205,252,339532,1,8,0:0:0:0:
187,287,339601,1,2,0:0:0:0:
188,327,339669,1,8,0:0:0:0:
166,360,339737,1,2,0:0:0:0:
126,369,339805,1,8,0:0:0:0:
91,349,339873,1,2,0:0:0:0:
78,311,339941,1,8,0:0:0:0:
88,272,340010,1,2,0:0:0:0:
123,253,340078,1,8,0:0:0:0:
163,250,340146,1,2,0:0:0:0:
191,222,340214,1,8,0:0:0:0:
196,182,340282,1,2,0:0:0:0:
178,146,340351,1,8,0:0:0:0:
140,133,340419,1,2,0:0:0:0:
102,147,340487,1,8,0:0:0:0:
87,185,340555,1,2,0:0:0:0:
96,223,340623,1,8,0:0:0:0:
128,246,340691,2,0,P|162:239|178:214,3,62.5,2|8|2|8,0:0|0:0|0:0|0:0,0:0:0:0:
260,143,340964,2,0,P|249:100|216:83,3,62.5,2|8|2|8,0:0|0:0|0:0|0:0,0:0:0:0:
407,76,341237,5,4,0:2:0:0:
451,100,341305,1,8,0:0:0:0:
464,147,341373,1,2,0:0:0:0:
445,193,341441,1,8,0:0:0:0:
401,217,341510,1,4,0:2:0:0:
352,207,341578,1,8,0:0:0:0:
309,178,341646,1,2,0:0:0:0:
259,181,341714,1,8,0:0:0:0:
222,214,341782,2,0,L|206:293,3,50,4|8|2|8,0:1|0:0|0:0|0:0,0:0:0:0:
305,369,342055,5,2,0:0:0:0:
302,344,342123,1,8,0:0:0:0:
298,319,342191,1,2,0:0:0:0:
294,294,342260,1,8,0:0:0:0:
291,269,342328,5,4,0:1:0:0:
354,255,342396,1,8,0:0:0:0:
388,200,342464,1,2,0:0:0:0:
376,136,342532,1,8,0:0:0:0:
321,99,342601,1,2,0:0:0:0:
259,118,342669,1,8,0:0:0:0:
230,176,342737,1,2,0:0:0:0:
237,240,342805,1,8,0:0:0:0:
214,300,342873,5,8,3:2:0:0:
152,333,342941,1,8,2:0:0:0:
83,316,343010,1,8,2:0:0:0:
49,254,343078,1,8,2:0:0:0:
72,188,343146,1,0,0:0:0:0:
134,156,343214,1,0,0:0:0:0:
199,180,343282,1,0,0:0:0:0:
219,247,343351,1,0,0:0:0:0:
200,314,343419,6,0,B|121:325|121:325|120:184|120:184|122:166|114:145|94:132|75:133|75:133|67:103|70:76|90:59|90:59|448:28|448:28|449:38|449:38|456:38|456:38|460:82|460:82|455:83|455:83|456:95|456:95|370:103|370:103|339:109|319:124|314:157|314:157|312:181|303:197|288:209|265:215|265:215|225:219|225:219|223:307,1,1199.99996337891,0|0,0:0|0:0,0:0:0:0:
