osu file format v14

[General]
AudioFilename: audio.ogg
AudioLeadIn: 0
PreviewTime: 300723
Countdown: 0
SampleSet: Drum
StackLeniency: 0.7
Mode: 2
LetterboxInBreaks: 0
WidescreenStoryboard: 0

[Editor]
DistanceSpacing: 0.4
BeatDivisor: 8
GridSize: 16
TimelineZoom: 2

[Metadata]
Title:Arrival. The Meuse-Argonne
TitleUnicode:Arrival. The Meuse-Argonne
Artist:1914
ArtistUnicode:1914
Creator:BIG H ZONDA KIT
Version:Bloodshed
Source:
Tags:blackened death metal doom english first world war first 1 one i wwi ww1 featured artist fa mg mpg mapper's mappers' mappers guild Archaic Sound the blind leading the blind marathon 9.Division, Grenadier-Regiment Nr.7, Unteroffiziere - Armin fon Heinessen 37.Division, Feldartillerie-Regiment Nr.73, Wachtmiester - Liam Fessen 2.Division, Infanterie-Regiment Nr.147, Oberleutnant - Ditmar Kumar 33.Div., 7.Thueringisches Inf.-Reg't. Nr.96, Gefreite - Rusty Potoplacht 5.Division, Ulanen-Regiment Nr.3, Sergeanten - Vitalis Winkelhock Deazer Армен Оганесян Armen Ohanesian Oleksa Fisyuk Олексій Фісюк Dmytro Kumar Дмитро Тернущак Ternushchak Rostik Ronya Rostyslav Potoplyak Ростислав Потопляк Vitaliy Vygovskyy Віталій Виговський John Singer Sargent ukraine male vocal vocals vocalist nebuwua bighzonda bigh zonda 050 BIG_H_ZONDA_KIT
BeatmapID:3879002
BeatmapSetID:1884014

[Difficulty]
HPDrainRate:5.2
CircleSize:5
OverallDifficulty:9.5
ApproachRate:9.5
SliderMultiplier:2.4
SliderTickRate:4

[Events]
//Background and Video events
0,0,"bg.png",0,0
//Break Periods
//Storyboard Layer 0 (Background)
//Storyboard Layer 1 (Fail)
//Storyboard Layer 2 (Pass)
//Storyboard Layer 3 (Foreground)
//Storyboard Layer 4 (Overlay)
//Storyboard Sound Samples

[TimingPoints]
-1527,600,4,3,0,60,1,0
48,-50,4,3,1,60,0,0
423,-50,4,3,1,60,0,0
798,-50,4,3,1,5,0,0
873,-100,4,3,1,60,0,0
948,-100,4,3,1,30,0,0
1023,-50,4,3,2,5,0,0
1173,-50,4,3,15,10,0,0
1323,-50,4,3,2,5,0,0
1473,-50,4,3,15,10,0,0
1623,-50,4,3,2,5,0,0
1773,-50,4,3,15,10,0,0
1923,-50,4,3,2,5,0,0
2073,-50,4,3,15,17,0,0
2223,-50,4,3,2,5,0,0
2373,-50,4,3,15,17,0,0
2523,-50,4,3,2,5,0,0
2673,-50,4,3,15,17,0,0
2823,-50,4,3,2,5,0,0
2973,-50,4,3,15,24,0,0
3123,-50,4,3,2,5,0,0
3273,-50,4,3,15,24,0,0
3423,-50,4,3,2,5,0,0
3573,-50,4,3,15,24,0,0
3723,-50,4,3,2,5,0,0
3873,-50,4,3,15,24,0,0
4023,-50,4,3,2,5,0,0
4173,-50,4,3,15,31,0,0
4323,-50,4,3,2,5,0,0
4473,-50,4,3,15,31,0,0
4623,-50,4,3,2,5,0,0
4773,-50,4,3,15,31,0,0
4923,-50,4,3,2,5,0,0
5073,-50,4,3,15,31,0,0
5223,-50,4,3,2,5,0,0
5373,-50,4,3,15,38,0,0
5523,-50,4,3,2,5,0,0
5673,-50,4,3,15,38,0,0
5823,-50,4,3,2,5,0,0
5973,-50,4,3,15,38,0,0
6123,-50,4,3,2,5,0,0
6273,-50,4,3,15,38,0,0
6423,-50,4,3,2,5,0,0
6573,-50,4,3,15,45,0,0
6723,-50,4,3,2,5,0,0
6873,-50,4,3,15,45,0,0
7023,-50,4,3,2,5,0,0
7173,-50,4,3,15,45,0,0
7323,-50,4,3,2,5,0,0
7473,-50,4,3,15,45,0,0
7623,-50,4,3,2,5,0,0
7773,-50,4,3,15,45,0,0
7923,-50,4,3,2,5,0,0
8073,571.428571428571,4,3,2,60,1,0
8073,-50,4,3,2,60,0,0
8144,-50,4,3,3,60,0,0
8501,-50,4,3,3,60,0,0
8673,558.139534883721,4,3,3,60,1,0
8673,-50,4,3,2,60,0,0
8748,-50,4,3,3,60,0,0
9273,571.428571428571,4,3,3,60,1,0
9273,-50,4,3,2,60,0,0
9344,-50,4,3,3,60,0,0
9873,600,4,3,3,60,1,0
9873,-50,4,3,4,60,0,0
10023,-50,4,3,5,60,0,0
10173,-50,4,3,3,60,0,0
10473,600,4,3,2,60,1,0
10473,-50,4,3,2,60,0,1
10698,-50,4,3,2,5,0,1
10773,-50,4,3,1,60,0,1
10848,-50,4,3,3,60,0,1
10923,-50,4,3,1,60,0,1
10998,-50,4,3,3,60,0,1
11073,-50,4,3,1,60,0,1
11148,-50,4,3,3,60,0,1
11223,-50,4,3,1,60,0,1
11298,-50,4,3,3,60,0,1
11373,-50,4,3,1,60,0,1
11448,-50,4,3,3,60,0,1
11523,-50,4,3,1,60,0,1
11598,-50,4,3,3,60,0,1
11673,-50,4,3,1,60,0,1
11748,-50,4,3,3,60,0,1
11823,-50,4,3,1,60,0,1
11898,-50,4,3,3,60,0,1
11973,-50,4,3,1,60,0,1
12048,-50,4,3,3,60,0,1
12123,-50,4,3,1,60,0,1
12198,-50,4,3,3,60,0,1
12273,-50,4,3,1,60,0,1
12348,-50,4,3,3,60,0,1
12423,-50,4,3,1,60,0,1
12498,-50,4,3,3,60,0,1
12573,-50,4,3,1,60,0,1
12648,-50,4,3,3,60,0,1
12723,-50,4,3,1,60,0,1
12798,-50,4,3,3,60,0,1
12873,-50,4,3,1,60,0,1
12948,-50,4,3,3,60,0,1
13023,-50,4,3,1,60,0,1
13098,-50,4,3,3,60,0,1
13173,-50,4,3,1,60,0,1
13248,-50,4,3,3,60,0,1
13323,-50,4,3,1,60,0,1
13398,-50,4,3,3,60,0,1
13473,-50,4,3,1,60,0,1
13548,-50,4,3,3,60,0,1
13623,-50,4,3,1,60,0,1
13698,-50,4,3,3,60,0,1
13773,-50,4,3,1,60,0,1
13848,-50,4,3,3,60,0,1
13923,-50,4,3,1,60,0,1
13998,-50,4,3,3,60,0,1
14073,-50,4,3,1,60,0,1
14148,-50,4,3,3,60,0,1
14223,-50,4,3,1,60,0,1
14298,-50,4,3,3,60,0,1
14373,-50,4,3,1,60,0,1
14448,-50,4,3,3,60,0,1
14523,-50,4,3,1,60,0,1
14598,-50,4,3,3,60,0,1
14673,-50,4,3,2,60,0,1
14748,-50,4,3,3,60,0,1
14823,-50,4,3,1,60,0,1
14898,-50,4,3,3,60,0,1
14973,-50,4,3,2,60,0,1
15048,-50,4,3,3,60,0,1
15123,-50,4,3,1,60,0,1
15198,-50,4,3,3,60,0,1
15273,-50,4,3,6,60,0,1
15348,-50,4,3,3,60,0,1
15423,-50,4,3,1,60,0,1
15498,-50,4,3,2,5,0,1
15573,-50,4,3,1,60,0,1
15648,-50,4,3,3,60,0,1
15723,-50,4,3,1,60,0,1
15798,-50,4,3,3,60,0,1
15873,-50,4,3,1,60,0,1
15948,-50,4,3,3,60,0,1
16023,-50,4,3,1,60,0,1
16098,-50,4,3,3,60,0,1
16173,-50,4,3,1,60,0,1
16248,-50,4,3,3,60,0,1
16323,-50,4,3,1,60,0,1
16398,-50,4,3,3,60,0,1
16473,-50,4,3,1,60,0,1
16548,-50,4,3,3,60,0,1
16623,-50,4,3,1,60,0,1
16698,-50,4,3,3,60,0,1
16773,-50,4,3,1,60,0,1
16848,-50,4,3,3,60,0,1
16923,-50,4,3,1,60,0,1
16998,-50,4,3,3,60,0,1
17073,-50,4,3,1,60,0,1
17148,-50,4,3,3,60,0,1
17223,-50,4,3,1,60,0,1
17298,-50,4,3,3,60,0,1
17373,-50,4,3,1,60,0,1
17448,-50,4,3,3,60,0,1
17523,-50,4,3,1,60,0,1
17598,-50,4,3,3,60,0,1
17673,-50,4,3,2,60,0,1
17748,-50,4,3,4,60,0,1
18273,-50,4,3,6,60,0,1
18348,-50,4,3,5,60,0,1
18873,-50,4,3,6,60,0,1
18948,-50,4,3,7,60,0,1
19473,-50,4,3,3,60,0,1
19773,-50,4,3,5,60,0,1
20073,-50,4,3,2,60,0,1
20298,-50,4,3,2,5,0,1
20373,-50,4,3,1,60,0,1
20448,-50,4,3,3,60,0,1
20523,-50,4,3,1,60,0,1
20598,-50,4,3,3,60,0,1
20673,-50,4,3,1,60,0,1
20748,-50,4,3,3,60,0,1
20823,-50,4,3,1,60,0,1
20898,-50,4,3,3,60,0,1
20973,-50,4,3,1,60,0,1
21048,-50,4,3,3,60,0,1
21123,-50,4,3,1,60,0,1
21198,-50,4,3,3,60,0,1
21273,-50,4,3,1,60,0,1
21348,-50,4,3,3,60,0,1
21423,-50,4,3,1,60,0,1
21498,-50,4,3,3,60,0,1
21573,-50,4,3,1,60,0,1
21648,-50,4,3,3,60,0,1
21723,-50,4,3,1,60,0,1
21798,-50,4,3,3,60,0,1
21873,-50,4,3,1,60,0,1
21948,-50,4,3,3,60,0,1
22023,-50,4,3,1,60,0,1
22098,-50,4,3,3,60,0,1
22173,-50,4,3,1,60,0,1
22248,-50,4,3,3,60,0,1
22323,-50,4,3,1,60,0,1
22398,-50,4,3,3,60,0,1
22473,-50,4,3,1,60,0,1
22548,-50,4,3,3,60,0,1
22623,-50,4,3,1,60,0,1
22698,-50,4,3,3,60,0,1
22773,-50,4,3,1,60,0,1
22848,-50,4,3,3,60,0,1
22923,-50,4,3,1,60,0,1
22998,-50,4,3,3,60,0,1
23073,-50,4,3,1,60,0,1
23148,-50,4,3,3,60,0,1
23223,-50,4,3,1,60,0,1
23298,-50,4,3,3,60,0,1
23373,-50,4,3,1,60,0,1
23448,-50,4,3,3,60,0,1
23523,-50,4,3,1,60,0,1
23598,-50,4,3,3,60,0,1
23673,-50,4,3,1,60,0,1
23748,-50,4,3,3,60,0,1
23823,-50,4,3,1,60,0,1
23898,-50,4,3,3,60,0,1
23973,-50,4,3,1,60,0,1
24048,-50,4,3,3,60,0,1
24123,-50,4,3,1,60,0,1
24198,-50,4,3,3,60,0,1
24273,-50,4,3,8,60,0,1
24348,-50,4,3,3,60,0,1
24423,-50,4,3,1,60,0,1
24498,-50,4,3,3,60,0,1
24573,-50,4,3,8,60,0,1
24648,-50,4,3,3,60,0,1
24723,-50,4,3,1,60,0,1
24798,-50,4,3,3,60,0,1
24873,-50,4,3,9,60,0,1
24948,-50,4,3,3,60,0,1
25023,-50,4,3,1,60,0,1
25098,-50,4,3,2,5,0,1
25173,-50,4,3,1,60,0,1
25248,-50,4,3,3,60,0,1
25323,-50,4,3,1,60,0,1
25398,-50,4,3,3,60,0,1
25473,-50,4,3,1,60,0,1
25548,-50,4,3,3,60,0,1
25623,-50,4,3,1,60,0,1
25698,-50,4,3,3,60,0,1
25773,-50,4,3,1,60,0,1
25848,-50,4,3,3,60,0,1
25923,-50,4,3,1,60,0,1
25998,-50,4,3,3,60,0,1
26073,-50,4,3,1,60,0,1
26148,-50,4,3,3,60,0,1
26223,-50,4,3,1,60,0,1
26298,-50,4,3,3,60,0,1
26373,-50,4,3,1,60,0,1
26448,-50,4,3,3,60,0,1
26523,-50,4,3,1,60,0,1
26598,-50,4,3,3,60,0,1
26673,-50,4,3,1,60,0,1
26748,-50,4,3,3,60,0,1
26823,-50,4,3,1,60,0,1
26898,-50,4,3,3,60,0,1
26973,-50,4,3,1,60,0,1
27048,-50,4,3,3,60,0,1
27123,-50,4,3,1,60,0,1
27198,-50,4,3,3,60,0,1
27273,-50,4,3,2,60,0,1
27348,-50,4,3,4,60,0,1
27873,-50,4,3,6,60,0,1
27948,-50,4,3,5,60,0,1
28473,-50,4,3,6,60,0,1
28548,-50,4,3,7,60,0,1
29073,-50,4,3,3,60,0,1
29373,-50,4,3,5,60,0,1
29673,-100,4,3,2,60,0,0
29823,-50,4,3,2,5,0,0
29973,-50,4,3,15,10,0,0
30123,-50,4,3,2,5,0,0
30273,-50,4,3,15,10,0,0
30423,-50,4,3,2,5,0,0
30573,-50,4,3,15,10,0,0
30723,-50,4,3,2,5,0,0
30873,-50,4,3,15,17,0,0
31023,-50,4,3,2,5,0,0
31173,-50,4,3,15,17,0,0
31323,-50,4,3,2,5,0,0
31473,-50,4,3,15,17,0,0
31623,-50,4,3,2,5,0,0
31773,-50,4,3,15,24,0,0
31923,-50,4,3,2,5,0,0
32073,-50,4,3,15,24,0,0
32223,-50,4,3,2,5,0,0
32373,-50,4,3,15,24,0,0
32523,-50,4,3,2,5,0,0
32673,-50,4,3,15,24,0,0
32823,-50,4,3,2,5,0,0
32973,-50,4,3,15,31,0,0
33123,-50,4,3,2,5,0,0
33273,-50,4,3,15,31,0,0
33423,-50,4,3,2,5,0,0
33573,-50,4,3,15,31,0,0
33723,-50,4,3,2,5,0,0
33873,-50,4,3,15,31,0,0
34023,-50,4,3,2,5,0,0
34173,-50,4,3,15,38,0,0
34323,-50,4,3,2,5,0,0
34473,-50,4,3,15,38,0,0
34623,-50,4,3,2,5,0,0
34773,-50,4,3,15,38,0,0
34923,-50,4,3,2,5,0,0
35073,-50,4,3,15,38,0,0
35223,-50,4,3,2,5,0,0
35373,-50,4,3,15,45,0,0
35523,-50,4,3,2,5,0,0
35673,-50,4,3,15,45,0,0
35823,-50,4,3,2,5,0,0
35973,-50,4,3,15,45,0,0
36123,-50,4,3,2,5,0,0
36273,-50,4,3,15,45,0,0
36423,-50,4,3,2,5,0,0
36573,-50,4,3,15,45,0,0
36723,-50,4,3,2,5,0,0
36873,-50,4,3,2,60,0,0
36948,-50,4,3,3,60,0,0
37473,-50,4,3,2,60,0,0
37548,-50,4,3,3,60,0,0
38073,-50,4,3,2,60,0,0
38148,-50,4,3,3,60,0,0
38673,-50,4,3,4,60,0,0
38973,-50,4,3,5,60,0,0
39273,-50,4,3,2,60,0,1
39498,-50,4,3,2,5,0,1
39573,-50,4,3,2,60,0,1
39648,-50,4,3,3,60,0,1
39723,-50,4,3,2,60,0,1
39798,-50,4,3,3,60,0,1
39873,-50,4,3,2,60,0,1
39948,-50,4,3,3,60,0,1
40023,-50,4,3,2,60,0,1
40098,-50,4,3,3,60,0,1
40173,-50,4,3,2,60,0,1
40248,-50,4,3,3,60,0,1
40323,-50,4,3,2,60,0,1
40398,-50,4,3,3,60,0,1
40473,-50,4,3,2,60,0,1
40548,-50,4,3,3,60,0,1
40623,-50,4,3,2,60,0,1
40698,-50,4,3,3,60,0,1
40773,-50,4,3,2,60,0,1
40848,-50,4,3,3,60,0,1
40923,-50,4,3,2,60,0,1
40998,-50,4,3,3,60,0,1
41073,-50,4,3,2,60,0,1
41148,-50,4,3,3,60,0,1
41223,-50,4,3,2,60,0,1
41298,-50,4,3,3,60,0,1
41373,-50,4,3,2,60,0,1
41448,-50,4,3,3,60,0,1
41523,-50,4,3,2,60,0,1
41598,-50,4,3,3,60,0,1
41673,-50,4,3,2,60,0,1
41748,-50,4,3,3,60,0,1
41823,-50,4,3,2,60,0,1
41898,-50,4,3,3,60,0,1
41973,-50,4,3,2,60,0,1
42048,-50,4,3,3,60,0,1
42123,-50,4,3,2,60,0,1
42198,-50,4,3,3,60,0,1
42273,-50,4,3,2,60,0,1
42348,-50,4,3,3,60,0,1
42423,-50,4,3,2,60,0,1
42498,-50,4,3,3,60,0,1
42573,-50,4,3,2,60,0,1
42648,-50,4,3,3,60,0,1
42723,-50,4,3,2,60,0,1
42798,-50,4,3,3,60,0,1
42873,-50,4,3,2,60,0,1
42948,-50,4,3,3,60,0,1
43023,-50,4,3,2,60,0,1
43098,-50,4,3,3,60,0,1
43173,-50,4,3,2,60,0,1
43248,-50,4,3,3,60,0,1
43323,-50,4,3,2,60,0,1
43398,-50,4,3,3,60,0,1
43473,-50,4,3,2,60,0,1
43548,-50,4,3,3,60,0,1
43623,-50,4,3,2,60,0,1
43698,-50,4,3,3,60,0,1
43773,-50,4,3,2,60,0,1
43848,-50,4,3,3,60,0,1
43923,-50,4,3,2,60,0,1
43998,-50,4,3,3,60,0,1
44073,-50,4,3,2,60,0,1
44148,-50,4,3,3,60,0,1
44223,-50,4,3,2,60,0,1
44298,-50,4,3,3,60,0,1
44373,-50,4,3,2,60,0,1
44448,-50,4,3,3,60,0,1
44523,-50,4,3,2,60,0,1
44598,-50,4,3,3,60,0,1
44673,-50,4,3,2,60,0,1
44748,-50,4,3,3,60,0,1
44823,-50,4,3,2,60,0,1
44898,-50,4,3,3,60,0,1
44973,-50,4,3,2,60,0,1
45048,-50,4,3,3,60,0,1
45123,-50,4,3,2,60,0,1
45198,-50,4,3,3,60,0,1
45273,-50,4,3,2,60,0,1
45348,-50,4,3,3,60,0,1
45423,-50,4,3,2,60,0,1
45498,-50,4,3,3,60,0,1
45573,-50,4,3,2,60,0,1
45648,-50,4,3,3,60,0,1
45723,-50,4,3,2,60,0,1
45798,-50,4,3,3,60,0,1
45873,-50,4,3,2,60,0,1
45948,-50,4,3,3,60,0,1
46023,-50,4,3,2,60,0,1
46098,-50,4,3,3,60,0,1
46173,-50,4,3,2,60,0,1
46248,-50,4,3,3,60,0,1
46323,-50,4,3,2,60,0,1
46398,-50,4,3,3,60,0,1
46473,-50,4,3,6,60,0,1
46548,-50,4,3,3,60,0,1
46623,-50,4,3,2,60,0,1
46698,-50,4,3,3,60,0,1
46773,-50,4,3,6,60,0,1
46848,-50,4,3,3,60,0,1
46923,-50,4,3,6,60,0,1
46998,-50,4,3,3,60,0,1
47073,-50,4,3,6,60,0,1
47148,-50,4,3,3,60,0,1
47223,-50,4,3,2,60,0,1
47298,-50,4,3,3,60,0,1
47373,-50,4,3,6,60,0,1
47448,-50,4,3,3,60,0,1
47523,-50,4,3,2,60,0,1
47598,-50,4,3,3,60,0,1
47673,-50,4,3,6,60,0,1
47748,-50,4,3,3,60,0,1
47823,-50,4,3,2,60,0,1
47898,-50,4,3,3,60,0,1
47973,-50,4,3,6,60,0,1
48048,-50,4,3,3,60,0,1
48123,-50,4,3,2,60,0,1
48198,-50,4,3,3,60,0,1
48573,-50,4,3,5,60,0,1
48873,-50,4,3,2,60,0,1
49023,-50,4,3,1,60,0,1
49098,-50,4,3,2,5,0,1
49173,-50,4,3,2,60,0,1
49248,-50,4,3,3,60,0,1
49323,-50,4,3,2,60,0,1
49398,-50,4,3,3,60,0,1
49473,-50,4,3,2,60,0,1
49548,-50,4,3,3,60,0,1
49623,-50,4,3,2,60,0,1
49698,-50,4,3,3,60,0,1
49773,-50,4,3,2,60,0,1
49848,-50,4,3,3,60,0,1
49923,-50,4,3,2,60,0,1
49998,-50,4,3,3,60,0,1
50073,-50,4,3,2,60,0,1
50148,-50,4,3,3,60,0,1
50223,-50,4,3,2,60,0,1
50298,-50,4,3,3,60,0,1
50373,-50,4,3,2,60,0,1
50448,-50,4,3,3,60,0,1
50523,-50,4,3,2,60,0,1
50598,-50,4,3,3,60,0,1
50673,-50,4,3,2,60,0,1
50748,-50,4,3,3,60,0,1
50823,-50,4,3,2,60,0,1
50898,-50,4,3,3,60,0,1
50973,-50,4,3,2,60,0,1
51048,-50,4,3,3,60,0,1
51123,-50,4,3,2,60,0,1
51198,-50,4,3,3,60,0,1
51273,-50,4,3,2,60,0,1
51348,-50,4,3,3,60,0,1
51423,-50,4,3,2,60,0,1
51498,-50,4,3,3,60,0,1
51573,-50,4,3,2,60,0,1
51648,-50,4,3,3,60,0,1
51723,-50,4,3,2,60,0,1
51798,-50,4,3,3,60,0,1
51873,-50,4,3,2,60,0,1
51948,-50,4,3,3,60,0,1
52023,-50,4,3,2,60,0,1
52098,-50,4,3,3,60,0,1
52173,-50,4,3,2,60,0,1
52248,-50,4,3,3,60,0,1
52323,-50,4,3,2,60,0,1
52398,-50,4,3,3,60,0,1
52473,-50,4,3,2,60,0,1
52548,-50,4,3,3,60,0,1
52623,-50,4,3,2,60,0,1
52698,-50,4,3,3,60,0,1
52773,-50,4,3,2,60,0,1
52848,-50,4,3,3,60,0,1
52923,-50,4,3,2,60,0,1
52998,-50,4,3,3,60,0,1
53073,-50,4,3,2,60,0,1
53148,-50,4,3,3,60,0,1
53223,-50,4,3,2,60,0,1
53298,-50,4,3,3,60,0,1
53373,-50,4,3,2,60,0,1
53448,-50,4,3,3,60,0,1
53523,-50,4,3,2,60,0,1
53598,-50,4,3,3,60,0,1
53673,-50,4,3,6,60,0,1
53748,-50,4,3,3,60,0,1
53898,-50,4,3,3,5,0,1
53973,-50,4,3,2,60,0,1
54048,-50,4,3,3,60,0,1
54123,-50,4,3,2,60,0,1
54198,-50,4,3,3,60,0,1
54273,-50,4,3,2,60,0,1
54348,-50,4,3,3,60,0,1
54423,-50,4,3,2,60,0,1
54498,-50,4,3,3,60,0,1
54573,-50,4,3,2,60,0,1
54648,-50,4,3,3,60,0,1
54723,-50,4,3,2,60,0,1
54798,-50,4,3,3,60,0,1
54873,-50,4,3,2,60,0,1
54948,-50,4,3,3,60,0,1
55023,-50,4,3,2,60,0,1
55098,-50,4,3,3,60,0,1
55173,-50,4,3,2,60,0,1
55248,-50,4,3,3,60,0,1
55323,-50,4,3,2,60,0,1
55398,-50,4,3,3,60,0,1
55473,-50,4,3,2,60,0,1
55548,-50,4,3,3,60,0,1
55623,-50,4,3,2,60,0,1
55698,-50,4,3,3,60,0,1
55773,-50,4,3,2,60,0,1
55848,-50,4,3,3,60,0,1
55923,-50,4,3,2,60,0,1
55998,-50,4,3,3,60,0,1
56073,-50,4,3,6,60,0,1
56148,-50,4,3,3,60,0,1
56223,-50,4,3,2,60,0,1
56298,-50,4,3,3,60,0,1
56373,-50,4,3,6,60,0,1
56448,-50,4,3,3,60,0,1
56523,-50,4,3,6,60,0,1
56598,-50,4,3,3,60,0,1
56673,-50,4,3,6,60,0,1
56748,-50,4,3,3,60,0,1
56823,-50,4,3,2,60,0,1
56898,-50,4,3,3,60,0,1
56973,-50,4,3,6,60,0,1
57048,-50,4,3,3,60,0,1
57123,-50,4,3,2,60,0,1
57198,-50,4,3,3,60,0,1
57273,-50,4,3,6,60,0,1
57348,-50,4,3,3,60,0,1
57423,-50,4,3,2,60,0,1
57498,-50,4,3,3,60,0,1
57573,-50,4,3,6,60,0,1
57648,-50,4,3,3,60,0,1
57723,-50,4,3,2,60,0,1
57798,-50,4,3,3,60,0,1
57873,-50,4,3,5,60,0,1
58173,-50,4,3,7,60,0,1
58473,-50,4,3,6,60,0,0
63273,-50,4,3,1,60,0,0
63873,-50,4,3,6,60,0,0
65373,-50,4,3,6,60,0,0
66873,-50,4,3,3,60,0,0
67173,-50,4,3,4,60,0,0
67473,-50,4,3,5,60,0,0
67773,-50,4,3,7,60,0,0
68073,-66.6666666666667,4,3,6,60,0,0
68673,-66.6666666666667,4,3,4,60,0,0
69123,-66.6666666666667,4,3,1,60,0,0
69273,-66.6666666666667,4,3,10,60,0,0
70323,-66.6666666666667,4,3,10,5,0,0
70473,-66.6666666666667,4,3,6,60,0,0
71073,-66.6666666666667,4,3,4,60,0,0
71523,-66.6666666666667,4,3,1,60,0,0
71673,-66.6666666666667,4,3,10,60,0,0
72723,-66.6666666666667,4,3,10,5,0,0
72873,-66.6666666666667,4,3,6,60,0,0
73473,-66.6666666666667,4,3,4,60,0,0
73923,-66.6666666666667,4,3,1,60,0,0
74073,-66.6666666666667,4,3,10,60,0,0
75123,-66.6666666666667,4,3,10,5,0,0
75273,-66.6666666666667,4,3,6,60,0,0
75873,-66.6666666666667,4,3,4,60,0,0
76323,-66.6666666666667,4,3,1,60,0,0
76473,-66.6666666666667,4,3,10,60,0,0
76773,-50,4,3,10,60,0,0
77073,-50,4,3,4,60,0,0
77373,-50,4,3,5,60,0,0
77673,-50,4,3,2,60,0,1
77898,-50,4,3,2,5,0,1
77973,-50,4,3,1,60,0,1
78048,-50,4,3,3,60,0,1
78123,-50,4,3,1,60,0,1
78198,-50,4,3,3,60,0,1
78273,-50,4,3,1,60,0,1
78348,-50,4,3,3,60,0,1
78423,-50,4,3,1,60,0,1
78498,-50,4,3,3,60,0,1
78573,-50,4,3,1,60,0,1
78648,-50,4,3,3,60,0,1
78723,-50,4,3,1,60,0,1
78798,-50,4,3,3,60,0,1
78873,-50,4,3,1,60,0,1
78948,-50,4,3,3,60,0,1
79023,-50,4,3,1,60,0,1
79098,-50,4,3,3,60,0,1
79173,-50,4,3,1,60,0,1
79248,-50,4,3,3,60,0,1
79323,-50,4,3,1,60,0,1
79398,-50,4,3,3,60,0,1
79473,-50,4,3,1,60,0,1
79548,-50,4,3,3,60,0,1
79623,-50,4,3,1,60,0,1
79698,-50,4,3,3,60,0,1
79773,-50,4,3,1,60,0,1
79848,-50,4,3,3,60,0,1
79923,-50,4,3,1,60,0,1
79998,-50,4,3,3,60,0,1
80073,-50,4,3,1,60,0,1
80148,-50,4,3,3,60,0,1
80223,-50,4,3,1,60,0,1
80298,-50,4,3,3,60,0,1
80373,-50,4,3,1,60,0,1
80448,-50,4,3,3,60,0,1
80523,-50,4,3,1,60,0,1
80598,-50,4,3,3,60,0,1
80673,-50,4,3,1,60,0,1
80748,-50,4,3,3,60,0,1
80823,-50,4,3,1,60,0,1
80898,-50,4,3,3,60,0,1
80973,-50,4,3,1,60,0,1
81048,-50,4,3,3,60,0,1
81123,-50,4,3,1,60,0,1
81198,-50,4,3,3,60,0,1
81273,-50,4,3,1,60,0,1
81348,-50,4,3,3,60,0,1
81423,-50,4,3,1,60,0,1
81498,-50,4,3,3,60,0,1
81573,-50,4,3,1,60,0,1
81648,-50,4,3,3,60,0,1
81723,-50,4,3,1,60,0,1
81798,-50,4,3,3,60,0,1
81873,-50,4,3,2,60,0,1
81948,-50,4,3,3,60,0,1
82023,-50,4,3,1,60,0,1
82098,-50,4,3,3,60,0,1
82173,-50,4,3,2,60,0,1
82248,-50,4,3,3,60,0,1
82323,-50,4,3,1,60,0,1
82398,-50,4,3,3,60,0,1
82473,-50,4,3,6,60,0,1
82548,-50,4,3,3,60,0,1
82698,-50,4,3,3,5,0,1
82773,-50,4,3,1,60,0,1
82848,-50,4,3,3,60,0,1
82923,-50,4,3,1,60,0,1
82998,-50,4,3,3,60,0,1
83073,-50,4,3,1,60,0,1
83148,-50,4,3,3,60,0,1
83223,-50,4,3,1,60,0,1
83298,-50,4,3,3,60,0,1
83373,-50,4,3,1,60,0,1
83448,-50,4,3,3,60,0,1
83523,-50,4,3,1,60,0,1
83598,-50,4,3,3,60,0,1
83673,-50,4,3,1,60,0,1
83748,-50,4,3,3,60,0,1
83823,-50,4,3,1,60,0,1
83898,-50,4,3,3,60,0,1
83973,-50,4,3,1,60,0,1
84048,-50,4,3,3,60,0,1
84123,-50,4,3,1,60,0,1
84198,-50,4,3,3,60,0,1
84273,-50,4,3,1,60,0,1
84348,-50,4,3,3,60,0,1
84423,-50,4,3,1,60,0,1
84498,-50,4,3,3,60,0,1
84573,-50,4,3,1,60,0,1
84648,-50,4,3,3,60,0,1
84723,-50,4,3,1,60,0,1
84798,-50,4,3,3,60,0,1
84873,571.428571428571,4,3,2,60,1,1
84873,-50,4,3,2,60,0,1
84944,-50,4,3,3,60,0,1
85473,558.139534883721,4,3,3,60,1,1
85473,-50,4,3,6,60,0,1
85542,-50,4,3,3,60,0,1
86073,571.428571428571,4,3,3,60,1,1
86073,-50,4,3,6,60,0,1
86144,-50,4,3,3,60,0,1
86673,600,4,3,3,60,1,1
86673,-50,4,3,5,60,0,1
86973,-50,4,3,7,60,0,1
87273,600,4,3,2,60,1,1
87273,-50,4,3,2,60,0,1
87498,-50,4,3,2,5,0,1
87573,-50,4,3,1,60,0,1
87648,-50,4,3,3,60,0,1
87723,-50,4,3,1,60,0,1
87798,-50,4,3,3,60,0,1
87873,-50,4,3,1,60,0,1
87948,-50,4,3,3,60,0,1
88023,-50,4,3,1,60,0,1
88098,-50,4,3,3,60,0,1
88173,-50,4,3,1,60,0,1
88248,-50,4,3,3,60,0,1
88323,-50,4,3,1,60,0,1
88398,-50,4,3,3,60,0,1
88473,-50,4,3,1,60,0,1
88548,-50,4,3,3,60,0,1
88623,-50,4,3,1,60,0,1
88698,-50,4,3,3,60,0,1
88773,-50,4,3,1,60,0,1
88848,-50,4,3,3,60,0,1
88923,-50,4,3,1,60,0,1
88998,-50,4,3,3,60,0,1
89073,-50,4,3,1,60,0,1
89148,-50,4,3,3,60,0,1
89223,-50,4,3,1,60,0,1
89298,-50,4,3,3,60,0,1
89373,-50,4,3,1,60,0,1
89448,-50,4,3,3,60,0,1
89523,-50,4,3,1,60,0,1
89598,-50,4,3,3,60,0,1
89673,-50,4,3,1,60,0,1
89748,-50,4,3,3,60,0,1
89823,-50,4,3,1,60,0,1
89898,-50,4,3,3,60,0,1
89973,-50,4,3,1,60,0,1
90048,-50,4,3,3,60,0,1
90123,-50,4,3,1,60,0,1
90198,-50,4,3,3,60,0,1
90273,-50,4,3,1,60,0,1
90348,-50,4,3,3,60,0,1
90423,-50,4,3,1,60,0,1
90498,-50,4,3,3,60,0,1
90573,-50,4,3,1,60,0,1
90648,-50,4,3,3,60,0,1
90723,-50,4,3,1,60,0,1
90798,-50,4,3,3,60,0,1
90873,-50,4,3,1,60,0,1
90948,-50,4,3,3,60,0,1
91023,-50,4,3,1,60,0,1
91098,-50,4,3,3,60,0,1
91173,-50,4,3,1,60,0,1
91248,-50,4,3,3,60,0,1
91323,-50,4,3,1,60,0,1
91398,-50,4,3,3,60,0,1
91473,-50,4,3,2,60,0,1
91548,-50,4,3,3,60,0,1
91623,-50,4,3,1,60,0,1
91698,-50,4,3,3,60,0,1
91773,-50,4,3,6,60,0,1
91848,-50,4,3,3,60,0,1
91923,-50,4,3,1,60,0,1
91998,-50,4,3,3,60,0,1
92073,-50,4,3,2,60,0,1
92148,-50,4,3,3,60,0,1
92223,-50,4,3,1,60,0,1
92298,-50,4,3,1,5,0,1
92373,-50,4,3,1,60,0,1
92448,-50,4,3,3,60,0,1
92523,-50,4,3,1,60,0,1
92598,-50,4,3,3,60,0,1
92673,-50,4,3,1,60,0,1
92748,-50,4,3,3,60,0,1
92823,-50,4,3,1,60,0,1
92898,-50,4,3,3,60,0,1
92973,-50,4,3,1,60,0,1
93048,-50,4,3,3,60,0,1
93123,-50,4,3,1,60,0,1
93198,-50,4,3,3,60,0,1
93273,-50,4,3,1,60,0,1
93348,-50,4,3,3,60,0,1
93423,-50,4,3,1,60,0,1
93498,-50,4,3,3,60,0,1
93573,-50,4,3,1,60,0,1
93648,-50,4,3,3,60,0,1
93723,-50,4,3,1,60,0,1
93798,-50,4,3,3,60,0,1
93873,-50,4,3,1,60,0,1
93948,-50,4,3,3,60,0,1
94023,-50,4,3,1,60,0,1
94098,-50,4,3,3,60,0,1
94173,-50,4,3,1,60,0,1
94248,-50,4,3,3,60,0,1
94323,-50,4,3,1,60,0,1
94398,-50,4,3,3,60,0,1
94473,571.428571428571,4,3,2,60,1,1
94473,-50,4,3,2,60,0,1
94544,-50,4,3,3,60,0,1
95073,558.139534883721,4,3,3,60,1,1
95073,-50,4,3,6,60,0,1
95142,-50,4,3,3,60,0,1
95673,571.428571428571,4,3,3,60,1,1
95673,-50,4,3,6,60,0,1
95744,-50,4,3,3,60,0,1
96273,600,4,3,3,60,1,1
96273,-50,4,3,5,60,0,1
96573,-50,4,3,3,60,0,1
96723,-50,4,3,3,60,0,0
96873,600,4,3,2,60,1,0
96873,-50,4,3,2,60,0,1
97098,-50,4,3,2,5,0,1
97173,-50,4,3,2,60,0,1
97248,-50,4,3,3,60,0,1
97323,-50,4,3,2,60,0,1
97398,-50,4,3,3,60,0,1
97473,-50,4,3,2,60,0,1
97548,-50,4,3,3,60,0,1
97623,-50,4,3,2,60,0,1
97698,-50,4,3,3,60,0,1
97773,-50,4,3,2,60,0,1
97848,-50,4,3,3,60,0,1
97923,-50,4,3,2,60,0,1
97998,-50,4,3,3,60,0,1
98073,-50,4,3,2,60,0,1
98148,-50,4,3,3,60,0,1
98223,-50,4,3,2,60,0,1
98298,-50,4,3,3,60,0,1
98373,-50,4,3,2,60,0,1
98448,-50,4,3,3,60,0,1
98523,-50,4,3,2,60,0,1
98598,-50,4,3,3,60,0,1
98673,-50,4,3,2,60,0,1
98748,-50,4,3,3,60,0,1
98823,-50,4,3,2,60,0,1
98898,-50,4,3,3,60,0,1
98973,-50,4,3,2,60,0,1
99048,-50,4,3,3,60,0,1
99123,-50,4,3,2,60,0,1
99198,-50,4,3,3,60,0,1
99273,-50,4,3,2,60,0,1
99348,-50,4,3,3,60,0,1
99423,-50,4,3,2,60,0,1
99498,-50,4,3,3,60,0,1
99573,-50,4,3,2,60,0,1
99648,-50,4,3,3,60,0,1
99723,-50,4,3,2,60,0,1
99798,-50,4,3,3,60,0,1
99873,-50,4,3,2,60,0,1
99948,-50,4,3,3,60,0,1
100023,-50,4,3,2,60,0,1
100098,-50,4,3,3,60,0,1
100173,-50,4,3,2,60,0,1
100248,-50,4,3,3,60,0,1
100323,-50,4,3,2,60,0,1
100398,-50,4,3,3,60,0,1
100473,-50,4,3,2,60,0,1
100548,-50,4,3,3,60,0,1
100623,-50,4,3,2,60,0,1
100698,-50,4,3,3,60,0,1
100773,-50,4,3,2,60,0,1
100848,-50,4,3,3,60,0,1
100923,-50,4,3,2,60,0,1
100998,-50,4,3,3,60,0,1
101073,-50,4,3,2,60,0,1
101148,-50,4,3,3,60,0,1
101223,-50,4,3,2,60,0,1
101298,-50,4,3,3,60,0,1
101373,-50,4,3,2,60,0,1
101448,-50,4,3,3,60,0,1
101523,-50,4,3,2,60,0,1
101598,-50,4,3,3,60,0,1
101673,-50,4,3,6,60,0,1
101748,-50,4,3,3,60,0,1
101898,-50,4,3,3,5,0,1
101973,-50,4,3,2,60,0,1
102048,-50,4,3,3,60,0,1
102123,-50,4,3,2,60,0,1
102198,-50,4,3,3,60,0,1
102273,-50,4,3,2,60,0,1
102348,-50,4,3,3,60,0,1
102423,-50,4,3,2,60,0,1
102498,-50,4,3,3,60,0,1
102573,-50,4,3,2,60,0,1
102648,-50,4,3,3,60,0,1
102723,-50,4,3,2,60,0,1
102798,-50,4,3,3,60,0,1
102873,-50,4,3,2,60,0,1
102948,-50,4,3,3,60,0,1
103023,-50,4,3,2,60,0,1
103098,-50,4,3,3,60,0,1
103173,-50,4,3,2,60,0,1
103248,-50,4,3,3,60,0,1
103323,-50,4,3,2,60,0,1
103398,-50,4,3,3,60,0,1
103473,-50,4,3,2,60,0,1
103548,-50,4,3,3,60,0,1
103623,-50,4,3,2,60,0,1
103698,-50,4,3,3,60,0,1
103773,-50,4,3,2,60,0,1
103848,-50,4,3,3,60,0,1
103923,-50,4,3,2,60,0,1
103998,-50,4,3,3,60,0,1
104073,-50,4,3,6,60,0,1
104148,-50,4,3,3,60,0,1
104223,-50,4,3,2,60,0,1
104298,-50,4,3,3,60,0,1
104373,-50,4,3,6,60,0,1
104448,-50,4,3,3,60,0,1
104523,-50,4,3,6,60,0,1
104598,-50,4,3,3,60,0,1
104673,-50,4,3,6,60,0,1
104748,-50,4,3,3,60,0,1
104823,-50,4,3,2,60,0,1
104898,-50,4,3,3,60,0,1
104973,-50,4,3,6,60,0,1
105048,-50,4,3,3,60,0,1
105123,-50,4,3,2,60,0,1
105198,-50,4,3,3,60,0,1
105273,-50,4,3,6,60,0,1
105348,-50,4,3,3,60,0,1
105423,-50,4,3,2,60,0,1
105498,-50,4,3,3,60,0,1
105573,-50,4,3,6,60,0,1
105648,-50,4,3,3,60,0,1
105723,-50,4,3,2,60,0,1
105798,-50,4,3,5,60,0,1
106098,-50,4,3,3,60,0,1
106473,-50,4,3,2,60,0,1
106698,-50,4,3,2,5,0,1
106773,-50,4,3,2,60,0,1
106848,-50,4,3,3,60,0,1
106923,-50,4,3,2,60,0,1
106998,-50,4,3,3,60,0,1
107073,-50,4,3,2,60,0,1
107148,-50,4,3,3,60,0,1
107223,-50,4,3,2,60,0,1
107298,-50,4,3,3,60,0,1
107373,-50,4,3,2,60,0,1
107448,-50,4,3,3,60,0,1
107523,-50,4,3,2,60,0,1
107598,-50,4,3,3,60,0,1
107673,-50,4,3,2,60,0,1
107748,-50,4,3,3,60,0,1
107823,-50,4,3,2,60,0,1
107898,-50,4,3,3,60,0,1
107973,-50,4,3,2,60,0,1
108048,-50,4,3,3,60,0,1
108123,-50,4,3,2,60,0,1
108198,-50,4,3,3,60,0,1
108273,-50,4,3,2,60,0,1
108348,-50,4,3,3,60,0,1
108423,-50,4,3,2,60,0,1
108498,-50,4,3,3,60,0,1
108573,-50,4,3,2,60,0,1
108648,-50,4,3,3,60,0,1
108723,-50,4,3,2,60,0,1
108798,-50,4,3,3,60,0,1
108873,-50,4,3,2,60,0,1
108948,-50,4,3,3,60,0,1
109023,-50,4,3,2,60,0,1
109098,-50,4,3,3,60,0,1
109173,-50,4,3,2,60,0,1
109248,-50,4,3,3,60,0,1
109323,-50,4,3,2,60,0,1
109398,-50,4,3,3,60,0,1
109473,-50,4,3,2,60,0,1
109548,-50,4,3,3,60,0,1
109623,-50,4,3,2,60,0,1
109698,-50,4,3,3,60,0,1
109773,-50,4,3,2,60,0,1
109848,-50,4,3,3,60,0,1
109923,-50,4,3,2,60,0,1
109998,-50,4,3,3,60,0,1
110073,-50,4,3,2,60,0,1
110148,-50,4,3,3,60,0,1
110223,-50,4,3,2,60,0,1
110298,-50,4,3,3,60,0,1
110373,-50,4,3,2,60,0,1
110448,-50,4,3,3,60,0,1
110523,-50,4,3,2,60,0,1
110598,-50,4,3,3,60,0,1
110673,-50,4,3,2,60,0,1
110748,-50,4,3,3,60,0,1
110823,-50,4,3,2,60,0,1
110898,-50,4,3,3,60,0,1
110973,-50,4,3,2,60,0,1
111048,-50,4,3,3,60,0,1
111123,-50,4,3,2,60,0,1
111198,-50,4,3,3,60,0,1
111273,-50,4,3,2,60,0,1
111348,-50,4,3,3,60,0,1
111423,-50,4,3,2,60,0,1
111498,-50,4,3,3,60,0,1
111573,-50,4,3,2,60,0,1
111648,-50,4,3,3,60,0,1
111723,-50,4,3,2,60,0,1
111798,-50,4,3,3,60,0,1
111873,-50,4,3,2,60,0,1
111948,-50,4,3,3,60,0,1
112023,-50,4,3,2,60,0,1
112098,-50,4,3,3,60,0,1
112173,-50,4,3,2,60,0,1
112248,-50,4,3,3,60,0,1
112323,-50,4,3,2,60,0,1
112398,-50,4,3,3,60,0,1
112473,-50,4,3,2,60,0,1
112548,-50,4,3,3,60,0,1
112623,-50,4,3,2,60,0,1
112698,-50,4,3,3,60,0,1
112773,-50,4,3,2,60,0,1
112848,-50,4,3,3,60,0,1
112923,-50,4,3,2,60,0,1
112998,-50,4,3,3,60,0,1
113073,-50,4,3,2,60,0,1
113148,-50,4,3,3,60,0,1
113223,-50,4,3,2,60,0,1
113298,-50,4,3,3,60,0,1
113373,-50,4,3,2,60,0,1
113448,-50,4,3,3,60,0,1
113523,-50,4,3,2,60,0,1
113598,-50,4,3,3,60,0,1
113673,-50,4,3,6,60,0,1
113748,-50,4,3,3,60,0,1
113823,-50,4,3,2,60,0,1
113898,-50,4,3,3,60,0,1
113973,-50,4,3,6,60,0,1
114048,-50,4,3,3,60,0,1
114123,-50,4,3,6,60,0,1
114198,-50,4,3,3,60,0,1
114273,-50,4,3,6,60,0,1
114348,-50,4,3,3,60,0,1
114423,-50,4,3,2,60,0,1
114498,-50,4,3,3,60,0,1
114573,-50,4,3,6,60,0,1
114648,-50,4,3,3,60,0,1
114723,-50,4,3,2,60,0,1
114798,-50,4,3,3,60,0,1
114873,-50,4,3,6,60,0,1
114948,-50,4,3,3,60,0,1
115023,-50,4,3,2,60,0,1
115098,-50,4,3,3,60,0,1
115173,-50,4,3,4,60,0,1
115473,-50,4,3,5,60,0,1
115773,-50,4,3,7,60,0,1
116073,-50,4,3,6,60,0,0
120873,-50,4,3,11,60,0,0
121473,-50,4,3,6,60,0,0
122973,-50,4,3,6,60,0,0
124473,-50,4,3,3,60,0,0
124773,-50,4,3,4,60,0,0
125073,-50,4,3,5,60,0,0
125373,-50,4,3,7,60,0,0
125673,-66.6666666666667,4,3,6,60,0,0
126273,-66.6666666666667,4,3,4,60,0,0
126723,-66.6666666666667,4,3,1,60,0,0
126873,-66.6666666666667,4,3,10,60,0,0
127923,-66.6666666666667,4,3,10,5,0,0
128073,-66.6666666666667,4,3,6,60,0,0
128673,-66.6666666666667,4,3,4,60,0,0
129123,-66.6666666666667,4,3,1,60,0,0
129273,-66.6666666666667,4,3,10,60,0,0
130323,-66.6666666666667,4,3,10,5,0,0
130473,-66.6666666666667,4,3,6,60,0,0
131073,-66.6666666666667,4,3,4,60,0,0
131523,-66.6666666666667,4,3,1,60,0,0
131673,-66.6666666666667,4,3,10,60,0,0
132723,-66.6666666666667,4,3,10,5,0,0
132873,-66.6666666666667,4,3,6,60,0,0
133473,-66.6666666666667,4,3,4,60,0,0
133773,-50,4,3,4,5,0,0
133848,-50,4,3,4,60,0,0
133923,-50,4,3,1,60,0,0
134073,-66.6666666666667,4,3,10,60,0,0
134373,-66.6666666666667,4,3,11,60,0,0
134523,-66.6666666666667,4,3,10,60,0,0
134673,-66.6666666666667,4,3,4,60,0,0
134973,-66.6666666666667,4,3,1,60,0,0
135198,-66.6666666666667,4,3,1,5,0,0
135273,-200,4,3,1,60,0,0
135348,-50,4,3,1,45,0,0
139773,-50,4,3,1,5,0,0
140073,625,4,2,20,20,1,0
140073,-100,4,2,20,20,0,0
142573,566.037735849056,4,2,20,20,1,0
143139,594.059405940594,4,2,20,20,1,0
144921,588.235294117647,4,2,20,20,1,0
147320,582.52427184466,4,2,20,20,1,0
149673,600,4,3,1,60,1,0
149673,-200,4,3,1,60,0,0
149823,-200,4,3,1,5,0,0
154173,-50,4,3,1,5,0,0
154248,-50,4,3,1,60,0,0
154473,-50,4,3,12,60,0,0
154623,-50,4,3,1,60,0,0
154773,-50,4,2,20,5,0,0
155073,-100,4,2,20,20,0,0
156621,-50,4,3,1,20,0,0
156873,-50,4,3,2,60,0,0
157073,-50,4,3,3,60,0,0
157323,-50,4,3,2,60,0,0
157673,-50,4,3,5,60,0,0
158073,-50,4,3,2,60,0,0
158273,-50,4,3,3,60,0,0
158523,-50,4,3,1,60,0,0
158673,-50,4,3,3,60,0,0
158873,645.161290322581,4,3,5,60,1,0
158873,-50,4,3,5,60,0,0
159073,-50,4,3,7,60,0,0
159273,600,4,3,6,60,1,0
159273,-50,4,3,6,60,0,0
159473,-50,4,3,3,60,0,0
159673,-50,4,3,1,60,0,0
159873,-50,4,3,3,60,0,0
160073,-50,4,3,1,60,0,0
160273,-50,4,3,3,60,0,0
160473,-50,4,3,6,60,0,0
160673,-50,4,3,3,60,0,0
160873,-50,4,3,1,60,0,0
161073,-50,4,3,3,60,0,0
161673,-50,4,3,6,60,0,0
161873,-50,4,3,3,60,0,0
162073,-50,4,3,1,60,0,0
162273,-50,4,3,3,60,0,0
162473,-50,4,3,1,60,0,0
162673,-50,4,3,3,60,0,0
162873,-50,4,3,6,60,0,0
163073,-50,4,3,3,60,0,0
163273,-50,4,3,1,60,0,0
163473,-50,4,3,13,60,0,0
163673,-50,4,3,2,60,0,0
164073,-50,4,3,6,60,0,0
164273,-50,4,3,3,60,0,0
164473,-50,4,3,1,60,0,0
164673,-50,4,3,3,60,0,0
164873,-50,4,3,1,60,0,0
165073,-50,4,3,3,60,0,0
165273,-50,4,3,6,60,0,0
165473,-50,4,3,3,60,0,0
165673,-50,4,3,1,60,0,0
165873,-50,4,3,3,60,0,0
166473,-50,4,3,13,60,0,0
168473,-50,4,3,8,60,0,0
168673,-50,4,3,2,60,0,0
168873,-50,4,3,6,60,0,0
169073,-50,4,3,3,60,0,0
169273,-50,4,3,1,60,0,0
169473,-50,4,3,3,60,0,0
169673,-50,4,3,1,60,0,0
169873,-50,4,3,3,60,0,0
170073,-50,4,3,6,60,0,0
170273,-50,4,3,3,60,0,0
170473,-50,4,3,1,60,0,0
170673,-50,4,3,3,60,0,0
171273,-50,4,3,6,60,0,0
171473,-50,4,3,3,60,0,0
171673,-50,4,3,1,60,0,0
171873,-50,4,3,3,60,0,0
172073,-50,4,3,1,60,0,0
172273,-50,4,3,3,60,0,0
172473,-50,4,3,6,60,0,0
172673,-50,4,3,3,60,0,0
172873,-50,4,3,1,60,0,0
173073,-50,4,3,13,60,0,0
173273,-50,4,3,2,60,0,0
173673,-50,4,3,6,60,0,0
173873,-50,4,3,3,60,0,0
174073,-50,4,3,1,60,0,0
174273,-50,4,3,3,60,0,0
174473,-50,4,3,1,60,0,0
174673,-50,4,3,3,60,0,0
174873,-50,4,3,6,60,0,0
175073,-50,4,3,3,60,0,0
175273,-50,4,3,1,60,0,0
175473,-50,4,3,3,60,0,0
176073,-50,4,3,13,60,0,0
178073,-50,4,3,8,60,0,0
178273,-50,4,3,2,60,0,0
178473,-50,4,3,6,60,0,0
179073,-50,4,3,10,60,0,0
179273,-50,4,3,6,60,0,0
180273,-50,4,3,10,60,0,0
180873,-50,4,3,6,60,0,0
181373,-50,4,3,6,20,0,0
181473,-50,4,3,10,60,0,0
181673,-50,4,3,6,60,0,0
182673,-50,4,3,10,60,0,0
183073,-50,4,3,6,60,0,0
183873,-50,4,3,10,60,0,0
184073,-50,4,3,6,60,0,0
185073,-50,4,3,10,60,0,0
185673,-50,4,3,13,60,0,0
186273,-50,4,3,6,60,0,0
187673,-50,4,3,8,60,0,0
187873,-50,4,3,2,60,0,0
188073,-50,4,3,6,60,0,0
188673,-50,4,3,10,60,0,0
188873,-50,4,3,6,60,0,0
189373,-50,4,3,6,5,0,0
189473,-50,4,3,6,60,0,0
189873,-50,4,3,10,60,0,0
190473,-50,4,3,6,60,0,0
191073,-50,4,3,10,60,0,0
191273,-50,4,3,6,60,0,0
192273,-50,4,3,10,60,0,0
192573,-50,4,3,10,5,0,0
192673,-50,4,3,6,60,0,0
192773,-50,4,3,6,5,0,0
192873,-50,4,3,6,60,0,0
193473,-50,4,3,10,60,0,0
193673,-50,4,3,6,60,0,0
194673,-50,4,3,10,60,0,0
195273,-50,4,3,13,60,0,0
195873,-50,4,3,6,60,0,0
197073,-50,4,3,3,60,0,0
197673,-50,4,3,6,60,0,0
197873,-50,4,3,3,60,0,0
198073,-50,4,3,1,60,0,0
198273,-50,4,3,3,60,0,0
198473,-50,4,3,1,60,0,0
198673,-50,4,3,3,60,0,0
198873,-50,4,3,6,60,0,0
199073,-50,4,3,3,60,0,0
199273,-50,4,3,1,60,0,0
199473,-50,4,3,3,60,0,0
200073,-50,4,3,6,60,0,0
200273,-50,4,3,3,60,0,0
200473,-50,4,3,1,60,0,0
200673,-50,4,3,3,60,0,0
200873,-50,4,3,1,60,0,0
201073,-50,4,3,3,60,0,0
201273,-50,4,3,6,60,0,0
201473,-50,4,3,3,60,0,0
201673,-50,4,3,1,60,0,0
201873,-50,4,3,13,60,0,0
202073,-50,4,3,2,60,0,0
202473,-50,4,3,6,60,0,0
202673,-50,4,3,3,60,0,0
202873,-50,4,3,1,60,0,0
203073,-50,4,3,3,60,0,0
203273,-50,4,3,1,60,0,0
203473,-50,4,3,3,60,0,0
203673,-50,4,3,6,60,0,0
203873,-50,4,3,3,60,0,0
204073,-50,4,3,1,60,0,0
204273,-50,4,3,3,60,0,0
204873,-50,4,3,13,60,0,0
206873,-50,4,3,8,60,0,0
207073,-50,4,3,2,60,0,0
207273,-50,4,3,6,60,0,0
207473,-50,4,3,3,60,0,0
207673,-50,4,3,1,60,0,0
207873,-50,4,3,3,60,0,0
208073,-50,4,3,1,60,0,0
208273,-50,4,3,3,60,0,0
208473,-50,4,3,6,60,0,0
208573,-50,4,3,6,5,0,0
208673,-50,4,3,3,60,0,0
208773,-50,4,3,3,5,0,0
208873,-50,4,3,1,60,0,0
209073,-50,4,3,3,60,0,0
209673,-50,4,3,6,60,0,0
209873,-50,4,3,3,60,0,0
210073,-50,4,3,1,60,0,0
210273,-50,4,3,3,60,0,0
210473,-50,4,3,1,60,0,0
210673,-50,4,3,3,60,0,0
210873,-50,4,3,6,60,0,0
211073,-50,4,3,3,60,0,0
211273,-50,4,3,1,60,0,0
211473,-50,4,3,13,60,0,0
211673,-50,4,3,2,60,0,0
212073,-50,4,3,6,60,0,0
212273,-50,4,3,3,60,0,0
212473,-50,4,3,1,60,0,0
212673,-50,4,3,3,60,0,0
212873,-50,4,3,1,60,0,0
213073,-50,4,3,3,60,0,0
213273,-50,4,3,6,60,0,0
213423,-50,4,3,3,60,0,0
213673,-50,4,3,1,60,0,0
213723,-50,4,3,1,5,0,0
213873,-50,4,3,3,60,0,0
214473,-50,4,3,13,60,0,0
216473,-50,4,3,8,60,0,0
216673,-50,4,3,2,60,0,0
216873,-200,4,3,1,60,0,0
216948,-200,4,3,1,5,0,0
220473,-100,4,3,3,60,0,0
220548,-100,4,3,3,5,0,0
221673,-200,4,3,1,60,0,0
221823,-200,4,3,1,5,0,0
225273,-100,4,3,3,60,0,0
225423,-100,4,3,3,5,0,0
226473,-200,4,3,1,60,0,0
226623,-200,4,3,1,5,0,0
230073,-100,4,3,3,60,0,0
230223,-100,4,3,3,5,0,0
231273,-200,4,3,1,60,0,0
231423,-200,4,3,1,5,0,0
233673,-200,4,3,1,60,0,0
233823,-200,4,3,1,5,0,0
236073,-200,4,3,1,60,0,0
236223,-200,4,3,1,5,0,0
239673,-100,4,3,3,60,0,0
239823,-100,4,3,3,5,0,0
240873,-200,4,3,1,60,0,0
241023,-200,4,3,1,5,0,0
244473,-100,4,3,3,60,0,0
244623,-100,4,3,3,5,0,0
245673,-200,4,3,1,60,0,0
245823,-200,4,3,1,5,0,0
249273,-100,4,3,3,60,0,0
249423,-100,4,3,3,5,0,0
250473,-200,4,3,1,60,0,0
250623,-200,4,3,1,5,0,0
252873,-200,4,3,1,60,0,0
253023,-200,4,3,1,5,0,0
255273,-200,4,3,1,60,0,0
255423,-200,4,3,1,5,0,0
257673,-133.333333333333,4,3,1,60,0,0
257823,-133.333333333333,4,3,1,5,0,0
258873,-100,4,3,3,60,0,0
259023,-100,4,3,3,5,0,0
260073,-200,4,3,1,60,0,0
260223,-200,4,3,1,5,0,0
262473,-133.333333333333,4,3,1,60,0,0
262623,-133.333333333333,4,3,1,5,0,0
263673,-100,4,3,3,60,0,0
263823,-100,4,3,3,5,0,0
264873,-200,4,3,1,60,0,0
265023,-200,4,3,1,5,0,0
267273,-133.333333333333,4,3,1,60,0,0
267423,-133.333333333333,4,3,1,5,0,0
268473,-100,4,3,3,60,0,0
268623,-100,4,3,3,5,0,0
269673,-200,4,3,1,60,0,0
269823,-200,4,3,1,5,0,0
270873,-200,4,3,12,60,0,0
271023,-200,4,3,1,5,0,0
272073,-200,4,3,1,60,0,0
272223,-200,4,3,1,5,0,0
273273,-200,4,3,12,60,0,0
273423,-200,4,3,3,5,0,0
274473,-200,4,3,1,60,0,0
274623,-200,4,3,1,5,0,0
276873,-133.333333333333,4,3,1,60,0,0
277023,-133.333333333333,4,3,1,5,0,0
278073,-100,4,3,3,60,0,0
278223,-100,4,3,3,5,0,0
279273,-200,4,3,1,60,0,0
279423,-200,4,3,1,5,0,0
281673,-133.333333333333,4,3,1,60,0,0
281823,-133.333333333333,4,3,1,5,0,0
282873,-100,4,3,3,60,0,0
283023,-100,4,3,3,5,0,0
284073,-200,4,3,1,60,0,0
284223,-200,4,3,1,5,0,0
286473,-133.333333333333,4,3,1,60,0,0
286623,-133.333333333333,4,3,1,5,0,0
287673,-100,4,3,3,60,0,0
287823,-100,4,3,3,5,0,0
288873,-200,4,3,1,60,0,0
289023,-200,4,3,1,5,0,0
290073,-200,4,3,12,60,0,0
290223,-200,4,3,3,5,0,0
291273,-133.333333333333,4,3,1,60,0,0
291423,-133.333333333333,4,3,1,5,0,0
292473,571.428571428571,4,3,3,60,1,0
292473,-50,4,3,3,60,0,0
293044,631.578947368421,4,3,4,60,1,0
293044,-50,4,3,4,60,0,0
293201,600,4,3,4,60,1,0
293201,-50,4,3,3,60,0,0
293651,600,4,3,1,60,1,0
293651,-50,4,3,1,60,0,0
293913,-50,4,3,1,5,0,0
293951,-50,4,2,20,15,0,0
296073,600,4,3,1,60,1,0
296073,-50,4,3,2,60,0,0
296148,-50,4,3,1,15,0,0
296335,-50,4,3,1,5,0,0
296373,-50,4,2,20,15,0,0
297873,-50,4,3,1,60,0,0
298473,-80,4,3,1,60,0,0
298548,-80,4,2,20,25,0,0
299073,-80,4,3,1,60,0,0
299148,-80,4,2,20,25,0,0
299673,-80,4,3,1,60,0,0
299748,-80,4,2,20,25,0,0
300273,-80,4,3,1,60,0,0
300348,-80,4,2,20,25,0,0
300873,571.428571428571,4,3,2,60,1,0
300873,-50,4,3,2,60,0,0
300944,-50,4,3,3,60,0,0
301473,558.139534883721,4,3,3,60,1,0
301473,-50,4,3,2,60,0,0
301542,-50,4,3,3,60,0,0
302073,571.428571428571,4,3,3,60,1,0
302073,-50,4,3,2,60,0,0
302144,-50,4,3,3,60,0,0
302673,600,4,3,3,60,1,0
302673,-50,4,3,2,60,0,0
302748,-50,4,3,2,5,0,0
302823,-50,4,3,6,60,0,0
302898,-50,4,3,6,5,0,0
302973,-50,4,3,2,60,0,0
303048,-50,4,3,2,5,0,0
303123,-50,4,3,6,60,0,0
303198,-50,4,3,6,5,0,0
303273,600,4,3,2,60,1,1
303273,-50,4,3,2,60,0,1
303498,-50,4,3,2,5,0,1
303573,-50,4,3,1,60,0,1
303648,-50,4,3,3,60,0,1
303723,-50,4,3,1,60,0,1
303798,-50,4,3,3,60,0,1
303873,-50,4,3,1,60,0,1
303948,-50,4,3,3,60,0,1
304023,-50,4,3,1,60,0,1
304098,-50,4,3,3,60,0,1
304173,-50,4,3,1,60,0,1
304248,-50,4,3,3,60,0,1
304323,-50,4,3,1,60,0,1
304398,-50,4,3,3,60,0,1
304473,-50,4,3,1,60,0,1
304548,-50,4,3,3,60,0,1
304623,-50,4,3,1,60,0,1
304698,-50,4,3,3,60,0,1
304773,-50,4,3,1,60,0,1
304848,-50,4,3,3,60,0,1
304923,-50,4,3,1,60,0,1
304998,-50,4,3,3,60,0,1
305073,-50,4,3,1,60,0,1
305148,-50,4,3,3,60,0,1
305223,-50,4,3,1,60,0,1
305298,-50,4,3,3,60,0,1
305373,-50,4,3,1,60,0,1
305448,-50,4,3,3,60,0,1
305523,-50,4,3,1,60,0,1
305598,-50,4,3,3,60,0,1
305673,-50,4,3,1,60,0,1
305748,-50,4,3,3,60,0,1
305823,-50,4,3,1,60,0,1
305898,-50,4,3,3,60,0,1
305973,-50,4,3,1,60,0,1
306048,-50,4,3,3,60,0,1
306123,-50,4,3,1,60,0,1
306198,-50,4,3,3,60,0,1
306273,-50,4,3,1,60,0,1
306348,-50,4,3,3,60,0,1
306423,-50,4,3,1,60,0,1
306498,-50,4,3,3,60,0,1
306573,-50,4,3,1,60,0,1
306648,-50,4,3,3,60,0,1
306723,-50,4,3,1,60,0,1
306798,-50,4,3,3,60,0,1
306873,-50,4,3,1,60,0,1
306948,-50,4,3,3,60,0,1
307023,-50,4,3,1,60,0,1
307098,-50,4,3,3,60,0,1
307173,-50,4,3,1,60,0,1
307248,-50,4,3,3,60,0,1
307323,-50,4,3,1,60,0,1
307398,-50,4,3,3,60,0,1
307473,-50,4,3,2,60,0,1
307548,-50,4,3,3,60,0,1
307623,-50,4,3,1,60,0,1
307698,-50,4,3,3,60,0,1
307773,-50,4,3,2,60,0,1
307848,-50,4,3,3,60,0,1
307923,-50,4,3,1,60,0,1
307998,-50,4,3,3,60,0,1
308073,-50,4,3,6,60,0,1
308148,-50,4,3,3,60,0,1
308223,-50,4,3,1,60,0,1
308448,-50,4,3,3,60,0,1
308523,-50,4,3,1,60,0,1
308598,-50,4,3,3,60,0,1
308673,-50,4,3,1,60,0,1
308748,-50,4,3,3,60,0,1
308823,-50,4,3,1,60,0,1
308898,-50,4,3,3,60,0,1
308973,-50,4,3,1,60,0,1
309048,-50,4,3,3,60,0,1
309123,-50,4,3,1,60,0,1
309198,-50,4,3,3,60,0,1
309273,-50,4,3,1,60,0,1
309348,-50,4,3,3,60,0,1
309423,-50,4,3,1,60,0,1
309498,-50,4,3,3,60,0,1
309573,-50,4,3,1,60,0,1
309648,-50,4,3,3,60,0,1
309723,-50,4,3,1,60,0,1
309798,-50,4,3,3,60,0,1
309873,-50,4,3,1,60,0,1
309948,-50,4,3,3,60,0,1
310023,-50,4,3,1,60,0,1
310098,-50,4,3,3,60,0,1
310173,-50,4,3,1,60,0,1
310248,-50,4,3,3,60,0,1
310323,-50,4,3,1,60,0,1
310398,-50,4,3,3,60,0,1
310473,571.428571428571,4,3,2,60,1,1
310473,-50,4,3,2,60,0,1
310544,-50,4,3,3,60,0,1
311073,558.139534883721,4,3,3,60,1,1
311073,-50,4,3,6,60,0,1
311142,-50,4,3,3,60,0,1
311673,571.428571428571,4,3,3,60,1,1
311673,-50,4,3,6,60,0,1
311744,-50,4,3,3,60,0,1
312273,600,4,3,3,60,1,1
312273,-50,4,3,2,60,0,1
312348,-50,4,3,2,5,0,1
312423,-50,4,3,6,60,0,1
312498,-50,4,3,6,5,0,1
312573,-50,4,3,2,60,0,1
312648,-50,4,3,2,5,0,1
312723,-50,4,3,6,60,0,1
312798,-50,4,3,6,5,0,1
312873,600,4,3,2,60,1,1
312873,-50,4,3,2,60,0,1
313098,-50,4,3,2,5,0,1
313173,-50,4,3,1,60,0,1
313248,-50,4,3,3,60,0,1
313323,-50,4,3,1,60,0,1
313398,-50,4,3,3,60,0,1
313473,-50,4,3,1,60,0,1
313548,-50,4,3,3,60,0,1
313623,-50,4,3,1,60,0,1
313698,-50,4,3,3,60,0,1
313773,-50,4,3,1,60,0,1
313848,-50,4,3,3,60,0,1
313923,-50,4,3,1,60,0,1
313998,-50,4,3,3,60,0,1
314073,-50,4,3,1,60,0,1
314148,-50,4,3,3,60,0,1
314223,-50,4,3,1,60,0,1
314298,-50,4,3,3,60,0,1
314373,-50,4,3,1,60,0,1
314448,-50,4,3,3,60,0,1
314523,-50,4,3,1,60,0,1
314598,-50,4,3,3,60,0,1
314673,-50,4,3,1,60,0,1
314748,-50,4,3,3,60,0,1
314823,-50,4,3,1,60,0,1
314898,-50,4,3,3,60,0,1
314973,-50,4,3,1,60,0,1
315048,-50,4,3,3,60,0,1
315123,-50,4,3,1,60,0,1
315198,-50,4,3,3,60,0,1
315273,-50,4,3,1,60,0,1
315348,-50,4,3,3,60,0,1
315423,-50,4,3,1,60,0,1
315498,-50,4,3,3,60,0,1
315573,-50,4,3,1,60,0,1
315648,-50,4,3,3,60,0,1
315723,-50,4,3,1,60,0,1
315798,-50,4,3,3,60,0,1
315873,-50,4,3,1,60,0,1
315948,-50,4,3,3,60,0,1
316023,-50,4,3,1,60,0,1
316098,-50,4,3,3,60,0,1
316173,-50,4,3,1,60,0,1
316248,-50,4,3,3,60,0,1
316323,-50,4,3,1,60,0,1
316398,-50,4,3,3,60,0,1
316473,-50,4,3,1,60,0,1
316548,-50,4,3,3,60,0,1
316623,-50,4,3,1,60,0,1
316698,-50,4,3,3,60,0,1
316773,-50,4,3,1,60,0,1
316848,-50,4,3,3,60,0,1
316923,-50,4,3,1,60,0,1
316998,-50,4,3,3,60,0,1
317073,-50,4,3,8,60,0,1
317148,-50,4,3,3,60,0,1
317223,-50,4,3,1,60,0,1
317298,-50,4,3,3,60,0,1
317373,-50,4,3,8,60,0,1
317448,-50,4,3,3,60,0,1
317523,-50,4,3,1,60,0,1
317598,-50,4,3,3,60,0,1
317673,-50,4,3,9,60,0,1
317748,-50,4,3,3,60,0,1
317823,-50,4,3,1,60,0,1
317898,-50,4,3,1,5,0,1
317973,-50,4,3,1,60,0,1
318048,-50,4,3,3,60,0,1
318123,-50,4,3,1,60,0,1
318198,-50,4,3,3,60,0,1
318273,-50,4,3,1,60,0,1
318348,-50,4,3,3,60,0,1
318423,-50,4,3,1,60,0,1
318498,-50,4,3,3,60,0,1
318573,-50,4,3,1,60,0,1
318648,-50,4,3,3,60,0,1
318723,-50,4,3,1,60,0,1
318798,-50,4,3,3,60,0,1
318873,-50,4,3,1,60,0,1
318948,-50,4,3,3,60,0,1
319023,-50,4,3,1,60,0,1
319098,-50,4,3,3,60,0,1
319173,-50,4,3,1,60,0,1
319248,-50,4,3,3,60,0,1
319323,-50,4,3,1,60,0,1
319398,-50,4,3,3,60,0,1
319473,-50,4,3,1,60,0,1
319548,-50,4,3,3,60,0,1
319623,-50,4,3,1,60,0,1
319698,-50,4,3,3,60,0,1
319773,-50,4,3,1,60,0,1
319848,-50,4,3,3,60,0,1
319923,-50,4,3,1,60,0,1
319998,-50,4,3,3,60,0,1
320073,571.428571428571,4,3,2,60,1,1
320073,-50,4,3,2,60,0,1
320144,-50,4,3,3,60,0,1
320673,558.139534883721,4,3,3,60,1,1
320673,-50,4,3,6,60,0,1
320742,-50,4,3,3,60,0,1
321273,571.428571428571,4,3,3,60,1,1
321273,-50,4,3,6,60,0,1
321344,-50,4,3,3,60,0,1
321873,600,4,3,3,60,1,1
321873,-50,4,3,2,60,0,1
321948,-50,4,3,2,5,0,1
322023,-50,4,3,6,60,0,1
322098,-50,4,3,6,5,0,1
322173,-50,4,3,2,60,0,1
322248,-50,4,3,2,5,0,1
322323,-50,4,3,6,60,0,0
322398,-50,4,3,6,5,0,0
322473,600,4,3,2,60,1,1
322473,-50,4,3,2,60,0,1
322698,-50,4,3,2,5,0,1
322773,-50,4,3,2,60,0,1
322848,-50,4,3,3,60,0,1
322923,-50,4,3,2,60,0,1
322998,-50,4,3,3,60,0,1
323073,-50,4,3,2,60,0,1
323148,-50,4,3,3,60,0,1
323223,-50,4,3,2,60,0,1
323298,-50,4,3,3,60,0,1
323373,-50,4,3,2,60,0,1
323448,-50,4,3,3,60,0,1
323523,-50,4,3,2,60,0,1
323598,-50,4,3,3,60,0,1
323673,-50,4,3,2,60,0,1
323748,-50,4,3,3,60,0,1
323823,-50,4,3,2,60,0,1
323898,-50,4,3,3,60,0,1
323973,-50,4,3,2,60,0,1
324048,-50,4,3,3,60,0,1
324123,-50,4,3,2,60,0,1
324198,-50,4,3,3,60,0,1
324273,-50,4,3,2,60,0,1
324348,-50,4,3,3,60,0,1
324423,-50,4,3,2,60,0,1
324498,-50,4,3,3,60,0,1
324573,-50,4,3,2,60,0,1
324648,-50,4,3,3,60,0,1
324723,-50,4,3,2,60,0,1
324798,-50,4,3,3,60,0,1
324873,-50,4,3,2,60,0,1
324948,-50,4,3,3,60,0,1
325023,-50,4,3,2,60,0,1
325098,-50,4,3,3,60,0,1
325173,-50,4,3,2,60,0,1
325248,-50,4,3,3,60,0,1
325323,-50,4,3,2,60,0,1
325398,-50,4,3,3,60,0,1
325473,-50,4,3,2,60,0,1
325548,-50,4,3,3,60,0,1
325623,-50,4,3,2,60,0,1
325698,-50,4,3,3,60,0,1
325773,-50,4,3,2,60,0,1
325848,-50,4,3,3,60,0,1
325923,-50,4,3,2,60,0,1
325998,-50,4,3,3,60,0,1
326073,-50,4,3,2,60,0,1
326148,-50,4,3,3,60,0,1
326223,-50,4,3,2,60,0,1
326298,-50,4,3,3,60,0,1
326373,-50,4,3,2,60,0,1
326448,-50,4,3,3,60,0,1
326523,-50,4,3,2,60,0,1
326598,-50,4,3,3,60,0,1
326673,-50,4,3,2,60,0,1
326748,-50,4,3,3,60,0,1
326823,-50,4,3,2,60,0,1
326898,-50,4,3,3,60,0,1
326973,-50,4,3,2,60,0,1
327048,-50,4,3,3,60,0,1
327123,-50,4,3,2,60,0,1
327198,-50,4,3,3,60,0,1
327273,-50,4,3,6,60,0,1
327348,-50,4,3,3,60,0,1
327423,-50,4,3,2,60,0,1
327498,-50,4,3,3,60,0,1
327573,-50,4,3,2,60,0,1
327648,-50,4,3,3,60,0,1
327723,-50,4,3,2,60,0,1
327798,-50,4,3,3,60,0,1
327873,-50,4,3,2,60,0,1
327948,-50,4,3,3,60,0,1
328023,-50,4,3,2,60,0,1
328098,-50,4,3,3,60,0,1
328173,-50,4,3,2,60,0,1
328248,-50,4,3,3,60,0,1
328323,-50,4,3,2,60,0,1
328398,-50,4,3,3,60,0,1
328473,-50,4,3,2,60,0,1
328548,-50,4,3,3,60,0,1
328623,-50,4,3,2,60,0,1
328698,-50,4,3,3,60,0,1
328773,-50,4,3,2,60,0,1
328848,-50,4,3,3,60,0,1
328923,-50,4,3,2,60,0,1
328998,-50,4,3,3,60,0,1
329073,-50,4,3,2,60,0,1
329148,-50,4,3,3,60,0,1
329223,-50,4,3,2,60,0,1
329298,-50,4,3,3,60,0,1
329373,-50,4,3,2,60,0,1
329448,-50,4,3,3,60,0,1
329523,-50,4,3,2,60,0,1
329598,-50,4,3,3,60,0,1
329673,-50,4,3,6,60,0,1
329748,-50,4,3,3,60,0,1
329823,-50,4,3,2,60,0,1
329898,-50,4,3,3,60,0,1
329973,-50,4,3,6,60,0,1
330048,-50,4,3,3,60,0,1
330123,-50,4,3,6,60,0,1
330198,-50,4,3,3,60,0,1
330273,-50,4,3,6,60,0,1
330348,-50,4,3,3,60,0,1
330423,-50,4,3,2,60,0,1
330498,-50,4,3,3,60,0,1
330573,-50,4,3,6,60,0,1
330648,-50,4,3,3,60,0,1
330723,-50,4,3,2,60,0,1
330798,-50,4,3,3,60,0,1
330873,-50,4,3,6,60,0,1
330948,-50,4,3,3,60,0,1
331023,-50,4,3,2,60,0,1
331098,-50,4,3,3,60,0,1
331173,-50,4,3,6,60,0,1
331248,-50,4,3,3,60,0,1
331323,-50,4,3,2,60,0,1
331398,-50,4,3,3,60,0,1
331473,-50,4,3,5,60,0,1
331773,-50,4,3,3,60,0,1
332073,-50,4,3,2,60,0,1
332298,-50,4,3,2,5,0,1
332373,-50,4,3,2,60,0,1
332448,-50,4,3,3,60,0,1
332523,-50,4,3,2,60,0,1
332598,-50,4,3,3,60,0,1
332673,-50,4,3,2,60,0,1
332748,-50,4,3,3,60,0,1
332823,-50,4,3,2,60,0,1
332898,-50,4,3,3,60,0,1
332973,-50,4,3,2,60,0,1
333048,-50,4,3,3,60,0,1
333123,-50,4,3,2,60,0,1
333198,-50,4,3,3,60,0,1
333273,-50,4,3,2,60,0,1
333348,-50,4,3,3,60,0,1
333423,-50,4,3,2,60,0,1
333498,-50,4,3,3,60,0,1
333573,-50,4,3,2,60,0,1
333648,-50,4,3,3,60,0,1
333723,-50,4,3,2,60,0,1
333798,-50,4,3,3,60,0,1
333873,-50,4,3,2,60,0,1
333948,-50,4,3,3,60,0,1
334023,-50,4,3,2,60,0,1
334098,-50,4,3,3,60,0,1
334173,-50,4,3,2,60,0,1
334248,-50,4,3,3,60,0,1
334323,-50,4,3,2,60,0,1
334398,-50,4,3,3,60,0,1
334473,-50,4,3,2,60,0,1
334548,-50,4,3,3,60,0,1
334623,-50,4,3,2,60,0,1
334698,-50,4,3,3,60,0,1
334773,-50,4,3,2,60,0,1
334848,-50,4,3,3,60,0,1
334923,-50,4,3,2,60,0,1
334998,-50,4,3,3,60,0,1
335073,-50,4,3,2,60,0,1
335148,-50,4,3,3,60,0,1
335223,-50,4,3,2,60,0,1
335298,-50,4,3,3,60,0,1
335373,-50,4,3,2,60,0,1
335448,-50,4,3,3,60,0,1
335523,-50,4,3,2,60,0,1
335598,-50,4,3,3,60,0,1
335673,-50,4,3,2,60,0,1
335748,-50,4,3,3,60,0,1
335823,-50,4,3,2,60,0,1
335898,-50,4,3,3,60,0,1
335973,-50,4,3,2,60,0,1
336048,-50,4,3,3,60,0,1
336123,-50,4,3,2,60,0,1
336198,-50,4,3,3,60,0,1
336273,-50,4,3,2,60,0,1
336348,-50,4,3,3,60,0,1
336423,-50,4,3,2,60,0,1
336498,-50,4,3,3,60,0,1
336573,-50,4,3,2,60,0,1
336648,-50,4,3,3,60,0,1
336723,-50,4,3,2,60,0,1
336798,-50,4,3,3,60,0,1
336873,-50,4,3,6,60,0,1
336948,-50,4,3,3,60,0,1
337023,-50,4,3,2,60,0,1
337098,-50,4,3,3,60,0,1
337173,-50,4,3,2,60,0,1
337248,-50,4,3,3,60,0,1
337323,-50,4,3,2,60,0,1
337398,-50,4,3,3,60,0,1
337473,-50,4,3,2,60,0,1
337548,-50,4,3,3,60,0,1
337623,-50,4,3,2,60,0,1
337698,-50,4,3,3,60,0,1
337773,-50,4,3,2,60,0,1
337848,-50,4,3,3,60,0,1
337923,-50,4,3,2,60,0,1
337998,-50,4,3,3,60,0,1
338073,-50,4,3,2,60,0,1
338148,-50,4,3,3,60,0,1
338223,-50,4,3,2,60,0,1
338298,-50,4,3,3,60,0,1
338373,-50,4,3,2,60,0,1
338448,-50,4,3,3,60,0,1
338523,-50,4,3,2,60,0,1
338598,-50,4,3,3,60,0,1
338673,-50,4,3,2,60,0,1
338748,-50,4,3,3,60,0,1
338823,-50,4,3,2,60,0,1
338898,-50,4,3,3,60,0,1
338973,-50,4,3,2,60,0,1
339048,-50,4,3,3,60,0,1
339123,-50,4,3,2,60,0,1
339198,-50,4,3,3,60,0,1
339273,-50,4,3,6,60,0,1
339348,-50,4,3,3,60,0,1
339423,-50,4,3,2,60,0,1
339498,-50,4,3,3,60,0,1
339573,-50,4,3,6,60,0,1
339648,-50,4,3,3,60,0,1
339723,-50,4,3,6,60,0,1
339798,-50,4,3,3,60,0,1
339873,-50,4,3,6,60,0,1
339948,-50,4,3,3,60,0,1
340023,-50,4,3,2,60,0,1
340098,-50,4,3,3,60,0,1
340173,-50,4,3,6,60,0,1
340248,-50,4,3,3,60,0,1
340323,-50,4,3,2,60,0,1
340398,-50,4,3,3,60,0,1
340473,-50,4,3,6,60,0,1
340548,-50,4,3,3,60,0,1
340623,-50,4,3,2,60,0,1
340698,-50,4,3,3,60,0,1
340773,-50,4,3,6,60,0,1
341073,-50,4,3,5,60,0,1
341373,-50,4,3,7,60,0,1
341673,-50,4,3,6,60,0,0
346473,-50,4,3,1,60,0,0
347073,-50,4,3,6,60,0,0
348873,-50,4,3,6,60,0,0
351273,-66.6666666666667,4,3,6,60,0,0
351873,-66.6666666666667,4,3,4,60,0,0
352323,-66.6666666666667,4,3,1,60,0,0
352473,-66.6666666666667,4,3,10,60,0,0
353523,-66.6666666666667,4,3,10,5,0,0
353673,-66.6666666666667,4,3,6,60,0,0
354273,-66.6666666666667,4,3,4,60,0,0
354723,-66.6666666666667,4,3,1,60,0,0
354873,-66.6666666666667,4,3,10,60,0,0
355923,-66.6666666666667,4,3,10,5,0,0
356073,-66.6666666666667,4,3,6,60,0,0
356673,-66.6666666666667,4,3,4,60,0,0
357123,-66.6666666666667,4,3,1,60,0,0
357273,-66.6666666666667,4,3,10,60,0,0
358323,-66.6666666666667,4,3,10,5,0,0
358473,-66.6666666666667,4,3,6,60,0,0
359073,-66.6666666666667,4,3,4,60,0,0
359373,-66.6666666666667,4,3,4,5,0,0
359448,-66.6666666666667,4,3,4,60,0,0
359523,-66.6666666666667,4,3,1,60,0,0
359673,-66.6666666666667,4,3,10,60,0,0
359973,-66.6666666666667,4,3,1,60,0,0
360273,-66.6666666666667,4,3,2,60,0,0
360498,-66.6666666666667,4,3,2,5,0,0
360573,-66.6666666666667,4,3,1,60,0,0
360798,-66.6666666666667,4,3,1,5,0,0
360873,-66.6666666666667,4,3,1,60,0,0
362373,-66.6666666666667,4,3,1,5,0,0
362523,-66.6666666666667,4,3,1,60,0,0
363273,-66.6666666666667,4,3,1,55,0,0
364473,-66.6666666666667,4,3,1,50,0,0
365673,-66.6666666666667,4,3,1,45,0,0
366873,-66.6666666666667,4,3,1,40,0,0
368073,-66.6666666666667,4,3,1,35,0,0
369273,-66.6666666666667,4,3,1,30,0,0
370473,-66.6666666666667,4,3,1,25,0,0
371673,-66.6666666666667,4,3,1,20,0,0
372873,-66.6666666666667,4,3,1,15,0,0
374073,-66.6666666666667,4,3,1,10,0,0
375273,-66.6666666666667,4,3,1,5,0,0

[Colours]
Combo1 : 170,107,104
Combo2 : 194,187,135
Combo3 : 173,147,122
Combo4 : 147,109,89

[HitObjects]
208,211,48,5,0,3:0:0:0:
149,181,123,1,0,3:0:0:0:
208,211,198,1,0,3:0:0:0:
370,223,273,1,8,3:0:0:0:
94,279,423,2,0,P|56:229|197:90,1,300,8|0,3:0|3:0,3:3:0:0:
412,131,873,6,0,B|478:157|478:157|497:203|498:228|489:263|473:295|444:305|444:305|204:275|204:275|439:237|439:237|350:193|340:136|362:78|403:46|403:46|420:288|420:288|246:125|246:125|359:116|359:116|236:108|236:108|356:83|356:83|238:70|238:70|214:190|214:190|96:172|96:172|74:292|74:292|196:312|196:312|86:281|86:281|204:285|204:285|91:239|91:239|132:194|132:194|170:203,1,2850,4|0,3:0|0:0,0:0:0:0:
426,152,8073,5,4,3:0:0:0:
354,148,8144,1,8,3:0:0:0:
282,140,8215,1,8,3:0:0:0:
234,136,8287,1,8,3:0:0:0:
213,84,8358,1,8,3:0:0:0:
234,136,8430,1,8,3:0:0:0:
282,140,8501,1,8,3:0:0:0:
234,136,8573,1,8,3:0:0:0:
37,242,8673,5,4,3:0:0:0:
120,237,8742,1,8,3:0:0:0:
199,230,8812,1,8,3:0:0:0:
263,221,8882,1,8,3:0:0:0:
199,230,8952,1,8,3:0:0:0:
170,174,9021,1,8,3:0:0:0:
199,230,9091,1,8,3:0:0:0:
263,221,9161,1,8,3:0:0:0:
455,136,9273,5,4,3:0:0:0:
380,130,9344,1,8,3:0:0:0:
306,119,9415,1,8,3:0:0:0:
382,130,9487,1,8,3:0:0:0:
455,136,9558,1,8,3:0:0:0:
394,98,9630,1,8,3:0:0:0:
365,38,9701,1,8,3:0:0:0:
394,98,9773,1,8,3:0:0:0:
455,136,9873,5,8,3:0:0:0:
424,192,9948,1,8,3:0:0:0:
371,203,10023,1,8,3:0:0:0:
305,204,10098,1,8,3:0:0:0:
127,156,10173,2,0,L|58:163,1,60,8|8,3:0|3:0,0:0:0:0:
250,109,10323,2,0,L|319:116,1,60,8|8,3:0|3:0,0:0:0:0:
127,255,10473,6,0,P|74:206|156:131,1,180,4|0,3:0|0:0,3:3:0:0:
187,125,10773,2,0,L|257:123,1,60,2|8,3:0|3:0,0:0:0:0:
172,62,10923,2,0,L|96:58,1,60,2|8,3:0|3:0,0:0:0:0:
292,203,11073,1,2,3:0:0:0:
353,196,11148,1,8,3:0:0:0:
395,159,11223,1,2,3:0:0:0:
417,111,11298,1,8,3:0:0:0:
395,159,11373,1,2,3:0:0:0:
353,196,11448,1,8,3:0:0:0:
292,203,11523,1,2,3:0:0:0:
221,203,11598,1,8,3:0:0:0:
41,224,11673,5,2,3:0:0:0:
27,166,11748,1,8,3:0:0:0:
43,115,11823,1,2,3:0:0:0:
81,82,11898,1,8,3:0:0:0:
131,66,11973,1,2,3:0:0:0:
190,60,12048,1,8,3:0:0:0:
261,58,12123,1,2,3:0:0:0:
190,60,12198,1,8,3:0:0:0:
9,163,12273,5,2,3:0:0:0:
92,159,12348,1,8,3:0:0:0:
164,158,12423,1,2,3:0:0:0:
224,153,12498,1,8,3:0:0:0:
272,119,12573,1,2,3:0:0:0:
296,68,12648,1,8,3:0:0:0:
272,119,12723,1,2,3:0:0:0:
224,153,12798,1,8,3:0:0:0:
404,244,12873,5,2,3:0:0:0:
458,209,12948,1,8,3:0:0:0:
477,150,13023,1,2,3:0:0:0:
458,209,13098,1,8,3:0:0:0:
404,244,13173,1,2,3:0:0:0:
337,247,13248,1,8,3:0:0:0:
415,191,13323,1,2,3:0:0:0:
441,125,13398,1,8,3:0:0:0:
261,174,13473,5,2,3:0:0:0:
200,160,13548,1,8,3:0:0:0:
180,104,13623,1,2,3:0:0:0:
200,160,13698,1,8,3:0:0:0:
261,174,13773,1,2,3:0:0:0:
333,172,13848,1,8,3:0:0:0:
302,112,13923,1,2,3:0:0:0:
239,90,13998,1,8,3:0:0:0:
59,98,14073,5,2,3:0:0:0:
59,135,14148,1,8,3:0:0:0:
58,166,14223,1,2,3:0:0:0:
58,203,14298,1,8,3:0:0:0:
150,228,14373,1,2,3:0:0:0:
219,222,14448,1,8,3:0:0:0:
246,162,14523,1,2,3:0:0:0:
219,222,14598,1,8,3:0:0:0:
124,144,14673,5,4,3:0:0:0:
144,87,14748,1,8,3:0:0:0:
233,98,14823,1,0,3:0:0:0:
253,41,14898,1,8,3:0:0:0:
164,275,14973,1,4,3:0:0:0:
192,220,15048,1,8,3:0:0:0:
245,192,15123,1,0,3:0:0:0:
310,188,15198,1,8,3:0:0:0:
491,302,15273,6,0,P|499:244|397:158,1,180,4|0,3:0|0:0,3:3:0:0:
361,151,15573,2,0,L|291:149,1,60,2|8,3:0|3:0,0:0:0:0:
376,88,15723,2,0,L|452:84,1,60,2|8,3:0|3:0,0:0:0:0:
253,63,15873,1,2,3:0:0:0:
193,69,15948,1,8,3:0:0:0:
164,119,16023,1,2,3:0:0:0:
193,69,16098,1,8,3:0:0:0:
253,63,16173,1,2,3:0:0:0:
329,61,16248,1,8,3:0:0:0:
287,118,16323,1,2,3:0:0:0:
215,145,16398,1,8,3:0:0:0:
36,184,16473,5,2,3:0:0:0:
66,121,16548,1,8,3:0:0:0:
128,106,16623,1,2,3:0:0:0:
204,98,16698,1,8,3:0:0:0:
266,95,16773,1,2,3:0:0:0:
310,87,16848,1,8,3:0:0:0:
339,34,16923,1,2,3:0:0:0:
310,87,16998,1,8,3:0:0:0:
130,228,17073,5,2,3:0:0:0:
70,204,17148,1,8,3:0:0:0:
40,151,17223,1,2,3:0:0:0:
70,204,17298,1,8,3:0:0:0:
130,228,17373,1,2,3:0:0:0:
203,225,17448,1,8,3:0:0:0:
130,228,17523,1,2,3:0:0:0:
57,232,17598,1,8,3:0:0:0:
237,164,17673,5,4,3:0:0:0:
298,162,17748,1,8,3:0:0:0:
310,139,17823,1,8,3:0:0:0:
322,112,17898,1,8,3:0:0:0:
262,101,17973,1,8,3:0:0:0:
250,78,18048,1,8,3:0:0:0:
238,51,18123,1,8,3:0:0:0:
226,29,18198,1,8,3:0:0:0:
331,227,18273,5,4,3:0:0:0:
392,225,18348,1,8,3:0:0:0:
410,191,18423,1,8,3:0:0:0:
392,225,18498,1,8,3:0:0:0:
331,227,18573,1,8,3:0:0:0:
343,204,18648,1,8,3:0:0:0:
355,177,18723,1,8,3:0:0:0:
367,155,18798,1,8,3:0:0:0:
187,223,18873,5,4,3:0:0:0:
127,213,18948,1,8,3:0:0:0:
83,175,19023,1,8,3:0:0:0:
64,131,19098,1,8,3:0:0:0:
83,175,19173,1,8,3:0:0:0:
127,213,19248,1,8,3:0:0:0:
187,223,19323,1,8,3:0:0:0:
258,228,19398,1,8,3:0:0:0:
438,230,19473,6,0,L|361:222,1,60,8|8,3:0|3:0,0:0:0:0:
198,94,19623,2,0,L|121:86,1,60,8|8,3:0|3:0,0:0:0:0:
319,126,19773,1,8,3:0:0:0:
305,67,19848,1,8,3:0:0:0:
260,51,19923,1,8,3:0:0:0:
193,46,19998,1,8,3:0:0:0:
373,260,20073,6,0,P|442:248|428:116,1,180,4|0,3:0|0:0,3:3:0:0:
405,127,20373,2,0,L|341:122,1,60,2|8,3:0|3:0,0:0:0:0:
422,64,20523,2,0,L|494:72,1,60,2|8,3:0|3:0,0:0:0:0:
302,173,20673,1,2,3:0:0:0:
229,172,20748,1,8,3:0:0:0:
170,172,20823,1,2,3:0:0:0:
118,166,20898,1,8,3:0:0:0:
83,123,20973,1,2,3:0:0:0:
72,67,21048,1,8,3:0:0:0:
83,123,21123,1,2,3:0:0:0:
118,166,21198,1,8,3:0:0:0:
298,263,21273,5,2,3:0:0:0:
317,217,21348,1,8,3:0:0:0:
298,164,21423,1,2,3:0:0:0:
254,144,21498,1,8,3:0:0:0:
194,137,21573,1,2,3:0:0:0:
121,134,21648,1,8,3:0:0:0:
45,134,21723,1,2,3:0:0:0:
121,134,21798,1,8,3:0:0:0:
302,37,21873,5,2,3:0:0:0:
219,41,21948,1,8,3:0:0:0:
147,42,22023,1,2,3:0:0:0:
87,47,22098,1,8,3:0:0:0:
39,81,22173,1,2,3:0:0:0:
15,132,22248,1,8,3:0:0:0:
39,81,22323,1,2,3:0:0:0:
87,47,22398,1,8,3:0:0:0:
267,236,22473,5,2,3:0:0:0:
237,170,22548,1,8,3:0:0:0:
177,158,22623,1,2,3:0:0:0:
104,151,22698,1,8,3:0:0:0:
177,158,22773,1,2,3:0:0:0:
237,170,22848,1,8,3:0:0:0:
268,119,22923,1,2,3:0:0:0:
237,170,22998,1,8,3:0:0:0:
57,232,23073,5,2,3:0:0:0:
37,185,23148,1,8,3:0:0:0:
56,143,23223,1,2,3:0:0:0:
97,129,23298,1,8,3:0:0:0:
160,118,23373,1,2,3:0:0:0:
235,109,23448,1,8,3:0:0:0:
141,72,23523,1,2,3:0:0:0:
216,63,23598,1,8,3:0:0:0:
396,114,23673,5,2,3:0:0:0:
396,151,23748,1,8,3:0:0:0:
397,182,23823,1,2,3:0:0:0:
397,219,23898,1,8,3:0:0:0:
305,244,23973,1,2,3:0:0:0:
236,238,24048,1,8,3:0:0:0:
209,178,24123,1,2,3:0:0:0:
236,238,24198,1,8,3:0:0:0:
331,160,24273,5,4,3:0:0:0:
311,103,24348,1,8,3:0:0:0:
222,114,24423,1,0,3:0:0:0:
202,57,24498,1,8,3:0:0:0:
291,291,24573,1,4,3:0:0:0:
316,244,24648,1,8,3:0:0:0:
291,291,24723,1,0,3:0:0:0:
227,291,24798,1,8,3:0:0:0:
47,279,24873,6,0,P|47:212|147:149,1,180,4|0,3:0|0:0,3:3:0:0:
206,142,25173,2,0,L|214:79,1,60,2|8,3:0|3:0,0:0:0:0:
135,93,25323,2,0,L|127:30,1,60,2|8,3:0|3:0,0:0:0:0:
308,33,25473,5,2,3:0:0:0:
376,46,25548,1,8,3:0:0:0:
435,71,25623,1,2,3:0:0:0:
473,118,25698,1,8,3:0:0:0:
485,179,25773,1,2,3:0:0:0:
473,118,25848,1,8,3:0:0:0:
435,71,25923,1,2,3:0:0:0:
376,46,25998,1,8,3:0:0:0:
196,225,26073,5,2,3:0:0:0:
226,162,26148,1,8,3:0:0:0:
288,153,26223,1,2,3:0:0:0:
361,148,26298,1,8,3:0:0:0:
424,143,26373,1,2,3:0:0:0:
448,95,26448,1,8,3:0:0:0:
424,143,26523,1,2,3:0:0:0:
361,148,26598,1,8,3:0:0:0:
181,78,26673,5,2,3:0:0:0:
121,85,26748,1,8,3:0:0:0:
97,135,26823,1,2,3:0:0:0:
121,85,26898,1,8,3:0:0:0:
181,78,26973,1,2,3:0:0:0:
253,77,27048,1,8,3:0:0:0:
313,78,27123,1,2,3:0:0:0:
343,131,27198,1,8,3:0:0:0:
163,233,27273,5,4,3:0:0:0:
103,222,27348,1,8,3:0:0:0:
116,189,27423,1,8,3:0:0:0:
128,160,27498,1,8,3:0:0:0:
188,147,27573,1,8,3:0:0:0:
175,114,27648,1,8,3:0:0:0:
163,85,27723,1,8,3:0:0:0:
151,54,27798,1,8,3:0:0:0:
256,46,27873,5,4,3:0:0:0:
316,57,27948,1,8,3:0:0:0:
303,90,28023,1,8,3:0:0:0:
291,119,28098,1,8,3:0:0:0:
231,128,28173,1,8,3:0:0:0:
218,161,28248,1,8,3:0:0:0:
206,190,28323,1,8,3:0:0:0:
194,221,28398,1,8,3:0:0:0:
375,279,28473,5,4,3:0:0:0:
435,269,28548,1,8,3:0:0:0:
479,231,28623,1,8,3:0:0:0:
498,187,28698,1,8,3:0:0:0:
479,231,28773,1,8,3:0:0:0:
435,269,28848,1,8,3:0:0:0:
375,279,28923,1,8,3:0:0:0:
304,284,28998,1,8,3:0:0:0:
124,286,29073,6,0,L|201:278,1,60,8|8,3:0|3:0,0:0:0:0:
363,177,29223,2,0,L|440:169,1,60,8|8,3:0|3:0,0:0:0:0:
243,182,29373,1,8,3:0:0:0:
257,123,29448,1,8,3:0:0:0:
302,107,29523,1,8,3:0:0:0:
369,102,29598,1,8,3:0:0:0:
154,68,29673,6,0,B|30:68|30:68|29:193|29:193|142:193|142:193|144:311|144:311|25:303|25:303|175:290|175:290|83:284|82:165|182:168|182:168|191:40|191:40|191:154|191:154|310:161|310:161|302:280|302:280|192:278|192:278|318:286|318:286|186:284|186:284|300:295|300:295|334:58|334:58|213:36|213:36|206:155|206:155|323:169|323:169|338:53|338:53|459:50|459:50|344:46|344:46,1,2850,4|0,3:0|0:0,0:0:0:0:
108,115,36873,5,4,3:0:0:0:
186,111,36948,1,8,3:0:0:0:
265,106,37023,1,8,3:0:0:0:
343,101,37098,1,8,3:0:0:0:
404,96,37173,1,8,3:0:0:0:
435,48,37248,1,8,3:0:0:0:
404,96,37323,1,8,3:0:0:0:
343,101,37398,1,8,3:0:0:0:
163,227,37473,5,8,3:0:0:0:
139,177,37548,1,8,3:0:0:0:
163,227,37623,1,8,3:0:0:0:
223,229,37698,1,8,3:0:0:0:
329,231,37773,1,8,3:0:0:0:
353,281,37848,1,8,3:0:0:0:
329,231,37923,1,8,3:0:0:0:
269,229,37998,1,8,3:0:0:0:
89,125,38073,5,4,3:0:0:0:
165,118,38148,1,8,3:0:0:0:
240,111,38223,1,8,3:0:0:0:
165,118,38298,1,8,3:0:0:0:
89,125,38373,1,8,3:0:0:0:
59,70,38448,1,8,3:0:0:0:
89,125,38523,1,8,3:0:0:0:
149,123,38598,1,8,3:0:0:0:
240,116,38673,5,8,3:0:0:0:
219,64,38748,1,8,3:0:0:0:
173,49,38823,1,8,3:0:0:0:
113,47,38898,1,8,3:0:0:0:
20,49,38973,1,8,3:0:0:0:
42,105,39048,1,8,3:0:0:0:
84,143,39123,1,8,3:0:0:0:
147,155,39198,1,8,3:0:0:0:
327,220,39273,6,0,L|508:217,1,180,4|0,3:0|0:0,3:3:0:0:
432,166,39573,2,0,L|362:161,1,60,2|8,3:0|3:0,0:0:0:0:
447,113,39723,2,0,L|509:112,1,60,2|8,3:0|3:0,0:0:0:0:
323,52,39873,5,2,3:0:0:0:
262,52,39948,1,8,3:0:0:0:
220,66,40023,1,2,3:0:0:0:
194,123,40098,1,8,3:0:0:0:
255,135,40173,1,2,3:0:0:0:
265,194,40248,1,8,3:0:0:0:
204,209,40323,1,2,3:0:0:0:
193,268,40398,1,8,3:0:0:0:
374,251,40473,5,2,3:0:0:0:
438,222,40548,1,8,3:0:0:0:
477,170,40623,1,2,3:0:0:0:
496,106,40698,1,8,3:0:0:0:
477,170,40773,1,2,3:0:0:0:
438,222,40848,1,8,3:0:0:0:
374,251,40923,1,2,3:0:0:0:
297,256,40998,1,8,3:0:0:0:
116,254,41073,5,2,3:0:0:0:
147,194,41148,1,8,3:0:0:0:
209,163,41223,1,2,3:0:0:0:
284,158,41298,1,8,3:0:0:0:
359,154,41373,1,2,3:0:0:0:
435,149,41448,1,8,3:0:0:0:
359,154,41523,1,2,3:0:0:0:
284,158,41598,1,8,3:0:0:0:
104,155,41673,5,2,3:0:0:0:
87,95,41748,1,8,3:0:0:0:
104,155,41823,1,2,3:0:0:0:
146,156,41898,1,8,3:0:0:0:
202,156,41973,1,2,3:0:0:0:
270,155,42048,1,8,3:0:0:0:
188,100,42123,1,2,3:0:0:0:
256,99,42198,1,8,3:0:0:0:
437,85,42273,5,2,3:0:0:0:
374,78,42348,1,8,3:0:0:0:
313,68,42423,1,2,3:0:0:0:
253,59,42498,1,8,3:0:0:0:
313,68,42573,1,2,3:0:0:0:
336,129,42648,1,8,3:0:0:0:
313,68,42723,1,2,3:0:0:0:
253,59,42798,1,8,3:0:0:0:
73,218,42873,5,2,3:0:0:0:
49,162,42948,1,8,3:0:0:0:
73,218,43023,1,2,3:0:0:0:
133,219,43098,1,8,3:0:0:0:
313,176,43173,1,2,3:0:0:0:
337,232,43248,1,8,3:0:0:0:
313,176,43323,1,2,3:0:0:0:
253,175,43398,1,8,3:0:0:0:
73,94,43473,5,2,3:0:0:0:
150,89,43548,1,8,3:0:0:0:
228,82,43623,1,2,3:0:0:0:
306,77,43698,1,8,3:0:0:0:
336,31,43773,1,2,3:0:0:0:
306,77,43848,1,8,3:0:0:0:
228,82,43923,1,2,3:0:0:0:
150,89,43998,1,8,3:0:0:0:
330,235,44073,5,4,3:0:0:0:
389,215,44148,1,8,3:0:0:0:
413,159,44223,1,2,3:0:0:0:
420,97,44298,1,8,3:0:0:0:
413,159,44373,1,2,3:0:0:0:
363,191,44448,1,8,3:0:0:0:
291,192,44523,1,2,3:0:0:0:
209,191,44598,1,8,3:0:0:0:
29,186,44673,5,2,3:0:0:0:
42,122,44748,1,8,3:0:0:0:
72,80,44823,1,2,3:0:0:0:
115,57,44898,1,8,3:0:0:0:
176,49,44973,1,2,3:0:0:0:
255,46,45048,1,8,3:0:0:0:
176,49,45123,1,2,3:0:0:0:
97,49,45198,1,8,3:0:0:0:
277,124,45273,5,2,3:0:0:0:
341,119,45348,1,8,3:0:0:0:
383,95,45423,1,2,3:0:0:0:
406,56,45498,1,8,3:0:0:0:
383,95,45573,1,2,3:0:0:0:
341,119,45648,1,8,3:0:0:0:
277,124,45723,1,2,3:0:0:0:
204,123,45798,1,8,3:0:0:0:
384,230,45873,5,2,3:0:0:0:
409,184,45948,1,8,3:0:0:0:
384,230,46023,1,2,3:0:0:0:
324,229,46098,1,8,3:0:0:0:
244,222,46173,1,2,3:0:0:0:
184,212,46248,1,8,3:0:0:0:
214,157,46323,1,2,3:0:0:0:
276,147,46398,1,8,3:0:0:0:
456,82,46473,5,4,3:0:0:0:
480,26,46548,1,8,3:0:0:0:
456,82,46623,1,0,3:0:0:0:
396,83,46698,1,8,3:0:0:0:
323,80,46773,1,4,3:0:0:0:
240,78,46848,1,8,3:0:0:0:
61,150,46923,5,0,3:0:0:0:
37,94,46998,1,8,3:0:0:0:
61,150,47073,1,4,3:0:0:0:
121,151,47148,1,8,3:0:0:0:
194,148,47223,1,0,3:0:0:0:
277,146,47298,1,8,3:0:0:0:
97,240,47373,5,4,3:0:0:0:
37,213,47448,1,8,3:0:0:0:
14,153,47523,1,0,3:0:0:0:
37,213,47598,1,8,3:0:0:0:
217,61,47673,5,4,3:0:0:0:
299,60,47748,1,8,3:0:0:0:
381,57,47823,1,0,3:0:0:0:
299,60,47898,1,8,3:0:0:0:
217,61,47973,1,4,3:0:0:0:
299,60,48048,1,8,3:0:0:0:
381,57,48123,1,0,3:0:0:0:
299,60,48198,1,8,3:0:0:0:
118,232,48273,6,0,L|190:230,1,60,8|8,3:0|3:0,0:0:0:0:
358,179,48423,2,0,L|430:177,1,60,8|8,3:0|3:0,0:0:0:0:
238,135,48573,1,8,3:0:0:0:
214,85,48648,1,8,3:0:0:0:
238,135,48723,1,8,3:0:0:0:
298,135,48798,1,8,3:0:0:0:
478,216,48873,6,0,P|465:139|367:89,1,180,4|0,3:0|0:0,3:3:0:0:
307,86,49173,2,0,L|287:21,1,60,2|8,3:0|3:0,0:0:0:0:
382,88,49323,2,0,L|402:23,1,60,2|8,3:0|3:0,0:0:0:0:
217,31,49473,5,2,3:0:0:0:
157,36,49548,1,8,3:0:0:0:
116,68,49623,1,2,3:0:0:0:
96,119,49698,1,8,3:0:0:0:
116,68,49773,1,2,3:0:0:0:
157,36,49848,1,8,3:0:0:0:
217,31,49923,1,2,3:0:0:0:
287,29,49998,1,8,3:0:0:0:
467,187,50073,5,2,3:0:0:0:
390,191,50148,1,8,3:0:0:0:
313,191,50223,1,2,3:0:0:0:
236,192,50298,1,8,3:0:0:0:
159,193,50373,1,2,3:0:0:0:
83,195,50448,1,8,3:0:0:0:
159,193,50523,1,2,3:0:0:0:
236,192,50598,1,8,3:0:0:0:
313,191,50673,5,2,3:0:0:0:
373,174,50748,1,8,3:0:0:0:
397,112,50823,1,2,3:0:0:0:
373,174,50898,1,8,3:0:0:0:
271,128,50973,2,0,L|265:58,1,60,2|8,3:0|3:0,0:0:0:0:
345,71,51123,2,0,L|351:1,1,60,2|8,3:0|3:0,0:0:0:0:
252,65,51273,5,2,3:0:0:0:
192,82,51348,1,8,3:0:0:0:
168,144,51423,1,2,3:0:0:0:
192,82,51498,1,8,3:0:0:0:
294,128,51573,2,0,L|300:198,1,60,2|8,3:0|3:0,3:3:0:0:
219,185,51723,2,0,L|213:255,1,60,2|8,3:0|3:0,0:0:0:0:
395,262,51873,5,2,3:0:0:0:
455,230,51948,1,8,3:0:0:0:
480,175,52023,1,2,3:0:0:0:
455,230,52098,1,8,3:0:0:0:
395,262,52173,1,2,3:0:0:0:
323,265,52248,1,8,3:0:0:0:
410,193,52323,1,2,3:0:0:0:
338,196,52398,1,8,3:0:0:0:
158,194,52473,5,2,3:0:0:0:
80,183,52548,1,8,3:0:0:0:
158,194,52623,1,2,3:0:0:0:
236,202,52698,1,8,3:0:0:0:
296,174,52773,1,2,3:0:0:0:
319,112,52848,1,8,3:0:0:0:
296,174,52923,1,2,3:0:0:0:
236,202,52998,1,8,3:0:0:0:
56,259,53073,5,2,3:0:0:0:
76,195,53148,1,8,3:0:0:0:
129,158,53223,1,2,3:0:0:0:
199,147,53298,1,8,3:0:0:0:
295,332,53373,1,2,3:0:0:0:
225,321,53448,1,8,3:0:0:0:
172,284,53523,1,2,3:0:0:0:
152,220,53598,1,8,3:0:0:0:
332,125,53673,6,0,P|406:116|419:23,1,180,4|0,3:0|0:0,3:3:0:0:
338,19,53973,2,0,L|262:22,1,60,2|8,3:0|3:0,0:0:0:0:
360,79,54123,2,0,L|430:75,1,60,2|8,3:0|3:0,0:0:0:0:
240,157,54273,5,2,3:0:0:0:
166,152,54348,1,8,3:0:0:0:
106,145,54423,1,2,3:0:0:0:
67,102,54498,1,8,3:0:0:0:
53,51,54573,1,2,3:0:0:0:
67,102,54648,1,8,3:0:0:0:
106,145,54723,1,2,3:0:0:0:
166,152,54798,1,8,3:0:0:0:
346,206,54873,5,2,3:0:0:0:
406,187,54948,1,8,3:0:0:0:
429,130,55023,1,2,3:0:0:0:
406,187,55098,1,8,3:0:0:0:
346,206,55173,1,2,3:0:0:0:
250,123,55248,5,8,3:0:0:0:
190,142,55323,1,2,3:0:0:0:
167,199,55398,1,8,3:0:0:0:
190,142,55473,1,2,3:0:0:0:
250,123,55548,1,8,3:0:0:0:
346,121,55623,5,2,3:0:0:0:
331,65,55698,1,8,3:0:0:0:
283,46,55773,1,2,3:0:0:0:
214,41,55848,1,8,3:0:0:0:
136,39,55923,1,2,3:0:0:0:
214,41,55998,1,8,3:0:0:0:
394,206,56073,5,4,3:0:0:0:
319,210,56148,1,8,3:0:0:0:
244,212,56223,1,0,3:0:0:0:
169,213,56298,1,8,3:0:0:0:
244,212,56373,1,4,3:0:0:0:
319,210,56448,1,8,3:0:0:0:
394,206,56523,1,0,3:0:0:0:
469,203,56598,1,8,3:0:0:0:
394,130,56673,5,4,3:0:0:0:
319,134,56748,1,8,3:0:0:0:
244,136,56823,1,0,3:0:0:0:
169,137,56898,1,8,3:0:0:0:
244,136,56973,1,4,3:0:0:0:
319,134,57048,1,8,3:0:0:0:
394,130,57123,1,0,3:0:0:0:
469,127,57198,1,8,3:0:0:0:
394,51,57273,5,4,3:0:0:0:
319,55,57348,1,8,3:0:0:0:
244,57,57423,1,0,3:0:0:0:
169,58,57498,1,8,3:0:0:0:
94,60,57573,1,4,3:0:0:0:
169,58,57648,1,8,3:0:0:0:
244,54,57723,1,0,3:0:0:0:
319,51,57798,1,8,3:0:0:0:
244,57,57873,5,8,3:0:0:0:
220,110,57948,1,8,3:0:0:0:
244,57,58023,1,8,3:0:0:0:
304,55,58098,1,8,3:0:0:0:
400,121,58173,1,8,3:0:0:0:
424,174,58248,1,8,3:0:0:0:
400,121,58323,1,8,3:0:0:0:
340,119,58398,1,8,3:0:0:0:
160,200,58473,5,4,3:0:0:0:
100,184,58548,1,0,3:0:0:0:
56,142,58623,1,0,3:0:0:0:
37,81,58698,1,0,3:0:0:0:
56,142,58773,1,0,3:0:0:0:
100,184,58848,1,0,3:0:0:0:
160,200,58923,1,0,3:0:0:0:
232,202,58998,1,0,3:0:0:0:
322,201,59073,5,4,3:0:0:0:
340,179,59148,1,0,3:0:0:0:
358,160,59223,1,0,3:0:0:0:
376,143,59298,1,0,3:0:0:0:
394,121,59373,1,0,3:0:0:0:
412,102,59448,1,0,3:0:0:0:
430,82,59523,1,0,3:0:0:0:
448,63,59598,1,0,3:0:0:0:
268,287,59673,5,12,3:0:0:0:
250,265,59748,1,0,3:0:0:0:
232,246,59823,1,0,3:0:0:0:
214,229,59898,1,0,3:0:0:0:
196,207,59973,1,0,3:0:0:0:
178,188,60048,1,0,3:0:0:0:
160,168,60123,1,0,3:0:0:0:
142,149,60198,1,0,3:0:0:0:
232,132,60273,5,4,3:0:0:0:
294,135,60348,1,0,3:0:0:0:
340,101,60423,1,0,3:0:0:0:
371,56,60498,1,0,3:0:0:0:
383,11,60573,1,0,3:0:0:0:
371,56,60648,1,0,3:0:0:0:
340,101,60723,1,0,3:0:0:0:
294,135,60798,1,0,3:0:0:0:
114,234,60873,5,4,3:0:0:0:
132,212,60948,1,0,3:0:0:0:
150,193,61023,1,0,3:0:0:0:
168,176,61098,1,0,3:0:0:0:
186,154,61173,1,0,3:0:0:0:
204,135,61248,1,0,3:0:0:0:
222,115,61323,1,0,3:0:0:0:
240,96,61398,1,0,3:0:0:0:
342,88,61473,5,4,3:0:0:0:
402,89,61548,1,0,3:0:0:0:
432,139,61623,1,0,3:0:0:0:
402,89,61698,1,0,3:0:0:0:
342,88,61773,1,0,3:0:0:0:
402,89,61848,1,0,3:0:0:0:
432,139,61923,1,0,3:0:0:0:
402,89,61998,1,0,3:0:0:0:
222,299,62073,5,12,3:0:0:0:
204,277,62148,1,0,3:0:0:0:
186,258,62223,1,0,3:0:0:0:
168,241,62298,1,0,3:0:0:0:
150,219,62373,1,0,3:0:0:0:
132,200,62448,1,0,3:0:0:0:
114,180,62523,1,0,3:0:0:0:
96,161,62598,1,0,3:0:0:0:
188,112,62673,5,4,3:0:0:0:
249,100,62748,1,0,3:0:0:0:
280,49,62823,1,0,3:0:0:0:
219,39,62898,1,0,3:0:0:0:
158,51,62973,1,0,3:0:0:0:
139,109,63048,1,0,3:0:0:0:
158,51,63123,1,0,3:0:0:0:
219,39,63198,1,0,3:0:0:0:
400,49,63273,5,4,3:0:0:0:
431,104,63348,1,0,3:0:0:0:
371,112,63423,1,0,3:0:0:0:
298,117,63498,1,0,3:0:0:0:
238,123,63573,1,0,3:0:0:0:
208,174,63648,1,0,3:0:0:0:
238,123,63723,1,0,3:0:0:0:
298,117,63798,1,0,3:0:0:0:
478,302,63873,5,4,3:0:0:0:
460,280,63948,1,0,3:0:0:0:
442,261,64023,1,0,3:0:0:0:
424,244,64098,1,0,3:0:0:0:
406,222,64173,1,0,3:0:0:0:
388,203,64248,1,0,3:0:0:0:
370,183,64323,1,0,3:0:0:0:
352,164,64398,1,0,3:0:0:0:
172,251,64473,5,12,3:0:0:0:
154,229,64548,1,0,3:0:0:0:
136,210,64623,1,0,3:0:0:0:
118,193,64698,1,0,3:0:0:0:
100,171,64773,1,0,3:0:0:0:
82,152,64848,1,0,3:0:0:0:
64,132,64923,1,0,3:0:0:0:
46,113,64998,1,0,3:0:0:0:
136,81,65073,5,4,3:0:0:0:
194,77,65148,1,0,3:0:0:0:
218,27,65223,1,0,3:0:0:0:
194,77,65298,1,0,3:0:0:0:
102,26,65373,1,0,3:0:0:0:
85,75,65448,1,0,3:0:0:0:
102,26,65523,1,0,3:0:0:0:
160,22,65598,1,0,3:0:0:0:
341,273,65673,5,4,3:0:0:0:
355,215,65748,1,0,3:0:0:0:
339,164,65823,1,0,3:0:0:0:
301,131,65898,1,0,3:0:0:0:
251,115,65973,1,0,3:0:0:0:
192,109,66048,1,0,3:0:0:0:
120,106,66123,1,0,3:0:0:0:
192,109,66198,1,0,3:0:0:0:
264,107,66273,5,4,3:0:0:0:
294,49,66348,1,0,3:0:0:0:
267,107,66423,1,0,3:0:0:0:
207,104,66498,1,0,3:0:0:0:
133,99,66573,1,0,3:0:0:0:
109,53,66648,1,0,3:0:0:0:
134,98,66723,1,0,3:0:0:0:
193,101,66798,1,0,3:0:0:0:
373,229,66873,6,0,P|433:175|374:41,1,240,12|8,3:0|3:0,0:0:0:0:
260,36,67323,1,8,3:0:0:0:
188,38,67398,1,8,3:0:0:0:
116,36,67473,2,0,L|104:173,1,120,8|8,3:0|3:0,0:0:0:0:
220,150,67723,1,8,3:0:0:0:
250,152,67773,2,0,L|382:159,1,120,8|8,3:0|3:0,0:0:0:0:
101,347,68073,6,0,B|37:306|19:236|14:190|18:132|43:89|99:50|168:32|212:30|212:30|212:50|174:60|102:96|97:166|97:166,1,630.000024032594,4|0,3:0|3:0,3:3:0:0:
367,56,69273,2,0,B|413:58|434:65|455:80|482:104|502:161|502:161|478:124|452:109|416:103|381:98|348:104|348:104|477:105|483:310|349:313|349:313|313:312,1,675.000025749207,12|0,3:0|0:0,3:3:0:0:
149,310,70473,6,0,P|147:244|487:322,1,630.000024032594,4|0,3:0|3:0,3:3:0:0:
217,251,71673,2,0,B|157:221|157:221|143:225|143:225|90:198|90:198|75:162|75:162|115:157|151:142|165:120|172:81|160:31|160:31|123:27|123:27|115:40|115:40|77:36|77:36|25:61|27:101|27:101|32:188|32:188|66:185|95:201,1,675.000025749207,12|0,3:0|0:0,3:3:0:0:
282,227,72873,6,0,B|473:196|473:196|263:177|263:177|411:178|414:39,1,630.000024032594,4|0,3:0|3:0,3:3:0:0:
141,281,74073,2,0,P|110:210|492:122,1,675.000025749207,12|0,3:0|0:0,3:3:0:0:
285,258,75273,6,0,B|104:234|104:234|19:167|48:93|48:93|157:122|199:59|199:59|135:71|69:41,1,630.000024032594,4|0,3:0|3:0,3:3:0:0:
131,60,76398,1,0,0:0:0:0:
356,193,76473,2,0,P|395:161|335:89,1,135.000005149841,12|0,3:0|0:0,0:0:0:0:
186,123,76773,2,0,L|108:120,1,60,8|8,3:0|3:0,0:0:0:0:
307,33,76923,2,0,L|385:30,1,60,8|8,3:0|3:0,0:0:0:0:
187,35,77073,2,0,B|67:41|67:41|23:163,1,240,8|8,3:0|3:0,0:0:0:0:
60,160,77448,1,0,0:0:0:0:
126,164,77523,1,8,3:0:0:0:
221,163,77598,1,0,0:0:0:0:
423,133,77673,6,0,L|238:126,1,180,4|0,3:0|0:0,3:3:0:0:
319,71,77973,2,0,L|379:63,1,60,2|8,3:0|3:0,0:0:0:0:
457,5,78123,2,0,L|397:13,1,60,2|8,3:0|3:0,0:0:0:0:
217,200,78273,1,2,3:0:0:0:
156,193,78348,1,8,3:0:0:0:
114,156,78423,1,2,3:0:0:0:
92,108,78498,1,8,3:0:0:0:
114,156,78573,1,2,3:0:0:0:
156,193,78648,1,8,3:0:0:0:
217,200,78723,1,2,3:0:0:0:
288,200,78798,1,8,3:0:0:0:
468,221,78873,5,2,3:0:0:0:
482,163,78948,1,8,3:0:0:0:
466,112,79023,1,2,3:0:0:0:
428,79,79098,1,8,3:0:0:0:
378,63,79173,1,2,3:0:0:0:
319,57,79248,1,8,3:0:0:0:
248,55,79323,1,2,3:0:0:0:
319,57,79398,1,8,3:0:0:0:
500,160,79473,5,2,3:0:0:0:
417,156,79548,1,8,3:0:0:0:
345,155,79623,1,2,3:0:0:0:
285,150,79698,1,8,3:0:0:0:
237,116,79773,1,2,3:0:0:0:
213,65,79848,1,8,3:0:0:0:
237,116,79923,1,2,3:0:0:0:
285,150,79998,1,8,3:0:0:0:
105,241,80073,5,2,3:0:0:0:
51,206,80148,1,8,3:0:0:0:
32,147,80223,1,2,3:0:0:0:
51,206,80298,1,8,3:0:0:0:
105,241,80373,1,2,3:0:0:0:
172,244,80448,1,8,3:0:0:0:
94,188,80523,1,2,3:0:0:0:
68,122,80598,1,8,3:0:0:0:
248,171,80673,5,2,3:0:0:0:
309,157,80748,1,8,3:0:0:0:
329,101,80823,1,2,3:0:0:0:
309,157,80898,1,8,3:0:0:0:
248,171,80973,1,2,3:0:0:0:
176,169,81048,1,8,3:0:0:0:
207,109,81123,1,2,3:0:0:0:
270,87,81198,1,8,3:0:0:0:
450,95,81273,5,2,3:0:0:0:
450,132,81348,1,8,3:0:0:0:
451,163,81423,1,2,3:0:0:0:
451,200,81498,1,8,3:0:0:0:
359,225,81573,1,2,3:0:0:0:
290,219,81648,1,8,3:0:0:0:
263,159,81723,1,2,3:0:0:0:
290,219,81798,1,8,3:0:0:0:
385,141,81873,5,4,3:0:0:0:
365,84,81948,1,8,3:0:0:0:
276,95,82023,1,0,3:0:0:0:
256,38,82098,1,8,3:0:0:0:
345,272,82173,1,4,3:0:0:0:
317,217,82248,1,8,3:0:0:0:
264,189,82323,1,0,3:0:0:0:
199,185,82398,1,8,3:0:0:0:
21,302,82473,6,0,P|13:244|115:158,1,180,4|0,3:0|0:0,3:3:0:0:
151,151,82773,2,0,L|221:149,1,60,2|8,3:0|3:0,0:0:0:0:
136,88,82923,2,0,L|60:84,1,60,2|8,3:0|3:0,0:0:0:0:
259,63,83073,5,2,3:0:0:0:
319,69,83148,1,8,3:0:0:0:
348,119,83223,1,2,3:0:0:0:
319,69,83298,1,8,3:0:0:0:
259,63,83373,1,2,3:0:0:0:
183,61,83448,1,8,3:0:0:0:
225,118,83523,1,2,3:0:0:0:
297,145,83598,1,8,3:0:0:0:
476,184,83673,5,2,3:0:0:0:
446,121,83748,1,8,3:0:0:0:
384,106,83823,1,2,3:0:0:0:
308,98,83898,1,8,3:0:0:0:
246,95,83973,1,2,3:0:0:0:
202,87,84048,1,8,3:0:0:0:
173,34,84123,1,2,3:0:0:0:
202,87,84198,1,8,3:0:0:0:
382,228,84273,5,2,3:0:0:0:
442,204,84348,1,8,3:0:0:0:
472,151,84423,1,2,3:0:0:0:
442,204,84498,1,8,3:0:0:0:
382,228,84573,1,2,3:0:0:0:
309,225,84648,1,8,3:0:0:0:
382,228,84723,1,2,3:0:0:0:
455,232,84798,1,8,3:0:0:0:
266,158,84873,5,4,3:0:0:0:
188,148,84944,1,8,3:0:0:0:
266,158,85015,1,8,3:0:0:0:
344,168,85087,1,8,3:0:0:0:
266,158,85158,1,8,3:0:0:0:
248,112,85230,1,8,3:0:0:0:
230,75,85301,1,8,3:0:0:0:
210,33,85373,1,8,3:0:0:0:
461,134,85473,5,4,3:0:0:0:
492,79,85542,1,8,3:0:0:0:
415,71,85612,1,8,3:0:0:0:
339,65,85682,1,8,3:0:0:0:
309,114,85752,1,8,3:0:0:0:
369,126,85821,1,8,3:0:0:0:
399,180,85891,1,8,3:0:0:0:
369,126,85961,1,8,3:0:0:0:
123,190,86073,5,4,3:0:0:0:
63,152,86144,1,8,3:0:0:0:
42,93,86215,1,8,3:0:0:0:
63,152,86287,1,8,3:0:0:0:
123,190,86358,1,8,3:0:0:0:
196,190,86430,1,8,3:0:0:0:
281,186,86501,1,8,3:0:0:0:
314,145,86573,1,8,3:0:0:0:
97,196,86673,5,8,3:0:0:0:
80,151,86748,1,8,3:0:0:0:
100,118,86823,1,8,3:0:0:0:
161,108,86898,1,8,3:0:0:0:
253,110,86973,1,8,3:0:0:0:
314,104,87048,1,8,3:0:0:0:
344,64,87123,1,8,3:0:0:0:
319,37,87198,1,8,3:0:0:0:
139,260,87273,6,0,P|70:248|84:116,1,180,4|0,3:0|0:0,3:3:0:0:
107,127,87573,2,0,L|171:122,1,60,2|8,3:0|3:0,0:0:0:0:
90,64,87723,2,0,L|18:72,1,60,2|8,3:0|3:0,0:0:0:0:
210,173,87873,1,2,3:0:0:0:
283,172,87948,1,8,3:0:0:0:
342,172,88023,1,2,3:0:0:0:
394,166,88098,1,8,3:0:0:0:
429,123,88173,1,2,3:0:0:0:
440,67,88248,1,8,3:0:0:0:
429,123,88323,1,2,3:0:0:0:
394,166,88398,1,8,3:0:0:0:
214,263,88473,5,2,3:0:0:0:
195,217,88548,1,8,3:0:0:0:
214,164,88623,1,2,3:0:0:0:
258,144,88698,1,8,3:0:0:0:
318,137,88773,1,2,3:0:0:0:
391,134,88848,1,8,3:0:0:0:
467,134,88923,1,2,3:0:0:0:
391,134,88998,1,8,3:0:0:0:
210,37,89073,5,2,3:0:0:0:
293,41,89148,1,8,3:0:0:0:
365,42,89223,1,2,3:0:0:0:
425,47,89298,1,8,3:0:0:0:
473,81,89373,1,2,3:0:0:0:
497,132,89448,1,8,3:0:0:0:
473,81,89523,1,2,3:0:0:0:
425,47,89598,1,8,3:0:0:0:
245,236,89673,5,2,3:0:0:0:
275,170,89748,1,8,3:0:0:0:
335,158,89823,1,2,3:0:0:0:
408,151,89898,1,8,3:0:0:0:
335,158,89973,1,2,3:0:0:0:
275,170,90048,1,8,3:0:0:0:
244,119,90123,1,2,3:0:0:0:
275,170,90198,1,8,3:0:0:0:
455,232,90273,5,2,3:0:0:0:
475,185,90348,1,8,3:0:0:0:
456,143,90423,1,2,3:0:0:0:
415,129,90498,1,8,3:0:0:0:
352,118,90573,1,2,3:0:0:0:
277,109,90648,1,8,3:0:0:0:
371,72,90723,1,2,3:0:0:0:
296,63,90798,1,8,3:0:0:0:
116,114,90873,5,2,3:0:0:0:
116,151,90948,1,8,3:0:0:0:
115,182,91023,1,2,3:0:0:0:
115,219,91098,1,8,3:0:0:0:
207,244,91173,1,2,3:0:0:0:
276,238,91248,1,8,3:0:0:0:
303,178,91323,1,2,3:0:0:0:
276,238,91398,1,8,3:0:0:0:
181,160,91473,5,4,3:0:0:0:
201,103,91548,1,8,3:0:0:0:
290,114,91623,1,0,3:0:0:0:
310,57,91698,1,8,3:0:0:0:
221,291,91773,1,4,3:0:0:0:
196,244,91848,1,8,3:0:0:0:
221,291,91923,1,0,3:0:0:0:
285,291,91998,1,8,3:0:0:0:
465,279,92073,6,0,P|465:212|365:149,1,180,4|0,3:0|0:0,3:3:0:0:
306,142,92373,2,0,L|298:79,1,60,2|8,3:0|3:0,0:0:0:0:
377,93,92523,2,0,L|385:30,1,60,2|8,3:0|3:0,0:0:0:0:
204,33,92673,5,2,3:0:0:0:
136,46,92748,1,8,3:0:0:0:
77,71,92823,1,2,3:0:0:0:
39,118,92898,1,8,3:0:0:0:
27,179,92973,1,2,3:0:0:0:
39,118,93048,1,8,3:0:0:0:
77,71,93123,1,2,3:0:0:0:
136,46,93198,1,8,3:0:0:0:
316,225,93273,5,2,3:0:0:0:
286,162,93348,1,8,3:0:0:0:
224,153,93423,1,2,3:0:0:0:
151,148,93498,1,8,3:0:0:0:
88,143,93573,1,2,3:0:0:0:
64,95,93648,1,8,3:0:0:0:
88,143,93723,1,2,3:0:0:0:
151,148,93798,1,8,3:0:0:0:
331,78,93873,5,2,3:0:0:0:
391,85,93948,1,8,3:0:0:0:
415,135,94023,1,2,3:0:0:0:
391,85,94098,1,8,3:0:0:0:
331,78,94173,1,2,3:0:0:0:
259,77,94248,1,8,3:0:0:0:
199,78,94323,1,2,3:0:0:0:
169,131,94398,1,8,3:0:0:0:
359,220,94473,5,4,3:0:0:0:
283,215,94544,1,8,3:0:0:0:
209,208,94615,1,8,3:0:0:0:
132,200,94687,1,8,3:0:0:0:
102,154,94758,1,8,3:0:0:0:
178,141,94830,1,8,3:0:0:0:
253,131,94901,1,8,3:0:0:0:
328,119,94973,1,8,3:0:0:0:
99,285,95073,5,4,3:0:0:0:
129,234,95142,1,8,3:0:0:0:
205,233,95212,1,8,3:0:0:0:
283,228,95282,1,8,3:0:0:0:
205,233,95352,1,8,3:0:0:0:
129,234,95421,1,8,3:0:0:0:
99,285,95491,1,8,3:0:0:0:
129,234,95561,1,8,3:0:0:0:
378,175,95673,5,4,3:0:0:0:
304,161,95744,1,8,3:0:0:0:
228,148,95815,1,8,3:0:0:0:
204,89,95887,1,8,3:0:0:0:
228,148,95958,1,8,3:0:0:0:
289,128,96030,1,8,3:0:0:0:
312,73,96101,1,8,3:0:0:0:
289,128,96173,1,8,3:0:0:0:
79,225,96273,5,8,3:0:0:0:
58,167,96348,1,8,3:0:0:0:
81,120,96423,1,8,3:0:0:0:
140,104,96498,1,8,3:0:0:0:
320,93,96573,2,0,L|387:91,1,60,8|8,3:0|3:0,0:0:0:0:
200,179,96723,2,0,L|133:177,1,60,8|8,3:0|3:0,0:0:0:0:
323,246,96873,6,0,P|343:187|242:105,1,180,4|0,3:0|0:0,3:3:0:0:
190,99,97173,2,0,L|184:31,1,60,2|8,3:0|3:0,0:0:0:0:
266,63,97323,2,0,L|272:-5,1,60,2|8,3:0|3:0,0:0:0:0:
91,232,97473,5,2,3:0:0:0:
71,177,97548,1,8,3:0:0:0:
89,126,97623,1,2,3:0:0:0:
148,105,97698,1,8,3:0:0:0:
329,232,97773,1,2,3:0:0:0:
349,177,97848,1,8,3:0:0:0:
331,126,97923,1,2,3:0:0:0:
272,105,97998,1,8,3:0:0:0:
91,232,98073,5,2,3:0:0:0:
122,177,98148,1,8,3:0:0:0:
183,171,98223,1,2,3:0:0:0:
256,166,98298,1,8,3:0:0:0:
286,116,98373,1,2,3:0:0:0:
256,166,98448,1,8,3:0:0:0:
76,263,98523,5,2,3:0:0:0:
62,205,98598,1,8,3:0:0:0:
78,154,98673,1,2,3:0:0:0:
116,121,98748,1,8,3:0:0:0:
166,105,98823,1,2,3:0:0:0:
225,99,98898,1,8,3:0:0:0:
296,97,98973,1,2,3:0:0:0:
356,95,99048,1,8,3:0:0:0:
380,46,99123,1,2,3:0:0:0:
356,95,99198,1,8,3:0:0:0:
176,42,99273,5,2,3:0:0:0:
116,56,99348,1,8,3:0:0:0:
92,111,99423,1,2,3:0:0:0:
116,168,99498,1,8,3:0:0:0:
164,178,99573,1,2,3:0:0:0:
236,185,99648,1,8,3:0:0:0:
164,178,99723,1,2,3:0:0:0:
135,129,99798,1,8,3:0:0:0:
314,234,99873,5,2,3:0:0:0:
334,179,99948,1,8,3:0:0:0:
316,128,100023,1,2,3:0:0:0:
257,107,100098,1,8,3:0:0:0:
76,234,100173,1,2,3:0:0:0:
56,179,100248,1,8,3:0:0:0:
74,128,100323,1,2,3:0:0:0:
133,107,100398,1,8,3:0:0:0:
314,234,100473,5,2,3:0:0:0:
283,179,100548,1,8,3:0:0:0:
222,173,100623,1,2,3:0:0:0:
149,168,100698,1,8,3:0:0:0:
119,118,100773,1,2,3:0:0:0:
149,168,100848,1,8,3:0:0:0:
329,265,100923,5,2,3:0:0:0:
343,207,100998,1,8,3:0:0:0:
327,156,101073,1,2,3:0:0:0:
289,123,101148,1,8,3:0:0:0:
239,107,101223,1,2,3:0:0:0:
180,101,101298,1,8,3:0:0:0:
239,107,101373,1,2,3:0:0:0:
289,123,101448,1,8,3:0:0:0:
327,156,101523,1,2,3:0:0:0:
343,207,101598,1,8,3:0:0:0:
162,193,101673,6,0,P|79:188|116:90,1,180,4|0,3:0|0:0,0:0:0:0:
132,89,101973,1,2,3:0:0:0:
195,73,102048,1,8,3:0:0:0:
271,68,102123,1,2,3:0:0:0:
314,57,102198,1,8,3:0:0:0:
133,269,102273,5,2,3:0:0:0:
73,249,102348,1,8,3:0:0:0:
50,192,102423,1,2,3:0:0:0:
73,249,102498,1,8,3:0:0:0:
163,189,102573,2,0,L|186:123,1,60,2|8,3:0|3:0,0:0:0:0:
96,140,102723,2,0,L|73:74,1,60,2|8,3:0|3:0,0:0:0:0:
257,51,102873,5,2,3:0:0:0:
314,57,102948,1,8,3:0:0:0:
359,80,103023,1,2,3:0:0:0:
388,122,103098,1,8,3:0:0:0:
401,174,103173,1,2,3:0:0:0:
388,122,103248,1,8,3:0:0:0:
359,80,103323,1,2,3:0:0:0:
314,57,103398,1,8,3:0:0:0:
223,51,103473,5,2,3:0:0:0:
155,51,103548,1,8,3:0:0:0:
128,98,103623,1,2,3:0:0:0:
155,51,103698,1,8,3:0:0:0:
247,51,103773,1,2,3:0:0:0:
304,57,103848,1,8,3:0:0:0:
335,24,103923,1,2,3:0:0:0:
304,57,103998,1,8,3:0:0:0:
124,208,104073,5,4,3:0:0:0:
45,197,104148,1,8,3:0:0:0:
124,208,104223,1,0,3:0:0:0:
183,203,104298,1,8,3:0:0:0:
213,159,104373,1,4,3:0:0:0:
183,203,104448,1,8,3:0:0:0:
124,208,104523,1,0,3:0:0:0:
183,203,104598,1,8,3:0:0:0:
363,71,104673,5,4,3:0:0:0:
442,82,104748,1,8,3:0:0:0:
363,71,104823,1,0,3:0:0:0:
304,76,104898,1,8,3:0:0:0:
274,120,104973,1,4,3:0:0:0:
304,76,105048,1,8,3:0:0:0:
363,71,105123,1,0,3:0:0:0:
304,76,105198,1,8,3:0:0:0:
124,121,105273,5,4,3:0:0:0:
107,84,105348,1,8,3:0:0:0:
124,49,105423,1,0,3:0:0:0:
184,38,105498,1,8,3:0:0:0:
261,32,105573,1,4,3:0:0:0:
338,26,105648,1,8,3:0:0:0:
261,32,105723,1,0,3:0:0:0:
184,38,105798,1,8,3:0:0:0:
261,32,105873,5,8,3:0:0:0:
279,63,105948,1,8,3:0:0:0:
297,94,106023,1,8,3:0:0:0:
315,124,106098,1,8,3:0:0:0:
135,193,106173,2,0,L|68:180,1,60,8|8,3:0|3:0,0:0:0:0:
259,268,106323,2,0,L|326:281,1,60,8|8,3:0|3:0,0:0:0:0:
136,258,106473,6,0,P|80:223|127:125,1,180,4|0,3:0|0:0,3:3:0:0:
196,118,106773,2,0,L|265:115,1,60,2|8,3:0|3:0,0:0:0:0:
173,55,106923,2,0,L|104:52,1,60,2|8,3:0|3:0,0:0:0:0:
295,51,107073,5,2,3:0:0:0:
355,62,107148,1,8,3:0:0:0:
379,113,107223,1,2,3:0:0:0:
355,62,107298,1,8,3:0:0:0:
175,200,107373,1,2,3:0:0:0:
115,189,107448,1,8,3:0:0:0:
91,138,107523,1,2,3:0:0:0:
115,189,107598,1,8,3:0:0:0:
295,201,107673,5,2,3:0:0:0:
355,199,107748,1,8,3:0:0:0:
399,166,107823,1,2,3:0:0:0:
419,114,107898,1,8,3:0:0:0:
399,166,107973,1,2,3:0:0:0:
355,199,108048,1,8,3:0:0:0:
175,94,108123,5,2,3:0:0:0:
151,45,108198,1,8,3:0:0:0:
175,94,108273,1,2,3:0:0:0:
235,96,108348,1,8,3:0:0:0:
306,98,108423,1,2,3:0:0:0:
365,104,108498,1,8,3:0:0:0:
415,120,108573,1,2,3:0:0:0:
453,153,108648,1,8,3:0:0:0:
469,204,108723,1,2,3:0:0:0:
455,262,108798,1,8,3:0:0:0:
273,258,108873,5,2,3:0:0:0:
254,209,108948,1,8,3:0:0:0:
276,166,109023,1,2,3:0:0:0:
320,151,109098,1,8,3:0:0:0:
380,146,109173,1,2,3:0:0:0:
404,98,109248,1,8,3:0:0:0:
380,146,109323,1,2,3:0:0:0:
320,151,109398,1,8,3:0:0:0:
140,158,109473,5,2,3:0:0:0:
80,146,109548,1,8,3:0:0:0:
62,100,109623,1,2,3:0:0:0:
80,146,109698,1,8,3:0:0:0:
140,158,109773,1,2,3:0:0:0:
212,161,109848,1,8,3:0:0:0:
272,150,109923,1,2,3:0:0:0:
295,85,109998,1,8,3:0:0:0:
115,264,110073,5,2,3:0:0:0:
122,210,110148,1,8,3:0:0:0:
147,172,110223,1,2,3:0:0:0:
193,157,110298,1,8,3:0:0:0:
256,149,110373,1,2,3:0:0:0:
334,145,110448,1,8,3:0:0:0:
256,149,110523,1,2,3:0:0:0:
177,153,110598,1,8,3:0:0:0:
256,149,110673,5,2,3:0:0:0:
249,95,110748,1,8,3:0:0:0:
224,57,110823,1,2,3:0:0:0:
178,42,110898,1,8,3:0:0:0:
99,38,110973,1,2,3:0:0:0:
18,38,111048,1,8,3:0:0:0:
99,38,111123,1,2,3:0:0:0:
178,42,111198,1,8,3:0:0:0:
359,260,111273,5,2,3:0:0:0:
419,236,111348,1,8,3:0:0:0:
443,175,111423,1,2,3:0:0:0:
419,236,111498,1,8,3:0:0:0:
331,171,111573,2,0,L|320:107,1,60,2|8,3:0|3:0,0:0:0:0:
409,96,111723,2,0,L|420:32,1,60,2|8,3:0|3:0,0:0:0:0:
329,38,111873,5,2,3:0:0:0:
269,62,111948,1,8,3:0:0:0:
245,123,112023,1,2,3:0:0:0:
269,62,112098,1,8,3:0:0:0:
357,127,112173,2,0,L|368:191,1,60,2|8,3:0|3:0,3:3:0:0:
279,202,112323,2,0,L|268:266,1,60,2|8,3:0|3:0,0:0:0:0:
449,270,112473,5,2,3:0:0:0:
472,212,112548,1,8,3:0:0:0:
449,158,112623,1,2,3:0:0:0:
404,132,112698,1,8,3:0:0:0:
342,120,112773,1,2,3:0:0:0:
267,112,112848,1,8,3:0:0:0:
342,120,112923,1,2,3:0:0:0:
417,127,112998,1,8,3:0:0:0:
237,201,113073,5,2,3:0:0:0:
177,188,113148,1,8,3:0:0:0:
156,137,113223,1,2,3:0:0:0:
177,188,113298,1,8,3:0:0:0:
357,46,113373,1,2,3:0:0:0:
417,59,113448,1,8,3:0:0:0:
438,110,113523,1,2,3:0:0:0:
417,59,113598,1,8,3:0:0:0:
237,122,113673,5,4,3:0:0:0:
268,75,113748,1,8,3:0:0:0:
316,62,113823,1,0,3:0:0:0:
389,64,113898,1,8,3:0:0:0:
209,237,113973,2,0,L|237:174,1,60,4|8,3:0|3:0,0:0:0:0:
326,201,114123,2,0,L|354:138,1,60,0|8,3:0|3:0,0:0:0:0:
170,74,114273,5,4,3:0:0:0:
97,72,114348,1,8,3:0:0:0:
49,85,114423,1,0,3:0:0:0:
18,132,114498,1,8,3:0:0:0:
198,145,114573,2,0,L|170:208,1,60,4|8,3:0|3:0,0:0:0:0:
81,181,114723,2,0,L|53:244,1,60,0|8,3:0|3:0,0:0:0:0:
239,271,114873,6,0,L|267:208,1,60,4|8,3:0|3:0,0:0:0:0:
173,206,115023,2,0,L|145:143,1,60,0|8,3:0|3:0,0:0:0:0:
245,120,115173,1,8,3:0:0:0:
269,70,115248,1,8,3:0:0:0:
245,120,115323,1,8,3:0:0:0:
184,118,115398,1,8,3:0:0:0:
364,247,115473,5,8,3:0:0:0:
341,194,115548,1,8,3:0:0:0:
296,171,115623,1,8,3:0:0:0:
229,165,115698,1,8,3:0:0:0:
139,156,115773,1,8,3:0:0:0:
72,150,115848,1,8,3:0:0:0:
27,127,115923,1,8,3:0:0:0:
4,74,115998,1,8,3:0:0:0:
184,49,116073,5,4,3:0:0:0:
244,65,116148,1,0,3:0:0:0:
288,107,116223,1,0,3:0:0:0:
307,168,116298,1,0,3:0:0:0:
288,107,116373,1,0,3:0:0:0:
244,65,116448,1,0,3:0:0:0:
184,49,116523,1,0,3:0:0:0:
112,47,116598,1,0,3:0:0:0:
22,75,116673,5,4,3:0:0:0:
40,97,116748,1,0,3:0:0:0:
58,116,116823,1,0,3:0:0:0:
76,133,116898,1,0,3:0:0:0:
94,155,116973,1,0,3:0:0:0:
112,174,117048,1,0,3:0:0:0:
130,194,117123,1,0,3:0:0:0:
148,213,117198,1,0,3:0:0:0:
328,159,117273,5,12,3:0:0:0:
390,162,117348,1,0,3:0:0:0:
436,128,117423,1,0,3:0:0:0:
467,83,117498,1,0,3:0:0:0:
479,38,117573,1,0,3:0:0:0:
467,83,117648,1,0,3:0:0:0:
436,128,117723,1,0,3:0:0:0:
390,162,117798,1,0,3:0:0:0:
300,247,117873,5,4,3:0:0:0:
318,225,117948,1,0,3:0:0:0:
336,206,118023,1,0,3:0:0:0:
354,189,118098,1,0,3:0:0:0:
372,167,118173,1,0,3:0:0:0:
390,148,118248,1,0,3:0:0:0:
408,128,118323,1,0,3:0:0:0:
426,109,118398,1,0,3:0:0:0:
246,112,118473,5,4,3:0:0:0:
185,98,118548,1,0,3:0:0:0:
165,42,118623,1,0,3:0:0:0:
185,98,118698,1,0,3:0:0:0:
246,112,118773,1,0,3:0:0:0:
306,112,118848,1,0,3:0:0:0:
287,50,118923,1,0,3:0:0:0:
224,28,118998,1,0,3:0:0:0:
134,33,119073,5,4,3:0:0:0:
116,55,119148,1,0,3:0:0:0:
98,74,119223,1,0,3:0:0:0:
80,91,119298,1,0,3:0:0:0:
62,113,119373,1,0,3:0:0:0:
44,132,119448,1,0,3:0:0:0:
26,152,119523,1,0,3:0:0:0:
8,171,119598,1,0,3:0:0:0:
188,89,119673,5,12,3:0:0:0:
206,111,119748,1,0,3:0:0:0:
224,130,119823,1,0,3:0:0:0:
242,147,119898,1,0,3:0:0:0:
260,169,119973,1,0,3:0:0:0:
278,188,120048,1,0,3:0:0:0:
296,208,120123,1,0,3:0:0:0:
314,227,120198,1,0,3:0:0:0:
224,259,120273,5,4,3:0:0:0:
206,237,120348,1,0,3:0:0:0:
188,218,120423,1,0,3:0:0:0:
170,201,120498,1,0,3:0:0:0:
152,179,120573,1,0,3:0:0:0:
134,160,120648,1,0,3:0:0:0:
116,140,120723,1,0,3:0:0:0:
98,121,120798,1,0,3:0:0:0:
279,75,120873,5,4,3:0:0:0:
339,84,120948,1,0,3:0:0:0:
380,132,121023,1,0,3:0:0:0:
393,192,121098,1,0,3:0:0:0:
380,132,121173,1,0,3:0:0:0:
339,84,121248,1,0,3:0:0:0:
279,75,121323,1,0,3:0:0:0:
213,91,121398,1,0,3:0:0:0:
121,225,121473,5,4,3:0:0:0:
70,186,121548,1,0,3:0:0:0:
51,130,121623,1,0,3:0:0:0:
70,186,121698,1,0,3:0:0:0:
121,225,121773,1,0,3:0:0:0:
191,225,121848,1,0,3:0:0:0:
265,223,121923,1,0,3:0:0:0:
191,225,121998,1,0,3:0:0:0:
11,256,122073,5,12,3:0:0:0:
29,234,122148,1,0,3:0:0:0:
47,215,122223,1,0,3:0:0:0:
65,198,122298,1,0,3:0:0:0:
83,176,122373,1,0,3:0:0:0:
101,157,122448,1,0,3:0:0:0:
119,137,122523,1,0,3:0:0:0:
137,118,122598,1,0,3:0:0:0:
233,232,122673,5,4,3:0:0:0:
215,210,122748,1,0,3:0:0:0:
197,191,122823,1,0,3:0:0:0:
179,174,122898,1,0,3:0:0:0:
261,160,122973,1,0,3:0:0:0:
323,149,123048,1,0,3:0:0:0:
384,138,123123,1,0,3:0:0:0:
323,149,123198,1,0,3:0:0:0:
142,275,123273,5,4,3:0:0:0:
128,217,123348,1,0,3:0:0:0:
144,166,123423,1,0,3:0:0:0:
182,133,123498,1,0,3:0:0:0:
232,117,123573,1,0,3:0:0:0:
291,111,123648,1,0,3:0:0:0:
363,108,123723,1,0,3:0:0:0:
291,111,123798,1,0,3:0:0:0:
219,109,123873,5,4,3:0:0:0:
189,51,123948,1,0,3:0:0:0:
216,109,124023,1,0,3:0:0:0:
276,106,124098,1,0,3:0:0:0:
350,101,124173,1,0,3:0:0:0:
374,55,124248,1,0,3:0:0:0:
349,100,124323,1,0,3:0:0:0:
290,103,124398,1,0,3:0:0:0:
110,231,124473,6,0,P|30:181|109:43,1,240,12|8,3:0|3:0,0:0:0:0:
183,47,124923,1,8,3:0:0:0:
327,47,125073,1,8,3:0:0:0:
442,78,125223,1,8,3:0:0:0:
299,177,125373,2,0,L|172:211,1,120,8|8,3:0|3:0,0:0:0:0:
453,306,125673,6,0,P|462:208|85:226,1,630.000024032594,4|0,3:0|3:0,3:3:0:0:
359,293,126873,2,0,B|380:233|379:183|359:153|341:128|305:107|258:94|191:94|129:89|129:89|178:79|211:72|235:65|268:44|285:13|285:13|292:46|285:83|245:104|199:109,1,675.000025749207,12|0,3:0|0:0,3:3:0:0:
26,254,128073,6,0,B|63:169|63:169|141:129|141:129|224:101|284:101|370:111|423:134|453:174|467:234|467:234|451:202|415:183,1,630.000024032594,4|0,3:0|3:0,3:3:0:0:
152,303,129273,2,0,B|17:300|18:144|152:145|152:145|234:145|272:147|320:176|309:217|255:232|212:182|212:138|212:138|216:85|239:49|292:11,1,675.000025749207,12|0,3:0|0:0,3:3:0:0:
469,248,130473,6,0,P|473:187|36:114,1,630.000024032594,4|0,3:0|3:0,3:3:0:0:
324,259,131673,2,0,B|430:259|430:128|323:127|323:127|254:129|254:129|193:157|193:157|262:135|314:149|354:180|379:212|379:212|392:250|382:287|382:287|344:299,1,675.000025749207,12|0,3:0|0:0,3:3:0:0:
157,293,132873,6,0,P|83:261|243:26,1,495.000018882752,4|0,3:0|0:0,3:3:0:0:
298,43,133773,1,0,3:0:0:0:
276,98,133848,1,0,3:0:0:0:
232,120,133923,1,0,3:0:0:0:
172,129,133998,1,0,3:0:0:0:
374,298,134073,6,0,P|377:197|44:76,1,495.000018882752,12|0,3:0|3:0,0:0:0:0:
43,121,134973,2,0,L|202:133,1,135.000005149841
444,248,135273,6,0,P|339:-77|51:245,1,952.5,4|0,3:0|0:0,0:0:0:0:
64,211,140073,6,0,L|45:99,2,80
145,156,140698,2,0,L|126:44,2,80
249,201,141323,2,0,L|346:197,2,80,2|0|0,0:0|0:0|0:0,0:0:0:0:
341,274,141948,2,0,L|438:270,2,80,2|0|0,0:0|0:0|0:0,0:0:0:0:
430,198,142573,6,0,L|449:86,2,80
354,151,143139,2,0,L|372:43,2,80
250,187,143733,2,0,L|153:183,2,80,2|0|0,0:0|0:0|0:0,0:0:0:0:
158,263,144327,2,0,L|61:259,2,80,2|0|0,0:0|0:0|0:0,0:0:0:0:
79,154,144921,6,0,L|60:44,2,80
159,101,145509,2,0,L|142:4,2,80
264,144,146097,2,0,L|361:140,2,80,2|0|0,0:0|0:0|0:0,0:0:0:0:
356,217,146685,2,0,L|453:213,2,80,2|0|0,0:0|0:0|0:0,0:0:0:0:
256,225,147320,6,0,L|164:229,2,80,2|0|0,0:0|0:0|0:0,0:0:0:0:
336,226,147902,2,0,L|375:313,2,80
244,218,148485,2,0,L|138:223,2,80,2|0|0,0:0|0:0|0:0,0:0:0:0:
152,151,149067,2,0,L|46:156,2,80,2|0|0,0:0|0:0|0:0,0:0:0:0:
452,35,149673,6,0,B|415:38|394:38|376:45|358:53|334:74|334:74|325:71|325:71|310:86|302:101|294:116|290:130|289:146|291:169|298:188|321:201|352:182|335:120|290:127|290:127|268:129|240:129|204:136|178:151|160:176|120:169|100:119|164:76|182:144|182:144|197:174|209:200|195:228|183:245|157:260|136:258|113:255|113:255|145:260|168:271|177:292|184:309|185:326|185:326|185:310|199:291,1,900,4|0,3:0|3:0,3:3:0:0:
236,252,154248,1,0,3:0:0:0:
272,222,154323,1,0,3:0:0:0:
309,189,154398,1,0,3:0:0:0:
127,276,154473,6,0,P|37:253|83:57,1,320,8|0,3:0|0:0,0:0:0:0:
138,42,155073,2,0,L|156:129,2,80
231,180,155673,2,0,L|319:167,2,80,2|0|0,0:0|0:0|0:0,0:0:0:0:
141,261,156273,2,0,L|229:246,1,80,2|0,0:0|0:0,0:0:0:0:
160,131,156623,1,0,0:0:0:0:
119,134,156673,1,0,0:0:0:0:
93,161,156723,1,0,0:0:0:0:
161,201,156823,1,0,0:0:0:0:
292,213,156873,6,0,L|467:206,1,160,4|8,3:0|3:0,0:0:0:0:
346,150,157173,1,8,3:0:0:0:
451,206,157273,1,0,3:0:0:0:
431,156,157323,1,0,3:0:0:0:
389,122,157398,1,0,0:0:0:0:
192,70,157473,2,0,L|372:65,1,160,4|8,3:0|3:0,0:0:0:0:
393,26,157773,1,8,3:0:0:0:
314,17,157873,1,8,3:0:0:0:
234,12,157973,1,8,3:0:0:0:
435,220,158073,6,0,L|259:226,1,160,4|8,3:0|3:0,0:0:0:0:
379,165,158373,1,8,3:0:0:0:
275,225,158448,1,0,0:0:0:0:
235,223,158523,1,0,3:0:0:0:
215,184,158598,1,0,0:0:0:0:
408,85,158673,2,0,L|221:84,1,160,8|8,3:0|3:0,0:0:0:0:
128,80,158980,1,8,3:0:0:0:
248,84,159088,1,8,3:0:0:0:
128,80,159195,1,8,3:0:0:0:
385,180,159273,6,0,P|453:181|508:84,2,160,4|2|0,3:0|3:0|3:0,3:3:0:0:
222,121,159873,2,0,P|154:120|99:217,2,160,10|2|2,3:0|3:0|3:0,3:3:0:0:
478,50,160473,2,0,L|294:58,2,160,4|2|2,3:0|3:0|3:0,3:3:0:0:
317,189,161073,2,0,L|133:197,2,160,12|2|2,3:0|3:0|3:0,3:3:0:0:
22,111,161673,6,0,L|187:103,1,160,4|0,3:0|0:0,0:0:0:0:
342,97,162073,1,2,3:0:0:0:
182,31,162273,2,0,L|347:23,1,160,10|2,3:0|3:0,0:0:0:0:
502,20,162673,1,2,3:0:0:0:
230,208,162873,6,0,L|398:198,2,160,4|2|2,3:0|3:0|3:0,3:3:0:0:
69,206,163473,2,0,P|29:163|93:82,1,160,12|2,3:0|3:0,3:3:0:0:
153,75,163773,1,2,3:0:0:0:
249,68,163873,1,2,3:0:0:0:
361,64,163973,1,2,3:0:0:0:
127,180,164073,6,0,P|59:181|4:84,2,160,4|2|0,3:0|3:0|3:0,3:3:0:0:
290,121,164673,2,0,P|358:120|413:217,2,160,10|2|2,3:0|3:0|3:0,3:3:0:0:
34,50,165273,2,0,L|218:58,2,160,4|2|2,3:0|3:0|3:0,3:3:0:0:
195,189,165873,2,0,L|371:197,2,160,12|2|2,3:0|3:0|3:0,3:3:0:0:
215,188,166323,2,0,L|261:192,1,40
490,111,166473,5,12,3:0:0:0:
409,107,166573,1,0,3:0:0:0:
330,102,166673,1,0,3:0:0:0:
289,171,166773,1,0,3:0:0:0:
370,171,166873,1,0,3:0:0:0:
410,227,166973,1,0,3:0:0:0:
207,97,167073,5,12,3:0:0:0:
127,88,167173,1,0,3:0:0:0:
103,29,167273,1,0,3:0:0:0:
127,88,167373,1,0,3:0:0:0:
207,97,167473,1,0,3:0:0:0:
289,105,167573,1,0,3:0:0:0:
88,178,167673,5,12,3:0:0:0:
180,177,167773,1,0,3:0:0:0:
272,176,167873,1,0,3:0:0:0:
180,177,167973,1,0,3:0:0:0:
88,178,168073,1,0,3:0:0:0:
180,177,168173,1,0,3:0:0:0:
400,86,168273,5,12,3:0:0:0:
492,85,168373,1,0,3:0:0:0:
379,156,168473,1,8,3:0:0:0:
287,155,168573,1,8,3:0:0:0:
400,86,168673,1,8,3:0:0:0:
309,87,168773,1,8,3:0:0:0:
111,250,168873,6,0,L|275:239,1,160,4|0,3:0|0:0,0:0:0:0:
432,225,169273,1,0,3:0:0:0:
272,239,169473,2,0,L|436:228,1,160,8|0,3:0|0:0,0:0:0:0:
272,239,169873,1,2,3:0:0:0:
8,52,170073,5,4,3:0:0:0:
169,65,170273,1,2,3:0:0:0:
8,52,170473,1,2,3:0:0:0:
168,145,170673,1,12,3:0:0:0:
329,158,170873,1,2,3:0:0:0:
168,145,171073,1,2,3:0:0:0:
480,110,171273,6,0,L|316:99,1,160,4|0,3:0|0:0,0:0:0:0:
160,96,171673,1,2,3:0:0:0:
320,30,171873,1,10,3:0:0:0:
160,25,172073,1,2,3:0:0:0:
0,19,172273,1,2,3:0:0:0:
282,208,172473,6,0,L|114:198,2,160,4|2|2,3:0|3:0|3:0,3:3:0:0:
130,131,173073,2,0,B|9:124|9:124|-4:73,1,160,12|2,3:0|3:0,3:3:0:0:
40,45,173373,1,2,3:0:0:0:
107,39,173473,1,2,3:0:0:0:
194,36,173573,1,2,3:0:0:0:
398,40,173673,6,0,L|235:45,2,160,4|2|0,3:0|3:0|3:0,3:3:0:0:
238,154,174273,2,0,L|75:159,2,160,10|2|2,3:0|3:0|3:0,3:3:0:0:
502,258,174873,6,0,L|311:255,1,160,4|2,3:0|3:0,3:3:0:0:
181,248,175273,1,2,3:0:0:0:
341,155,175473,2,0,L|150:152,2,160,12|2|2,3:0|3:0|3:0,3:3:0:0:
300,154,175923,2,0,L|251:153,1,40
32,112,176073,5,12,3:0:0:0:
113,108,176173,1,0,3:0:0:0:
192,103,176273,1,0,3:0:0:0:
233,172,176373,1,0,3:0:0:0:
152,172,176473,1,0,3:0:0:0:
112,228,176573,1,0,3:0:0:0:
321,93,176673,5,12,3:0:0:0:
401,84,176773,1,0,3:0:0:0:
425,25,176873,1,0,3:0:0:0:
401,84,176973,1,0,3:0:0:0:
321,93,177073,1,0,3:0:0:0:
221,101,177173,1,0,3:0:0:0:
422,174,177273,5,12,3:0:0:0:
326,173,177373,1,0,3:0:0:0:
230,172,177473,1,0,3:0:0:0:
326,173,177573,1,0,3:0:0:0:
422,174,177673,1,0,3:0:0:0:
326,173,177773,1,0,3:0:0:0:
103,82,177873,5,12,3:0:0:0:
11,81,177973,1,0,3:0:0:0:
124,152,178073,1,8,3:0:0:0:
216,151,178173,1,8,3:0:0:0:
60,81,178273,1,8,3:0:0:0:
225,131,178373,1,8,3:0:0:0:
390,180,178473,6,0,P|458:181|513:84,2,160,4|0|0,3:0|3:0|3:0,3:3:0:0:
222,121,179073,2,0,P|154:120|99:217,2,160,12|0|0,3:0|3:0|3:0,3:3:0:0:
478,50,179673,6,0,L|294:58,2,160,4|0|0,3:0|3:0|3:0,3:3:0:0:
317,189,180273,2,0,L|133:197,2,160,12|0|0,3:0|3:0|0:0,3:3:0:0:
22,111,180873,5,4,3:0:0:0:
182,102,181073,1,0,3:0:0:0:
342,97,181273,2,0,L|178:49,1,160,0|12,3:0|3:0,0:0:0:0:
342,26,181673,1,0,3:0:0:0:
502,20,181873,1,0,3:0:0:0:
230,208,182073,6,0,L|398:198,2,160,4|0|0,3:0|3:0|3:0,3:3:0:0:
69,206,182673,2,0,P|68:162|173:92,1,160,12|0,3:0|3:0,3:3:0:0:
410,86,183073,1,0,3:0:0:0:
127,180,183273,6,0,P|59:181|4:84,2,160,4|0|0,3:0|3:0|3:0,3:3:0:0:
290,121,183873,2,0,P|358:120|413:217,2,160,12|0|0,3:0|3:0|3:0,3:3:0:0:
34,50,184473,6,0,L|218:58,2,160,4|0|0,3:0|3:0|3:0,3:3:0:0:
195,189,185073,2,0,L|371:197,2,160,12|0|0,3:0|0:0|3:0,0:0:0:0:
490,111,185673,5,12,3:0:0:0:
409,107,185773,1,0,3:0:0:0:
330,102,185873,1,0,3:0:0:0:
289,171,185973,1,0,3:0:0:0:
370,171,186073,1,0,3:0:0:0:
410,227,186173,1,0,3:0:0:0:
207,97,186273,5,10,3:0:0:0:
165,42,186373,1,0,3:0:0:0:
245,159,186473,1,2,3:0:0:0:
287,104,186573,1,0,3:0:0:0:
207,97,186673,1,2,3:0:0:0:
165,152,186773,1,0,3:0:0:0:
365,219,186873,5,2,3:0:0:0:
457,219,186973,1,0,3:0:0:0:
365,219,187073,1,2,3:0:0:0:
273,218,187173,1,0,3:0:0:0:
365,219,187273,1,2,3:0:0:0:
457,219,187373,1,0,3:0:0:0:
257,75,187473,5,10,3:0:0:0:
165,74,187573,1,0,3:0:0:0:
278,145,187673,1,8,3:0:0:0:
370,144,187773,1,8,3:0:0:0:
458,74,187873,1,8,3:0:0:0:
366,73,187973,1,8,3:0:0:0:
111,250,188073,6,0,L|276:240,1,160,4|0,3:0|3:0,0:0:0:0:
432,225,188473,2,0,L|272:234,1,160,0|12,3:0|3:0,0:0:0:0:
193,245,188873,1,0,3:0:0:0:
272,239,189073,1,0,3:0:0:0:
8,52,189273,6,0,L|255:76,2,240,4|0|12,3:0|3:0|3:0,3:0:0:0:
329,158,190073,1,0,3:0:0:0:
168,145,190273,1,0,3:0:0:0:
480,110,190473,5,4,3:0:0:0:
320,101,190673,1,0,3:0:0:0:
160,96,190873,1,0,3:0:0:0:
320,30,191073,1,12,3:0:0:0:
160,25,191273,1,0,3:0:0:0:
0,19,191473,1,0,3:0:0:0:
282,208,191673,6,0,L|114:198,2,160,4|0|0,3:0|3:0|3:0,3:3:0:0:
130,131,192273,2,0,B|9:124|9:124|-4:73,2,160,12|0|0,3:0|3:0|3:0,3:3:0:0:
398,40,192873,6,0,L|235:45,2,160,4|0|0,3:0|3:0|3:0,3:3:0:0:
238,154,193473,2,0,L|75:159,2,160,12|0|0,3:0|3:0|3:0,3:3:0:0:
502,258,194073,6,0,L|311:255,1,160,4|0,3:0|3:0,3:3:0:0:
181,248,194473,1,0,3:0:0:0:
341,155,194673,2,0,L|150:152,1,160,12|0,3:0|3:0,3:3:0:0:
341,155,195073,1,0,3:0:0:0:
320,154,195123,2,0,L|278:153,1,40
70,107,195273,5,12,3:0:0:0:
151,103,195373,1,0,3:0:0:0:
230,98,195473,1,0,3:0:0:0:
271,167,195573,1,0,3:0:0:0:
190,167,195673,1,0,3:0:0:0:
150,223,195773,1,0,3:0:0:0:
362,93,195873,5,10,3:0:0:0:
442,84,195973,1,0,3:0:0:0:
466,25,196073,1,2,3:0:0:0:
442,84,196173,1,0,3:0:0:0:
362,93,196273,1,2,3:0:0:0:
280,101,196373,1,0,3:0:0:0:
492,176,196473,5,2,3:0:0:0:
400,175,196573,1,0,3:0:0:0:
308,174,196673,1,2,3:0:0:0:
400,175,196773,1,0,3:0:0:0:
492,176,196873,1,2,3:0:0:0:
400,175,196973,1,0,3:0:0:0:
196,80,197073,5,8,3:0:0:0:
16,80,197173,1,8,3:0:0:0:
196,160,197273,1,8,3:0:0:0:
376,160,197373,1,8,3:0:0:0:
196,80,197473,1,8,3:0:0:0:
16,80,197573,1,8,3:0:0:0:
307,255,197673,6,0,L|477:252,2,160,4|2|0,3:0|3:0|3:0,3:3:0:0:
145,256,198273,2,0,P|124:200|201:126,1,160,10|2,3:0|3:0,3:3:0:0:
342,120,198673,1,2,3:0:0:0:
70,62,198873,6,0,L|241:56,2,160,4|2|2,3:0|3:0|3:0,3:3:0:0:
229,177,199473,2,0,L|388:171,2,160,12|2|2,3:0|3:0|3:0,3:3:0:0:
500,182,200073,6,0,P|498:120|418:60,1,160,4|2,3:0|3:0,3:3:0:0:
266,52,200473,1,2,3:0:0:0:
106,224,200673,2,0,L|280:214,1,160,10|2,3:0|3:0,3:3:0:0:
105,126,201073,1,2,3:0:0:0:
384,73,201273,6,0,L|213:67,2,160,4|2|2,3:0|3:0|3:0,3:3:0:0:
225,188,201873,2,0,L|66:182,1,160,12|2,3:0|3:0,3:3:0:0:
146,141,202173,1,2,3:0:0:0:
228,135,202273,1,2,3:0:0:0:
309,131,202373,1,2,3:0:0:0:
68,246,202473,6,0,L|243:238,2,160,4|2|0,3:0|3:0|3:0,3:3:0:0:
227,163,203073,2,0,B|346:156|346:156|357:84,1,160,10|2,3:0|3:0,3:3:0:0:
192,84,203473,1,2,3:0:0:0:
463,60,203673,6,0,L|292:54,2,160,4|2|2,3:0|3:0|3:0,3:3:0:0:
304,175,204273,2,0,L|145:169,2,160,12|2|2,3:0|3:0|3:0,3:3:0:0:
32,96,204873,5,12,3:0:0:0:
128,91,204973,1,0,3:0:0:0:
208,88,205073,1,0,3:0:0:0:
241,45,205173,1,0,3:0:0:0:
160,112,205273,1,0,3:0:0:0:
129,159,205373,1,0,3:0:0:0:
329,173,205473,5,12,3:0:0:0:
412,173,205573,1,0,3:0:0:0:
329,173,205673,1,0,3:0:0:0:
289,150,205773,1,0,3:0:0:0:
329,173,205873,1,0,3:0:0:0:
412,173,205973,1,0,3:0:0:0:
212,251,206073,5,12,3:0:0:0:
120,251,206173,1,0,3:0:0:0:
212,251,206273,1,0,3:0:0:0:
304,250,206373,1,0,3:0:0:0:
212,251,206473,1,0,3:0:0:0:
120,251,206573,1,0,3:0:0:0:
320,107,206673,5,12,3:0:0:0:
412,106,206773,1,0,3:0:0:0:
299,177,206873,1,8,3:0:0:0:
207,176,206973,1,8,3:0:0:0:
320,107,207073,1,8,3:0:0:0:
412,106,207173,1,8,3:0:0:0:
173,50,207273,6,0,L|3:53,2,160,4|2|0,3:0|3:0|3:0,3:3:0:0:
335,49,207873,2,0,P|403:105|341:164,1,160,10|2,3:0|3:0,3:3:0:0:
215,169,208273,1,2,3:0:0:0:
487,227,208473,6,0,L|316:233,2,160,4|2|2,3:0|3:0|3:0,3:3:0:0:
328,112,209073,2,0,L|169:118,2,160,12|2|2,3:0|3:0|3:0,3:3:0:0:
54,239,209673,6,0,P|65:187|287:49,1,320,4|2,3:0|3:0,3:3:0:0:
432,151,210273,2,0,L|255:160,2,160,10|0|2,3:0|0:0|3:0,3:3:0:0:
161,232,210873,6,0,L|0:217,2,160,4|2|2,3:0|3:0|3:0,3:3:0:0:
322,108,211473,2,0,L|143:110,1,160,12|2,3:0|3:0,3:3:0:0:
122,64,211773,1,2,3:0:0:0:
162,109,211873,1,2,3:0:0:0:
242,112,211973,1,2,3:0:0:0:
448,248,212073,6,0,P|485:198|320:36,1,320,4|0,3:0|3:0,3:3:0:0:
195,156,212673,2,0,L|25:149,2,160,10|2|2,3:0|3:0|3:0,3:3:0:0:
460,79,213273,6,0,L|290:72,2,160,4|0|0,3:0|0:0|0:0,3:3:0:0:
301,208,213873,1,12,3:0:0:0:
157,196,214073,1,2,3:0:0:0:
114,188,214173,1,0,0:0:0:0:
102,143,214273,1,2,3:0:0:0:
123,111,214373,1,0,0:0:0:0:
413,93,214473,5,12,3:0:0:0:
317,88,214573,1,0,3:0:0:0:
237,85,214673,1,0,3:0:0:0:
204,42,214773,1,0,3:0:0:0:
285,109,214873,1,0,3:0:0:0:
316,156,214973,1,0,3:0:0:0:
116,170,215073,5,12,3:0:0:0:
33,170,215173,1,0,3:0:0:0:
116,170,215273,1,0,3:0:0:0:
156,147,215373,1,0,3:0:0:0:
116,170,215473,1,0,3:0:0:0:
33,170,215573,1,0,3:0:0:0:
233,248,215673,5,12,3:0:0:0:
325,248,215773,1,0,3:0:0:0:
233,248,215873,1,0,3:0:0:0:
141,247,215973,1,0,3:0:0:0:
49,246,216073,1,0,3:0:0:0:
141,247,216173,1,0,3:0:0:0:
336,96,216273,5,12,3:0:0:0:
496,96,216373,1,0,3:0:0:0:
336,176,216473,1,8,3:0:0:0:
176,175,216573,1,8,3:0:0:0:
16,111,216673,1,8,3:0:0:0:
256,94,216773,1,8,3:0:0:0:
483,46,216873,6,0,P|494:84|137:61,1,705,4|0,3:0|0:0,3:3:0:0:
342,227,220473,2,0,P|423:219|302:26,1,450,10|0,3:0|0:0,3:3:0:0:
87,359,221673,6,0,P|57:140|454:16,1,705,4|0,3:0|0:0,3:3:0:0:
250,101,225273,2,0,B|193:107|158:117|129:142|129:142|151:129|186:125|228:130|251:137|261:163|261:163|251:192|251:192|220:184|188:183|163:186|144:194|130:212|117:243,1,450,10|0,3:0|0:0,3:3:0:0:
351,313,226473,6,0,P|313:51|233:292,1,705,4|0,3:0|0:0,3:3:0:0:
420,278,230073,2,0,B|376:163|376:163|179:143|179:143|126:6,1,450,10|0,3:0|0:0,3:3:0:0:
359,16,231273,6,0,P|488:211|325:304,1,465,4|0,3:0|0:0,3:3:0:0:
107,337,233673,2,0,P|23:146|214:54,1,465,4|0,3:0|0:0,3:3:0:0:
439,99,236073,6,0,P|346:41|20:388,1,705,4|0,3:0|0:0,3:3:0:0:
213,234,239673,2,0,P|377:236|478:-3,1,450,10|0,3:0|0:0,3:3:0:0:
254,42,240873,6,0,B|198:44|154:57|102:77|79:115|99:169|99:170|99:170|126:162|169:161|211:171|248:195|266:229|272:268|273:299|271:336|271:336|275:296|258:257|232:237|202:224|153:221,1,705,4|0,3:0|0:0,3:3:0:0:
351,202,244473,2,0,P|352:150|103:202,1,450,10|0,3:0|0:0,3:3:0:0:
332,290,245673,6,0,B|390:265|454:277|454:277|431:259|422:240|424:224|424:224|415:205|415:205|425:189|425:189|430:163|425:146|412:138|391:128|416:110|416:110|411:83|397:73|374:67|331:63|296:66|249:72|221:109|270:145|338:124|286:67|286:67|256:47|222:40|155:42,1,705,4|0,3:0|0:0,3:3:0:0:
364,175,249273,2,0,P|468:158|313:23,1,450,10|0,3:0|0:0,3:3:0:0:
98,160,250473,6,0,B|143:157|173:144|199:124|216:85|212:45|212:45|214:82|213:113|207:152|189:186|152:210|110:220|67:219|40:211|40:211|40:212,1,465,4|0,3:0|0:0,3:3:0:0:
266,97,252873,2,0,B|311:99|341:112|367:132|384:171|380:211|380:211|382:174|381:143|375:104|357:70|320:46|278:36|235:37|208:45|208:45|208:44,1,465,4|0,3:0|0:0,3:3:0:0:
438,275,255273,6,0,P|420:142|142:127,1,465,4|0,3:0|0:0,3:3:0:0:
368,253,257673,2,0,P|298:132|178:247,1,337.500012874604,4|0,3:0|0:0,3:3:0:0:
368,253,258873,2,0,P|350:120|76:102,1,450,10|0,3:0|0:0,3:3:0:0:
310,266,260073,6,0,P|246:134|234:314,1,465,4|0,3:0|0:0,3:3:0:0:
448,316,262473,2,0,P|377:233|158:163,1,337.500012874604,4|0,3:0|0:0,3:3:0:0:
361,53,263673,2,0,P|445:104|283:313,1,450,10|0,3:0|0:0,3:3:0:0:
63,269,264873,6,0,B|64:53|388:261|383:6,1,465,4|0,3:0|0:0,3:3:0:0:
158,55,267273,2,0,P|61:97|180:232,1,337.500012874604,4|0,3:0|0:0,3:3:0:0:
361,212,268473,2,0,P|155:230|93:21,1,450,10|0,3:0|0:0,3:3:0:0:
319,23,269673,6,0,B|388:32|421:67|402:216|402:216|339:156|289:149|243:159|224:176|224:176|256:172,1,465,4|0,3:0|0:0,3:3:0:0:
480,297,272073,2,0,B|471:182|304:169|304:169|358:95|510:169,1,465,4|0,3:0|0:0,3:3:0:0:
280,321,274473,6,0,B|209:80|365:200|339:200|339:200|294:103|188:129|133:131,1,465,4|0,3:0|0:0,3:3:0:0:
361,42,276873,2,0,B|404:57|429:96|429:96|409:82|374:78|374:78|312:79|312:79|303:91|303:91|254:92|254:92|265:108|265:108|287:115|287:115|299:135,1,337.500012874604,4|0,3:0|0:0,3:3:0:0:
490,281,278073,2,0,P|507:231|248:19,1,450,10|0,3:0|0:0,3:3:0:0:
33,61,279273,6,0,P|61:137|389:274,1,465,4|0,3:0|0:0,3:3:0:0:
158,152,281673,2,0,B|215:137|286:134|390:154|390:154|370:142|338:134|287:129,1,337.500012874604,4|0,3:0|0:0,3:3:0:0:
86,83,282873,2,0,B|162:63|210:59|267:55|326:61|364:68|415:78|448:86|469:106|472:142|459:176|443:209,1,450,10|0,3:0|0:0,3:3:0:0:
224,265,284073,6,0,P|217:188|440:263,1,465,4|0,3:0|0:0,3:3:0:0:
212,54,286473,2,0,B|166:55|138:61|118:74|100:101|100:101|122:118|145:127|178:120|206:101|211:68|211:68|210:43|191:23|159:21,1,337.500012874604,4|0,3:0|0:0,3:3:0:0:
359,295,287673,2,0,B|334:230|301:197|196:186|196:186|101:179|44:136|26:92|21:33,1,450,10|0,3:0|0:0,3:3:0:0:
250,70,288873,6,0,B|295:73|325:86|351:106|368:145|364:185|364:185|366:148|364:129|364:129|198:128|209:92|222:43|241:36|198:34|191:32,1,465,4|0,3:0|0:0,3:3:0:0:
425,124,291273,2,0,P|447:170|272:337,1,337.500012874604,4|0,3:0|0:0,3:3:0:0:
74,76,292473,6,0,L|1:76,1,60,8|8,3:0|3:0,0:0:0:0:
192,168,292615,1,8,3:0:0:0:
327,166,292687,1,8,3:0:0:0:
194,251,292758,1,8,3:0:0:0:
130,252,292830,1,8,3:0:0:0:
261,168,292901,1,8,3:0:0:0:
396,165,292973,1,8,3:0:0:0:
261,95,293044,1,8,3:0:0:0:
201,94,293122,1,8,3:0:0:0:
52,131,293201,5,8,3:0:0:0:
195,109,293276,1,8,3:0:0:0:
336,85,293351,1,8,3:0:0:0:
477,64,293426,1,8,3:0:0:0:
315,34,293501,1,8,3:0:0:0:
153,20,293576,1,8,3:0:0:0:
404,247,293651,5,4,3:0:0:0:
434,247,293688,2,0,P|427:178|329:125,1,180,0|0,3:0|0:0,3:3:0:0:
287,78,293951,2,0,L|248:137,3,60
202,49,294251,6,0,L|163:108,7,60
104,131,294851,2,0,L|65:190,7,60,2|0|0|0|0|0|0|0,0:0|0:0|0:0|0:0|0:0|0:0|0:0|0:0,0:0:0:0:
137,206,295451,2,0,L|176:265,3,60,2|0|0|0,0:0|0:0|0:0|0:0,0:0:0:0:
236,241,295751,2,0,L|275:300,3,60
425,210,296073,5,4,3:0:0:0:
425,210,296110,2,0,B|421:359|421:359|422:320,1,180
430,102,296373,6,0,L|391:161,3,60
340,55,296673,2,0,L|301:114,7,60,2|0|0|0|0|0|0|0,0:0|0:0|0:0|0:0|0:0|0:0|0:0|0:0,0:0:0:0:
368,154,297273,2,0,L|329:213,3,60,2|0|0|0,0:0|0:0|0:0|0:0,0:0:0:0:
274,179,297573,2,0,L|235:238,3,60,2|0|0|0,0:0|0:0|0:0|0:0,0:0:0:0:
30,163,297873,5,4,3:0:0:0:
30,163,297910,1,0,0:0:0:0:
272,160,298173,1,4,3:0:0:0:
272,160,298210,1,0,0:0:0:0:
30,163,298473,5,4,3:0:0:0:
30,163,298510,1,0,0:0:0:0:
65,174,298623,1,0,0:0:0:0:
101,186,298698,1,0,0:0:0:0:
136,198,298773,1,0,0:0:0:0:
172,210,298848,1,0,0:0:0:0:
207,222,298923,1,0,0:0:0:0:
243,233,298998,1,0,0:0:0:0:
482,163,299073,5,4,3:0:0:0:
482,163,299110,1,0,0:0:0:0:
446,174,299223,1,0,0:0:0:0:
410,186,299298,1,0,0:0:0:0:
375,198,299373,1,0,0:0:0:0:
339,210,299448,1,0,0:0:0:0:
304,222,299523,1,0,0:0:0:0:
268,233,299598,1,0,0:0:0:0:
30,163,299673,5,4,3:0:0:0:
30,163,299710,1,0,0:0:0:0:
65,174,299823,1,0,0:0:0:0:
101,186,299898,1,0,0:0:0:0:
136,198,299973,1,0,0:0:0:0:
172,210,300048,1,0,0:0:0:0:
207,222,300123,1,0,0:0:0:0:
243,233,300198,1,0,0:0:0:0:
482,163,300273,5,4,3:0:0:0:
482,163,300310,1,0,0:0:0:0:
446,174,300423,1,0,0:0:0:0:
410,186,300498,1,0,0:0:0:0:
375,198,300573,1,0,0:0:0:0:
339,210,300648,1,0,0:0:0:0:
304,222,300723,1,0,0:0:0:0:
268,233,300798,1,0,0:0:0:0:
30,162,300873,5,4,3:0:0:0:
113,157,300944,1,8,3:0:0:0:
192,150,301015,1,8,3:0:0:0:
256,141,301087,1,8,3:0:0:0:
277,89,301158,1,8,3:0:0:0:
256,141,301230,1,8,3:0:0:0:
192,150,301301,1,8,3:0:0:0:
256,141,301373,1,8,3:0:0:0:
489,217,301473,5,4,3:0:0:0:
459,169,301542,1,8,3:0:0:0:
387,160,301612,1,8,3:0:0:0:
315,152,301682,1,8,3:0:0:0:
387,160,301752,1,8,3:0:0:0:
459,169,301821,1,8,3:0:0:0:
489,217,301891,1,8,3:0:0:0:
459,169,301961,1,8,3:0:0:0:
183,80,302073,5,4,3:0:0:0:
256,77,302144,1,8,3:0:0:0:
316,76,302215,1,8,3:0:0:0:
342,36,302287,1,8,3:0:0:0:
316,76,302358,1,8,3:0:0:0:
256,77,302430,1,8,3:0:0:0:
183,80,302501,1,8,3:0:0:0:
256,77,302573,1,8,3:0:0:0:
435,104,302673,5,4,3:0:0:0:
405,106,302710,1,0,0:0:0:0:
149,168,302823,1,4,3:0:0:0:
179,169,302860,1,0,0:0:0:0:
435,104,302973,1,4,3:0:0:0:
405,103,303010,1,0,0:0:0:0:
149,168,303123,1,4,3:0:0:0:
179,171,303160,1,0,0:0:0:0:
435,104,303273,6,0,L|235:115,1,180,4|0,3:0|0:0,3:3:0:0:
344,218,303573,2,0,L|350:137,1,60,2|8,3:0|3:0,0:0:0:0:
255,113,303723,2,0,L|164:112,1,60,2|8,3:0|3:0,0:0:0:0:
379,261,303873,5,2,3:0:0:0:
440,235,303948,1,8,3:0:0:0:
468,184,304023,1,2,3:0:0:0:
440,235,304098,1,8,3:0:0:0:
379,261,304173,1,2,3:0:0:0:
311,262,304248,1,8,3:0:0:0:
232,256,304323,1,2,3:0:0:0:
311,262,304398,1,8,3:0:0:0:
490,126,304473,5,2,3:0:0:0:
468,71,304548,1,8,3:0:0:0:
424,49,304623,1,2,3:0:0:0:
365,39,304698,1,8,3:0:0:0:
291,35,304773,1,2,3:0:0:0:
228,32,304848,1,8,3:0:0:0:
196,63,304923,1,2,3:0:0:0:
228,32,304998,1,8,3:0:0:0:
408,193,305073,5,2,3:0:0:0:
334,190,305148,1,8,3:0:0:0:
270,182,305223,1,2,3:0:0:0:
222,162,305298,1,8,3:0:0:0:
191,124,305373,1,2,3:0:0:0:
180,76,305448,1,8,3:0:0:0:
191,124,305523,1,2,3:0:0:0:
222,162,305598,1,8,3:0:0:0:
402,243,305673,5,2,3:0:0:0:
421,204,305748,1,8,3:0:0:0:
402,243,305823,1,2,3:0:0:0:
357,241,305898,1,8,3:0:0:0:
286,238,305973,1,2,3:0:0:0:
213,232,306048,1,8,3:0:0:0:
286,238,306123,1,2,3:0:0:0:
357,241,306198,1,8,3:0:0:0:
175,171,306273,5,2,3:0:0:0:
114,157,306348,1,8,3:0:0:0:
94,101,306423,1,2,3:0:0:0:
114,157,306498,1,8,3:0:0:0:
175,171,306573,1,2,3:0:0:0:
247,169,306648,1,8,3:0:0:0:
278,104,306723,1,2,3:0:0:0:
247,169,306798,1,8,3:0:0:0:
67,223,306873,5,2,3:0:0:0:
44,170,306948,1,8,3:0:0:0:
67,223,307023,1,2,3:0:0:0:
127,225,307098,1,8,3:0:0:0:
220,225,307173,1,2,3:0:0:0:
228,165,307248,1,8,3:0:0:0:
137,148,307323,1,2,3:0:0:0:
128,88,307398,1,8,3:0:0:0:
311,159,307473,5,4,3:0:0:0:
319,99,307548,1,8,3:0:0:0:
228,82,307623,1,0,3:0:0:0:
168,75,307698,1,8,3:0:0:0:
349,41,307773,1,4,3:0:0:0:
411,52,307848,1,8,3:0:0:0:
471,72,307923,1,0,3:0:0:0:
488,125,307998,1,8,3:0:0:0:
307,254,308073,5,4,3:0:0:0:
244,241,308148,1,0,0:0:0:0:
220,182,308223,1,2,3:0:0:0:
244,241,308298,1,0,0:0:0:0:
334,171,308373,2,0,L|307:113,1,60,2|8,3:0|3:0,0:0:0:0:
211,119,308523,2,0,L|184:61,1,60,2|8,3:0|3:0,0:0:0:0:
366,267,308673,5,2,3:0:0:0:
427,250,308748,1,8,3:0:0:0:
470,206,308823,1,2,3:0:0:0:
492,152,308898,1,8,3:0:0:0:
470,206,308973,1,2,3:0:0:0:
427,250,309048,1,8,3:0:0:0:
366,267,309123,1,2,3:0:0:0:
289,265,309198,1,8,3:0:0:0:
109,25,309273,5,2,3:0:0:0:
95,83,309348,1,8,3:0:0:0:
111,134,309423,1,2,3:0:0:0:
149,167,309498,1,8,3:0:0:0:
199,183,309573,1,2,3:0:0:0:
258,189,309648,1,8,3:0:0:0:
329,191,309723,1,2,3:0:0:0:
407,192,309798,1,8,3:0:0:0:
220,239,309873,6,0,L|196:176,1,60,2|8,3:0|3:0,0:0:0:0:
291,145,310023,2,0,L|315:82,1,60,2|8,3:0|3:0,0:0:0:0:
220,239,310173,2,0,L|196:176,1,60,2|8,3:0|3:0,0:0:0:0:
291,145,310323,2,0,L|315:82,1,60,2|8,3:0|3:0,3:3:0:0:
118,80,310473,5,4,3:0:0:0:
190,76,310544,1,8,3:0:0:0:
262,73,310615,1,8,3:0:0:0:
334,65,310687,1,8,3:0:0:0:
262,73,310758,1,8,3:0:0:0:
231,111,310830,1,8,3:0:0:0:
262,73,310901,1,8,3:0:0:0:
334,65,310973,1,8,3:0:0:0:
98,232,311073,5,4,3:0:0:0:
75,185,311142,1,8,3:0:0:0:
147,172,311212,1,8,3:0:0:0:
220,162,311282,1,8,3:0:0:0:
292,154,311352,1,8,3:0:0:0:
320,97,311421,1,8,3:0:0:0:
260,102,311491,1,8,3:0:0:0:
232,45,311560,1,8,3:0:0:0:
493,140,311673,5,4,3:0:0:0:
418,134,311744,1,8,3:0:0:0:
344,123,311815,1,8,3:0:0:0:
268,111,311887,1,8,3:0:0:0:
193,100,311958,1,8,3:0:0:0:
268,111,312030,1,8,3:0:0:0:
344,123,312101,1,8,3:0:0:0:
268,111,312173,1,8,3:0:0:0:
31,171,312273,5,4,3:0:0:0:
61,170,312310,1,0,0:0:0:0:
271,51,312423,1,4,3:0:0:0:
241,52,312460,1,0,0:0:0:0:
31,171,312573,1,4,3:0:0:0:
61,172,312610,1,0,0:0:0:0:
301,50,312723,1,4,3:0:0:0:
271,51,312760,1,0,0:0:0:0:
31,171,312873,6,0,L|231:182,1,180,4|0,3:0|0:0,3:3:0:0:
142,299,313173,2,0,L|136:218,1,60,2|8,3:0|3:0,0:0:0:0:
210,180,313323,2,0,L|301:179,1,60,2|8,3:0|3:0,0:0:0:0:
88,60,313473,5,2,3:0:0:0:
27,86,313548,1,8,3:0:0:0:
4,140,313623,1,2,3:0:0:0:
27,86,313698,1,8,3:0:0:0:
88,60,313773,1,2,3:0:0:0:
159,59,313848,1,8,3:0:0:0:
238,64,313923,1,2,3:0:0:0:
328,74,313998,1,8,3:0:0:0:
148,269,314073,5,2,3:0:0:0:
178,206,314148,1,8,3:0:0:0:
240,191,314223,1,2,3:0:0:0:
316,183,314298,1,8,3:0:0:0:
378,180,314373,1,2,3:0:0:0:
422,172,314448,1,8,3:0:0:0:
446,119,314523,1,2,3:0:0:0:
422,172,314598,1,8,3:0:0:0:
242,109,314673,5,2,3:0:0:0:
175,110,314748,1,8,3:0:0:0:
114,142,314823,1,2,3:0:0:0:
91,204,314898,1,8,3:0:0:0:
114,142,314973,1,2,3:0:0:0:
175,110,315048,1,8,3:0:0:0:
242,109,315123,1,2,3:0:0:0:
317,113,315198,1,8,3:0:0:0:
497,259,315273,5,2,3:0:0:0:
485,204,315348,1,8,3:0:0:0:
457,170,315423,1,2,3:0:0:0:
412,152,315498,1,8,3:0:0:0:
350,142,315573,1,2,3:0:0:0:
278,138,315648,1,8,3:0:0:0:
198,138,315723,1,2,3:0:0:0:
157,89,315798,1,8,3:0:0:0:
337,171,315873,5,2,3:0:0:0:
398,157,315948,1,8,3:0:0:0:
418,101,316023,1,2,3:0:0:0:
398,157,316098,1,8,3:0:0:0:
337,171,316173,1,2,3:0:0:0:
265,169,316248,1,8,3:0:0:0:
234,104,316323,1,2,3:0:0:0:
265,169,316398,1,8,3:0:0:0:
445,223,316473,5,2,3:0:0:0:
468,170,316548,1,8,3:0:0:0:
445,223,316623,1,2,3:0:0:0:
385,225,316698,1,8,3:0:0:0:
307,224,316773,1,2,3:0:0:0:
299,164,316848,1,8,3:0:0:0:
375,148,316923,1,2,3:0:0:0:
384,88,316998,1,8,3:0:0:0:
201,159,317073,5,4,3:0:0:0:
193,99,317148,1,8,3:0:0:0:
272,84,317223,1,0,3:0:0:0:
332,77,317298,1,8,3:0:0:0:
163,41,317373,1,4,3:0:0:0:
101,52,317448,1,8,3:0:0:0:
41,72,317523,1,0,3:0:0:0:
58,126,317598,1,8,3:0:0:0:
238,236,317673,6,0,L|430:228,1,180,4|0,3:0|0:0,3:3:0:0:
328,162,317973,2,0,L|315:84,1,60,2|8,3:0|3:0,0:0:0:0:
407,126,318123,2,0,L|420:48,1,60,2|8,3:0|3:0,0:0:0:0:
237,50,318273,5,2,3:0:0:0:
175,51,318348,1,8,3:0:0:0:
129,81,318423,1,2,3:0:0:0:
113,141,318498,1,8,3:0:0:0:
129,81,318573,1,2,3:0:0:0:
175,51,318648,1,8,3:0:0:0:
237,50,318723,1,2,3:0:0:0:
307,53,318798,1,8,3:0:0:0:
487,208,318873,5,2,3:0:0:0:
414,205,318948,1,8,3:0:0:0:
350,200,319023,1,2,3:0:0:0:
294,195,319098,1,8,3:0:0:0:
245,189,319173,1,2,3:0:0:0:
210,158,319248,1,8,3:0:0:0:
192,109,319323,1,2,3:0:0:0:
210,158,319398,1,8,3:0:0:0:
390,229,319473,5,2,3:0:0:0:
404,171,319548,1,8,3:0:0:0:
388,120,319623,1,2,3:0:0:0:
350,87,319698,1,8,3:0:0:0:
300,71,319773,1,2,3:0:0:0:
241,65,319848,1,8,3:0:0:0:
170,63,319923,1,2,3:0:0:0:
241,65,319998,1,8,3:0:0:0:
431,39,320073,5,4,3:0:0:0:
358,32,320144,1,8,3:0:0:0:
285,25,320215,1,8,3:0:0:0:
211,21,320287,1,8,3:0:0:0:
285,25,320358,1,8,3:0:0:0:
328,59,320430,1,8,3:0:0:0:
341,113,320501,1,8,3:0:0:0:
328,59,320573,1,8,3:0:0:0:
70,89,320673,5,4,3:0:0:0:
47,136,320742,1,8,3:0:0:0:
119,149,320812,1,8,3:0:0:0:
192,159,320882,1,8,3:0:0:0:
264,167,320952,1,8,3:0:0:0:
292,224,321021,1,8,3:0:0:0:
232,219,321091,1,8,3:0:0:0:
204,276,321160,1,8,3:0:0:0:
489,131,321273,5,4,3:0:0:0:
416,123,321344,1,8,3:0:0:0:
343,113,321415,1,8,3:0:0:0:
269,104,321487,1,8,3:0:0:0:
239,53,321558,1,8,3:0:0:0:
269,104,321630,1,8,3:0:0:0:
328,110,321701,1,8,3:0:0:0:
269,104,321773,1,8,3:0:0:0:
16,144,321873,5,4,3:0:0:0:
46,145,321910,1,0,0:0:0:0:
256,86,322023,1,4,3:0:0:0:
286,91,322060,1,0,0:0:0:0:
496,127,322173,1,4,3:0:0:0:
467,134,322210,1,0,0:0:0:0:
256,86,322323,1,4,3:0:0:0:
226,91,322360,1,0,0:0:0:0:
16,144,322473,6,0,P|9:217|123:262,1,180,4|0,3:0|0:0,3:3:0:0:
167,284,322773,2,0,L|236:280,1,60,2|8,3:0|3:0,0:0:0:0:
152,218,322923,2,0,L|83:214,1,60,2|8,3:0|3:0,0:0:0:0:
270,58,323073,5,2,3:0:0:0:
331,58,323148,1,8,3:0:0:0:
373,72,323223,1,2,3:0:0:0:
399,129,323298,1,8,3:0:0:0:
338,141,323373,1,2,3:0:0:0:
328,200,323448,1,8,3:0:0:0:
389,215,323523,1,2,3:0:0:0:
400,274,323598,1,8,3:0:0:0:
219,257,323673,5,2,3:0:0:0:
155,228,323748,1,8,3:0:0:0:
116,176,323823,1,2,3:0:0:0:
97,112,323898,1,8,3:0:0:0:
116,176,323973,1,2,3:0:0:0:
155,228,324048,1,8,3:0:0:0:
219,257,324123,1,2,3:0:0:0:
296,262,324198,1,8,3:0:0:0:
477,260,324273,5,2,3:0:0:0:
446,200,324348,1,8,3:0:0:0:
384,169,324423,1,2,3:0:0:0:
309,164,324498,1,8,3:0:0:0:
234,160,324573,1,2,3:0:0:0:
158,155,324648,1,8,3:0:0:0:
234,160,324723,1,2,3:0:0:0:
309,164,324798,1,8,3:0:0:0:
489,171,324873,5,2,3:0:0:0:
502,115,324948,1,8,3:0:0:0:
489,171,325023,1,2,3:0:0:0:
447,170,325098,1,8,3:0:0:0:
384,169,325173,1,2,3:0:0:0:
314,167,325248,1,8,3:0:0:0:
270,163,325323,1,2,3:0:0:0:
256,107,325398,1,8,3:0:0:0:
436,264,325473,5,2,3:0:0:0:
454,221,325548,1,8,3:0:0:0:
428,180,325623,1,2,3:0:0:0:
387,159,325698,1,8,3:0:0:0:
325,149,325773,1,2,3:0:0:0:
253,138,325848,1,8,3:0:0:0:
343,95,325923,1,2,3:0:0:0:
271,84,325998,1,8,3:0:0:0:
91,232,326073,5,2,3:0:0:0:
71,177,326148,1,8,3:0:0:0:
89,126,326223,1,2,3:0:0:0:
148,105,326298,1,8,3:0:0:0:
329,232,326373,1,2,3:0:0:0:
349,177,326448,1,8,3:0:0:0:
331,126,326523,1,2,3:0:0:0:
272,105,326598,1,8,3:0:0:0:
91,232,326673,5,2,3:0:0:0:
122,177,326748,1,8,3:0:0:0:
183,171,326823,1,2,3:0:0:0:
256,166,326898,1,8,3:0:0:0:
286,116,326973,1,2,3:0:0:0:
256,166,327048,1,8,3:0:0:0:
183,171,327123,1,2,3:0:0:0:
256,166,327198,1,8,3:0:0:0:
437,153,327273,5,4,3:0:0:0:
399,120,327348,1,8,3:0:0:0:
349,104,327423,1,2,3:0:0:0:
290,98,327498,1,8,3:0:0:0:
219,96,327573,1,2,3:0:0:0:
159,94,327648,1,8,3:0:0:0:
135,45,327723,1,2,3:0:0:0:
159,94,327798,1,8,3:0:0:0:
338,266,327873,5,2,3:0:0:0:
399,253,327948,1,8,3:0:0:0:
441,223,328023,1,2,3:0:0:0:
457,165,328098,1,8,3:0:0:0:
441,223,328173,1,2,3:0:0:0:
399,253,328248,1,8,3:0:0:0:
338,266,328323,1,2,3:0:0:0:
266,265,328398,1,8,3:0:0:0:
86,244,328473,5,2,3:0:0:0:
68,183,328548,1,8,3:0:0:0:
88,134,328623,1,2,3:0:0:0:
149,117,328698,1,8,3:0:0:0:
240,114,328773,2,0,L|253:41,1,60,2|8,3:0|3:0,3:3:0:0:
160,48,328923,1,2,3:0:0:0:
99,65,328998,1,8,3:0:0:0:
79,114,329073,5,2,3:0:0:0:
97,175,329148,1,8,3:0:0:0:
153,199,329223,1,2,3:0:0:0:
226,204,329298,1,8,3:0:0:0:
321,200,329373,2,0,L|331:137,1,60,2|8,3:0|3:0,3:3:0:0:
258,139,329523,2,0,L|248:76,1,60,2|8,3:0|3:0,0:0:0:0:
430,246,329673,5,4,3:0:0:0:
355,260,329748,1,8,3:0:0:0:
279,267,329823,1,0,3:0:0:0:
355,260,329898,1,8,3:0:0:0:
430,246,329973,1,4,3:0:0:0:
460,198,330048,1,8,3:0:0:0:
430,246,330123,1,0,3:0:0:0:
369,257,330198,1,8,3:0:0:0:
189,148,330273,5,4,3:0:0:0:
114,162,330348,1,8,3:0:0:0:
38,169,330423,1,0,3:0:0:0:
114,162,330498,1,8,3:0:0:0:
189,148,330573,1,4,3:0:0:0:
219,100,330648,1,8,3:0:0:0:
189,148,330723,1,0,3:0:0:0:
128,159,330798,1,8,3:0:0:0:
308,155,330873,5,4,3:0:0:0:
384,151,330948,1,8,3:0:0:0:
460,144,331023,1,0,3:0:0:0:
384,151,331098,1,8,3:0:0:0:
308,155,331173,2,0,L|297:90,1,60,4|8,3:0|3:0,3:3:0:0:
379,87,331323,2,0,L|390:22,1,60,0|8,3:0|3:0,0:0:0:0:
303,27,331473,5,8,3:0:0:0:
244,25,331548,1,8,3:0:0:0:
186,23,331623,1,8,3:0:0:0:
127,20,331698,1,8,3:0:0:0:
307,107,331773,2,0,L|387:104,1,60,8|8,3:0|3:0,0:0:0:0:
187,185,331923,2,0,L|107:182,1,60,8|8,3:0|3:0,0:0:0:0:
310,242,332073,6,0,P|366:212|366:100,1,180,4|0,3:0|0:0,3:3:0:0:
293,97,332373,2,0,L|222:90,1,60,2|8,3:0|3:0,0:0:0:0:
310,29,332523,2,0,L|381:22,1,60,2|8,3:0|3:0,0:0:0:0:
190,62,332673,5,2,3:0:0:0:
130,64,332748,1,8,3:0:0:0:
86,97,332823,1,2,3:0:0:0:
68,149,332898,1,8,3:0:0:0:
86,97,332973,1,2,3:0:0:0:
130,64,333048,1,8,3:0:0:0:
190,62,333123,1,2,3:0:0:0:
262,64,333198,1,8,3:0:0:0:
442,226,333273,5,2,3:0:0:0:
422,169,333348,1,8,3:0:0:0:
344,180,333423,1,2,3:0:0:0:
324,123,333498,1,8,3:0:0:0:
404,98,333573,1,2,3:0:0:0:
384,41,333648,1,8,3:0:0:0:
304,50,333723,1,2,3:0:0:0:
243,64,333798,1,8,3:0:0:0:
61,105,333873,5,2,3:0:0:0:
37,56,333948,1,8,3:0:0:0:
61,105,334023,1,2,3:0:0:0:
121,107,334098,1,8,3:0:0:0:
192,109,334173,1,2,3:0:0:0:
251,115,334248,1,8,3:0:0:0:
301,131,334323,1,2,3:0:0:0:
324,184,334398,1,8,3:0:0:0:
234,228,334473,5,2,3:0:0:0:
174,233,334548,1,8,3:0:0:0:
130,248,334623,1,2,3:0:0:0:
108,291,334698,1,8,3:0:0:0:
130,248,334773,1,2,3:0:0:0:
174,233,334848,1,8,3:0:0:0:
234,228,334923,1,2,3:0:0:0:
258,180,334998,1,8,3:0:0:0:
78,169,335073,5,2,3:0:0:0:
59,122,335148,1,8,3:0:0:0:
78,169,335223,1,2,3:0:0:0:
119,169,335298,1,8,3:0:0:0:
182,169,335373,1,2,3:0:0:0:
260,168,335448,1,8,3:0:0:0:
182,169,335523,1,2,3:0:0:0:
160,117,335598,1,8,3:0:0:0:
340,56,335673,5,2,3:0:0:0:
400,67,335748,1,8,3:0:0:0:
424,118,335823,1,2,3:0:0:0:
400,67,335898,1,8,3:0:0:0:
220,205,335973,1,2,3:0:0:0:
160,194,336048,1,8,3:0:0:0:
136,143,336123,1,2,3:0:0:0:
160,194,336198,1,8,3:0:0:0:
340,206,336273,5,2,3:0:0:0:
400,204,336348,1,8,3:0:0:0:
444,171,336423,1,2,3:0:0:0:
464,119,336498,1,8,3:0:0:0:
444,171,336573,1,2,3:0:0:0:
400,204,336648,1,8,3:0:0:0:
340,206,336723,1,2,3:0:0:0:
267,201,336798,1,8,3:0:0:0:
340,206,336873,5,4,3:0:0:0:
371,147,336948,1,8,3:0:0:0:
340,206,337023,1,2,3:0:0:0:
267,201,337098,1,8,3:0:0:0:
176,191,337173,2,0,L|168:125,1,60,2|8,3:0|3:0,3:3:0:0:
268,127,337323,2,0,L|276:61,1,60,2|8,3:0|3:0,0:0:0:0:
95,55,337473,5,2,3:0:0:0:
168,50,337548,1,8,3:0:0:0:
244,41,337623,1,2,3:0:0:0:
304,34,337698,1,8,3:0:0:0:
347,66,337773,1,2,3:0:0:0:
364,116,337848,1,8,3:0:0:0:
347,66,337923,1,2,3:0:0:0:
304,34,337998,1,8,3:0:0:0:
124,219,338073,5,2,3:0:0:0:
105,165,338148,1,8,3:0:0:0:
124,219,338223,1,2,3:0:0:0:
184,219,338298,1,8,3:0:0:0:
274,173,338373,1,2,3:0:0:0:
337,171,338448,1,8,3:0:0:0:
400,165,338523,1,2,3:0:0:0:
448,130,338598,1,8,3:0:0:0:
269,47,338673,5,2,3:0:0:0:
209,53,338748,1,8,3:0:0:0:
180,103,338823,1,2,3:0:0:0:
209,53,338898,1,8,3:0:0:0:
269,47,338973,1,2,3:0:0:0:
345,45,339048,1,8,3:0:0:0:
303,102,339123,1,2,3:0:0:0:
231,129,339198,1,8,3:0:0:0:
82,246,339273,5,4,3:0:0:0:
157,260,339348,1,8,3:0:0:0:
233,267,339423,1,0,3:0:0:0:
157,260,339498,1,8,3:0:0:0:
82,246,339573,1,4,3:0:0:0:
52,198,339648,1,8,3:0:0:0:
82,246,339723,1,0,3:0:0:0:
143,257,339798,1,8,3:0:0:0:
323,148,339873,5,4,3:0:0:0:
398,162,339948,1,8,3:0:0:0:
474,169,340023,1,0,3:0:0:0:
398,162,340098,1,8,3:0:0:0:
323,148,340173,1,4,3:0:0:0:
293,100,340248,1,8,3:0:0:0:
323,148,340323,1,0,3:0:0:0:
384,159,340398,1,8,3:0:0:0:
204,155,340473,5,4,3:0:0:0:
128,151,340548,1,8,3:0:0:0:
52,144,340623,1,0,3:0:0:0:
128,151,340698,1,8,3:0:0:0:
204,155,340773,2,0,L|215:90,1,60,4|8,3:0|3:0,0:0:0:0:
133,87,340923,2,0,L|122:22,1,60,0|8,3:0|3:0,0:0:0:0:
209,27,341073,5,8,3:0:0:0:
268,25,341148,1,8,3:0:0:0:
326,23,341223,1,8,3:0:0:0:
385,20,341298,1,8,3:0:0:0:
296,89,341373,1,8,3:0:0:0:
237,87,341448,1,8,3:0:0:0:
179,85,341523,1,8,3:0:0:0:
120,82,341598,1,8,3:0:0:0:
300,199,341673,5,4,3:0:0:0:
360,183,341748,1,0,3:0:0:0:
404,141,341823,1,0,3:0:0:0:
423,80,341898,1,0,3:0:0:0:
404,141,341973,1,0,3:0:0:0:
360,183,342048,1,0,3:0:0:0:
300,199,342123,1,0,3:0:0:0:
228,201,342198,1,0,3:0:0:0:
138,200,342273,5,4,3:0:0:0:
120,178,342348,1,0,3:0:0:0:
102,159,342423,1,0,3:0:0:0:
84,142,342498,1,0,3:0:0:0:
66,120,342573,1,0,3:0:0:0:
48,101,342648,1,0,3:0:0:0:
30,81,342723,1,0,3:0:0:0:
12,62,342798,1,0,3:0:0:0:
192,301,342873,5,12,3:0:0:0:
210,279,342948,1,0,3:0:0:0:
228,260,343023,1,0,3:0:0:0:
246,243,343098,1,0,3:0:0:0:
264,221,343173,1,0,3:0:0:0:
282,202,343248,1,0,3:0:0:0:
300,182,343323,1,0,3:0:0:0:
318,163,343398,1,0,3:0:0:0:
216,160,343473,5,4,3:0:0:0:
198,138,343548,1,0,3:0:0:0:
180,119,343623,1,0,3:0:0:0:
162,102,343698,1,0,3:0:0:0:
144,80,343773,1,0,3:0:0:0:
126,61,343848,1,0,3:0:0:0:
108,41,343923,1,0,3:0:0:0:
90,22,343998,1,0,3:0:0:0:
270,271,344073,5,4,3:0:0:0:
284,213,344148,1,0,3:0:0:0:
268,162,344223,1,0,3:0:0:0:
230,129,344298,1,0,3:0:0:0:
180,113,344373,1,0,3:0:0:0:
121,107,344448,1,0,3:0:0:0:
51,104,344523,1,0,3:0:0:0:
121,107,344598,1,0,3:0:0:0:
179,112,344673,5,4,3:0:0:0:
198,155,344748,1,0,3:0:0:0:
204,205,344823,1,0,3:0:0:0:
198,155,344898,1,0,3:0:0:0:
180,113,344973,1,0,3:0:0:0:
121,107,345048,1,0,3:0:0:0:
90,60,345123,1,0,3:0:0:0:
121,107,345198,1,0,3:0:0:0:
301,295,345273,5,12,3:0:0:0:
319,273,345348,1,0,3:0:0:0:
337,254,345423,1,0,3:0:0:0:
355,237,345498,1,0,3:0:0:0:
373,215,345573,1,0,3:0:0:0:
391,196,345648,1,0,3:0:0:0:
409,176,345723,1,0,3:0:0:0:
427,157,345798,1,0,3:0:0:0:
325,154,345873,5,4,3:0:0:0:
307,132,345948,1,0,3:0:0:0:
289,113,346023,1,0,3:0:0:0:
271,96,346098,1,0,3:0:0:0:
253,74,346173,1,0,3:0:0:0:
235,55,346248,1,0,3:0:0:0:
217,35,346323,1,0,3:0:0:0:
199,16,346398,1,0,3:0:0:0:
379,269,346473,5,4,3:0:0:0:
349,206,346548,1,0,3:0:0:0:
287,197,346623,1,0,3:0:0:0:
214,192,346698,1,0,3:0:0:0:
151,187,346773,1,0,3:0:0:0:
127,139,346848,1,0,3:0:0:0:
151,187,346923,1,0,3:0:0:0:
214,192,346998,1,0,3:0:0:0:
302,196,347073,5,4,3:0:0:0:
284,174,347148,1,0,3:0:0:0:
266,155,347223,1,0,3:0:0:0:
248,138,347298,1,0,3:0:0:0:
230,116,347373,1,0,3:0:0:0:
212,97,347448,1,0,3:0:0:0:
194,77,347523,1,0,3:0:0:0:
176,58,347598,1,0,3:0:0:0:
356,259,347673,5,12,3:0:0:0:
374,237,347748,1,0,3:0:0:0:
392,218,347823,1,0,3:0:0:0:
410,201,347898,1,0,3:0:0:0:
428,179,347973,1,0,3:0:0:0:
446,160,348048,1,0,3:0:0:0:
464,140,348123,1,0,3:0:0:0:
482,121,348198,1,0,3:0:0:0:
380,183,348273,5,4,3:0:0:0:
362,161,348348,1,0,3:0:0:0:
344,142,348423,1,0,3:0:0:0:
326,125,348498,1,0,3:0:0:0:
308,103,348573,1,0,3:0:0:0:
290,84,348648,1,0,3:0:0:0:
272,64,348723,1,0,3:0:0:0:
254,45,348798,1,0,3:0:0:0:
434,253,348873,5,4,3:0:0:0:
465,198,348948,1,0,3:0:0:0:
434,253,349023,1,0,3:0:0:0:
374,249,349098,1,0,3:0:0:0:
315,238,349173,1,0,3:0:0:0:
375,250,349248,1,0,3:0:0:0:
405,304,349323,1,0,3:0:0:0:
375,250,349398,1,0,3:0:0:0:
285,239,349473,5,4,3:0:0:0:
224,228,349548,1,0,3:0:0:0:
285,239,349623,1,0,3:0:0:0:
345,231,349698,1,0,3:0:0:0:
381,193,349773,1,0,3:0:0:0:
394,132,349848,1,0,3:0:0:0:
381,193,349923,1,0,3:0:0:0:
345,231,349998,1,0,3:0:0:0:
165,202,350073,5,12,3:0:0:0:
147,180,350148,1,0,3:0:0:0:
129,161,350223,1,0,3:0:0:0:
111,144,350298,1,0,3:0:0:0:
93,122,350373,1,0,3:0:0:0:
75,103,350448,1,0,3:0:0:0:
57,83,350523,1,0,3:0:0:0:
39,64,350598,1,0,3:0:0:0:
141,278,350673,5,4,3:0:0:0:
159,256,350748,1,0,3:0:0:0:
177,237,350823,1,0,3:0:0:0:
195,220,350898,1,0,3:0:0:0:
213,198,350973,1,0,3:0:0:0:
231,179,351048,1,0,3:0:0:0:
249,159,351123,1,0,3:0:0:0:
267,140,351198,1,0,3:0:0:0:
87,93,351273,6,0,P|76:135|381:80,1,630.000024032594,4|0,3:0|3:0,3:3:0:0:
119,32,352473,2,0,B|178:37|213:44|280:85|303:118|324:153|333:184|341:225|343:274|343:274|296:260|225:255|175:262|107:274|44:323,1,675.000025749207,12|0,3:0|0:0,3:3:0:0:
251,191,353673,6,0,B|306:222|360:235|413:231|448:216|449:157|449:157|380:191|369:147|375:108|397:77|500:87|521:63|513:32|481:22|437:25|437:25|408:30|372:41|331:40,1,630.000024032594,4|0,3:0|3:0,3:3:0:0:
75,82,354873,2,0,P|347:13|479:340,1,675.000025749207,12|0,3:0|0:0,3:3:0:0:
282,315,356073,6,0,P|289:97|299:316,1,630.000024032594,4|0,3:0|3:0,3:3:0:0:
69,295,357273,2,0,B|14:294|14:188|70:189|70:189|137:191|182:210|229:246|229:246|187:225|153:217|100:222|100:222|43:193|44:118|44:118|6:151|29:234,1,675.000025749207,12|0,3:0|0:0,3:3:0:0:
227,319,358473,6,0,P|408:280|267:21,1,540.000020599366,4|0,3:0|3:0,3:3:0:0:
264,20,359448,1,0,3:0:0:0:
228,34,359523,1,0,3:0:0:0:
209,74,359598,1,0,3:0:0:0:
392,168,359673,6,0,P|432:132|352:68,1,180.000006866455,12|0,3:0|3:0,3:3:0:0:
270,90,360123,1,0,0:0:0:0:
123,242,360273,2,0,P|59:220|43:131,1,135.000005149841,0|0,0:0|3:0,0:0:0:0:
58,130,360573,2,0,L|206:121,1,135.000005149841,0|0,3:0|0:0,0:0:0:0:
430,130,360873,6,0,B|332:73|212:76|95:105|33:145|18:180|18:195|18:195|140:169|164:256|164:256|116:239|116:239|123:250|123:250|111:250|111:250|118:259|118:259|106:260|106:260|113:269|113:269|102:271|102:271|110:279|110:279|99:282|99:282|107:290|107:290|95:294|95:294|104:302|104:302|93:306|93:306|101:314|101:314|90:317|90:317|99:325|99:325|88:329|88:329|96:373,1,900.000034332277,4|0,3:0|0:0,0:0:0:0:
256,192,362523,12,0,377673,0:0:0:0:
