osu file format v14

[General]
AudioFilename: audio.mp3
AudioLeadIn: 0
PreviewTime: -1
Countdown: 0
SampleSet: Normal
StackLeniency: 0.7
Mode: 0
LetterboxInBreaks: 0
WidescreenStoryboard: 0

[Editor]
DistanceSpacing: 1.9
BeatDivisor: 4
GridSize: 32
TimelineZoom: 0.5999999

[Metadata]
Title:
TitleUnicode:Спать
Artist:17 SEVENTEEN, Sqwore
ArtistUnicode:17 SEVENTEEN, Sqwore
Creator:bloombae
Version:Normal
Source:17 SEVENTEEN
Tags:спать
BeatmapID:3632426
BeatmapSetID:1774049

[Difficulty]
HPDrainRate:7
CircleSize:5
OverallDifficulty:7
ApproachRate:9
SliderMultiplier:2.00000000596046
SliderTickRate:2

[Events]
//Background and Video events
0,0,"-UcP_8ES8BLYhYiL3HKTzf1u4Y6EBbylvz69jbewqEy95TNe3T1nn2byCqJ8Xim4tG2UYNd2TQuRFLcpGSqRBVVo.jpg",0,0
//Break Periods
//Storyboard Layer 0 (Background)
//Storyboard Layer 1 (Fail)
//Storyboard Layer 2 (Pass)
//Storyboard Layer 3 (Foreground)
//Storyboard Layer 4 (Overlay)
//Storyboard Sound Samples

[TimingPoints]
40,372.670807453415,4,1,0,100,1,0
12009.2909256161,370.37037037037,4,1,0,100,1,0

[HitObjects]
128,128,8160,5,0,0:0:0:0:
256,128,8656,1,0,0:0:0:0:
352,192,10142,5,0,0:0:0:0:
224,224,11049,1,0,0:0:0:0:
96,160,12031,5,0,0:0:0:0:
160,128,12082,5,0,0:0:0:0:
96,192,12369,1,0,0:0:0:0:
256,192,12701,1,0,0:0:0:0:
224,128,12856,1,0,0:0:0:0:
192,256,13021,1,0,0:0:0:0:
192,160,13348,1,0,0:0:0:0:
320,128,14188,1,0,0:0:0:0:
224,256,14550,1,0,0:0:0:0:
160,128,14924,1,0,0:0:0:0:
320,224,15266,1,0,0:0:0:0:
288,128,15622,1,0,0:0:0:0:
192,224,15907,1,0,0:0:0:0:
192,128,16235,1,0,0:0:0:0:
320,224,16475,1,0,0:0:0:0:
320,160,16770,1,0,0:0:0:0:
192,224,17151,1,0,0:0:0:0:
96,128,17504,1,0,0:0:0:0:
96,128,17906,1,0,0:0:0:0:
96,128,18288,1,0,0:0:0:0:
96,128,18662,1,0,0:0:0:0:
96,128,19036,1,0,0:0:0:0:
96,128,19384,1,0,0:0:0:0:
256,160,19758,1,0,0:0:0:0:
128,224,20173,1,0,0:0:0:0:
352,192,20542,1,0,0:0:0:0:
192,128,20916,1,0,0:0:0:0:
256,256,21282,1,0,0:0:0:0:
288,128,21670,1,0,0:0:0:0:
160,224,22052,1,0,0:0:0:0:
96,96,22432,1,0,0:0:0:0:
256,224,22786,1,0,0:0:0:0:
288,128,23168,1,0,0:0:0:0:
128,192,23549,1,0,0:0:0:0:
288,128,24138,1,0,0:0:0:0:
288,128,24416,1,0,0:0:0:0:
288,128,24694,1,0,0:0:0:0:
288,128,25064,1,0,0:0:0:0:
288,128,25342,1,0,0:0:0:0:
96,128,25789,1,0,0:0:0:0:
192,224,26171,1,0,0:0:0:0:
288,160,26556,1,0,0:0:0:0:
96,192,26911,1,0,0:0:0:0:
224,256,27312,1,0,0:0:0:0:
224,96,27705,1,0,0:0:0:0:
384,256,28046,1,0,0:0:0:0:
352,96,28446,1,0,0:0:0:0:
224,256,28794,1,0,0:0:0:0:
96,96,29174,1,0,0:0:0:0:
352,224,29529,1,0,0:0:0:0:
160,224,29917,1,0,0:0:0:0:
160,224,30291,1,0,0:0:0:0:
160,224,30684,1,0,0:0:0:0:
160,224,31051,1,0,0:0:0:0:
160,224,31406,1,0,0:0:0:0:
288,128,31822,1,0,0:0:0:0:
192,256,32236,1,0,0:0:0:0:
64,160,32584,1,0,0:0:0:0:
352,192,32957,1,0,0:0:0:0:
160,160,33675,1,0,0:0:0:0:
160,96,34787,6,0,L|256:160,1,112.500001341104
160,160,35990,1,0,0:0:0:0:
224,160,36453,1,0,0:0:0:0:
224,160,36638,1,0,0:0:0:0:
224,160,36731,1,0,0:0:0:0:
224,160,36916,1,0,0:0:0:0:
224,160,37101,1,0,0:0:0:0:
224,160,37287,1,0,0:0:0:0:
224,160,37472,1,0,0:0:0:0:
384,192,37935,2,0,L|320:256,1,87.5000010430812
288,256,38768,1,0,0:0:0:0:
192,128,39324,1,0,0:0:0:0:
128,224,39694,1,0,0:0:0:0:
320,192,40157,1,0,0:0:0:0:
192,160,40527,1,0,0:0:0:0:
352,96,40805,1,0,0:0:0:0:
416,192,41268,1,0,0:0:0:0:
288,256,41638,1,0,0:0:0:0:
192,128,42009,1,0,0:0:0:0:
320,160,42379,1,0,0:0:0:0:
128,192,42657,1,0,0:0:0:0:
352,224,43120,1,0,0:0:0:0:
128,256,43398,1,0,0:0:0:0:
320,288,43768,1,0,0:0:0:0:
128,192,44138,1,0,0:0:0:0:
320,160,44601,1,0,0:0:0:0:
128,128,44972,1,0,0:0:0:0:
320,224,45342,1,0,0:0:0:0:
128,224,45712,1,0,0:0:0:0:
320,160,46083,1,0,0:0:0:0:
128,160,46453,1,0,0:0:0:0:
288,256,46824,1,0,0:0:0:0:
320,128,47194,2,0,L|160:96,1,162.500001937151
352,96,48768,1,0,0:0:0:0:
160,128,49138,1,0,0:0:0:0:
256,160,49509,1,0,0:0:0:0:
128,192,49879,1,0,0:0:0:0:
288,256,50250,1,0,0:0:0:0:
384,128,50620,1,0,0:0:0:0:
160,96,50898,1,0,0:0:0:0:
96,192,51361,1,0,0:0:0:0:
192,288,51731,1,0,0:0:0:0:
352,256,52009,1,0,0:0:0:0:
256,128,52472,1,0,0:0:0:0:
96,192,52842,1,0,0:0:0:0:
288,224,53305,1,0,0:0:0:0:
352,160,53583,1,0,0:0:0:0:
160,160,53953,1,0,0:0:0:0:
256,128,54324,1,0,0:0:0:0:
128,256,54787,1,0,0:0:0:0:
352,256,55064,1,0,0:0:0:0:
160,160,55435,1,0,0:0:0:0:
352,128,55898,1,0,0:0:0:0:
256,256,56268,1,0,0:0:0:0:
128,96,56638,1,0,0:0:0:0:
96,224,57009,1,0,0:0:0:0:
224,128,57379,1,0,0:0:0:0:
352,256,57750,1,0,0:0:0:0:
352,128,58120,1,0,0:0:0:0:
160,96,58490,1,0,0:0:0:0:
160,96,58768,1,0,0:0:0:0:
160,96,59046,1,0,0:0:0:0:
160,96,59509,1,0,0:0:0:0:
160,96,59879,1,0,0:0:0:0:
352,128,60620,1,0,0:0:0:0:
128,192,61083,1,0,0:0:0:0:
384,224,61453,1,0,0:0:0:0:
320,256,61731,2,0,L|96:256,1,212.500002533197
128,224,63583,1,0,0:0:0:0:
192,160,63768,1,0,0:0:0:0:
288,160,64138,1,0,0:0:0:0:
288,96,64416,1,0,0:0:0:0:
128,96,64787,1,0,0:0:0:0:
192,96,65250,1,0,0:0:0:0:
256,224,65620,1,0,0:0:0:0:
192,256,65990,2,0,L|128:160,1,112.500001341104
224,160,67194,1,0,0:0:0:0:
320,128,67564,2,0,L|448:288,2,200.000002384186
96,96,72009,5,0,0:0:0:0:
96,96,72287,1,0,0:0:0:0:
96,96,72657,1,0,0:0:0:0:
96,96,73027,1,0,0:0:0:0:
96,96,73398,1,0,0:0:0:0:
352,128,74231,1,0,0:0:0:0:
192,160,74601,1,0,0:0:0:0:
352,224,74972,1,0,0:0:0:0:
256,128,75342,1,0,0:0:0:0:
224,256,75712,1,0,0:0:0:0:
128,128,75990,1,0,0:0:0:0:
352,224,76453,1,0,0:0:0:0:
160,224,76824,1,0,0:0:0:0:
256,128,77194,1,0,0:0:0:0:
256,128,77564,1,0,0:0:0:0:
256,128,77935,1,0,0:0:0:0:
256,128,78305,1,0,0:0:0:0:
256,128,78675,1,0,0:0:0:0:
256,128,79046,1,0,0:0:0:0:
256,128,79416,1,0,0:0:0:0:
160,160,79787,1,0,0:0:0:0:
416,192,80250,1,0,0:0:0:0:
192,256,80620,1,0,0:0:0:0:
224,128,80898,1,0,0:0:0:0:
320,256,81268,1,0,0:0:0:0:
352,160,81731,1,0,0:0:0:0:
128,192,82101,1,0,0:0:0:0:
192,96,82472,1,0,0:0:0:0:
256,256,82842,1,0,0:0:0:0:
320,160,83120,1,0,0:0:0:0:
320,160,83583,1,0,0:0:0:0:
320,160,83953,1,0,0:0:0:0:
320,160,84324,1,0,0:0:0:0:
320,160,84694,1,0,0:0:0:0:
320,160,85064,1,0,0:0:0:0:
320,160,85342,1,0,0:0:0:0:
160,128,85712,1,0,0:0:0:0:
320,96,86175,1,0,0:0:0:0:
192,224,86546,1,0,0:0:0:0:
192,96,87009,1,0,0:0:0:0:
320,224,87287,1,0,0:0:0:0:
352,128,87750,1,0,0:0:0:0:
160,224,88027,1,0,0:0:0:0:
128,96,88490,1,0,0:0:0:0:
288,224,88768,1,0,0:0:0:0:
320,96,89231,1,0,0:0:0:0:
128,224,89601,1,0,0:0:0:0:
128,96,89972,1,0,0:0:0:0:
128,96,90342,1,0,0:0:0:0:
128,96,90712,1,0,0:0:0:0:
128,96,90990,1,0,0:0:0:0:
128,96,91453,1,0,0:0:0:0:
352,160,91824,1,0,0:0:0:0:
160,288,92194,1,0,0:0:0:0:
384,288,92564,1,0,0:0:0:0:
480,160,92935,1,0,0:0:0:0:
288,128,93212,1,0,0:0:0:0:
224,256,93675,1,0,0:0:0:0:
128,96,94046,1,0,0:0:0:0:
32,224,94416,1,0,0:0:0:0:
288,160,94787,1,0,0:0:0:0:
256,256,95157,1,0,0:0:0:0:
416,192,95527,1,0,0:0:0:0:
224,128,95898,1,0,0:0:0:0:
256,192,96083,12,0,98583,0:0:0:0:
352,128,99138,5,0,0:0:0:0:
224,192,99416,1,0,0:0:0:0:
352,256,99694,1,0,0:0:0:0:
192,96,100064,1,0,0:0:0:0:
64,192,100435,1,0,0:0:0:0:
192,288,100805,1,0,0:0:0:0:
384,256,101175,1,0,0:0:0:0:
384,128,101546,1,0,0:0:0:0:
224,192,101916,1,0,0:0:0:0:
256,64,102287,1,0,0:0:0:0:
320,224,102657,1,0,0:0:0:0:
128,160,103120,1,0,0:0:0:0:
352,96,103490,1,0,0:0:0:0:
224,256,103861,1,0,0:0:0:0:
128,128,104138,1,0,0:0:0:0:
320,256,104601,1,0,0:0:0:0:
256,64,104972,1,0,0:0:0:0:
128,256,105342,1,0,0:0:0:0:
64,160,105712,1,0,0:0:0:0:
352,160,106083,1,0,0:0:0:0:
224,288,106453,1,0,0:0:0:0:
160,192,106824,1,0,0:0:0:0:
256,128,107194,1,0,0:0:0:0:
352,224,107564,1,0,0:0:0:0:
128,192,107935,1,0,0:0:0:0:
192,96,108305,1,0,0:0:0:0:
224,256,108675,1,0,0:0:0:0:
352,128,109046,1,0,0:0:0:0:
160,96,109416,1,0,0:0:0:0:
288,224,109787,1,0,0:0:0:0:
320,96,110157,1,0,0:0:0:0:
96,192,110527,1,0,0:0:0:0:
320,288,110898,1,0,0:0:0:0:
256,96,111268,1,0,0:0:0:0:
128,256,111638,1,0,0:0:0:0:
96,96,112009,1,0,0:0:0:0:
352,224,112379,1,0,0:0:0:0:
352,96,112842,1,0,0:0:0:0:
192,256,113212,1,0,0:0:0:0:
160,96,113583,1,0,0:0:0:0:
320,256,113953,1,0,0:0:0:0:
352,128,114324,1,0,0:0:0:0:
128,224,114694,1,0,0:0:0:0:
256,288,115064,1,0,0:0:0:0:
224,128,115435,1,0,0:0:0:0:
384,224,115805,1,0,0:0:0:0:
64,128,116175,1,0,0:0:0:0:
256,64,116546,1,0,0:0:0:0:
160,256,116916,1,0,0:0:0:0:
352,224,117287,1,0,0:0:0:0:
160,128,117657,1,0,0:0:0:0:
320,128,118027,1,0,0:0:0:0:
192,256,118490,1,0,0:0:0:0:
384,256,118861,1,0,0:0:0:0:
256,96,119231,5,0,0:0:0:0:
96,224,119601,1,0,0:0:0:0:
256,224,119879,1,0,0:0:0:0:
416,224,120157,1,0,0:0:0:0:
