osu file format v14

[General]
AudioFilename: audio.mp3
AudioLeadIn: 0
PreviewTime: -1
Countdown: 1
SampleSet: Soft
StackLeniency: 0.7
Mode: 0
LetterboxInBreaks: 0
WidescreenStoryboard: 0

[Editor]
Bookmarks: 58141,75233,76403
DistanceSpacing: 0.7
BeatDivisor: 4
GridSize: 4
TimelineZoom: 2

[Metadata]
Title:Ama no Jaku
TitleUnicode:天ノ弱
Artist:164 feat. amatsuki
ArtistUnicode:164 feat.天月
Creator:Ameyy
Version:ssfd
Source:
Tags:
BeatmapID:2039910
BeatmapSetID:974572

[Difficulty]
HPDrainRate:6
CircleSize:4
OverallDifficulty:8.5
ApproachRate:9.4
SliderMultiplier:2
SliderTickRate:1

[Events]
//Background and Video events
0,0,"72810724_p0.jpg",0,0
//Break Periods
//Storyboard Layer 0 (Background)
//Storyboard Layer 1 (Fail)
//Storyboard Layer 2 (Pass)
//Storyboard Layer 3 (Foreground)
//Storyboard Sound Samples

[TimingPoints]
1441,300,4,2,0,30,1,0
1741,-142.857142857143,4,2,0,30,0,0
11341,-125,4,2,0,30,0,0
20941,-100,4,2,0,70,0,0
30541,-125,4,2,0,70,0,0
30841,-100,4,2,0,70,0,0
40141,-125,4,2,0,70,0,0
59341,300,4,2,0,30,1,0
59341,-125,4,2,0,70,0,0
62941,292.682926829268,4,2,0,30,1,0
62941,-142.857142857143,4,2,0,30,0,0
67038,292.682926829268,4,2,0,30,1,0
67038,-100,4,2,0,70,0,1
85891,-125,4,2,0,70,0,0

[Colours]
Combo1 : 244,197,132
Combo2 : 244,185,240
Combo3 : 255,149,149
Combo4 : 166,150,254

[HitObjects]
68,96,1441,5,0,0:0:0:0:
68,96,1591,1,0,0:0:0:0:
68,96,1741,2,0,P|124:111|207:95,1,139.999995727539,4|2,0:0|0:0,0:0:0:0:
301,38,2191,2,0,P|316:82|280:186,1,139.999995727539
219,223,2641,1,2,0:0:0:0:
167,298,2791,1,0,0:0:0:0:
276,322,2941,2,0,P|309:325|360:309,1,69.9999978637696
393,228,3241,1,2,0:0:0:0:
478,67,3841,5,2,0:0:0:0:
404,120,3991,1,0,0:0:0:0:
393,228,4141,2,0,B|434:253|434:253|525:260,1,139.999995727539,0|2,0:0|0:0,0:0:0:0:
404,120,4591,2,0,P|320:144|291:204,1,139.999995727539
295,277,5041,1,2,0:0:0:0:
336,358,5191,1,0,0:0:0:0:
187,314,5341,6,0,L|193:227,1,69.9999978637696
82,294,5641,2,0,L|91:378,1,69.9999978637696,2|0,0:0|0:0,0:0:0:0:
189,325,5941,1,0,0:0:0:0:
43,105,6241,5,2,0:0:0:0:
21,193,6391,1,0,0:0:0:0:
110,178,6541,2,0,B|158:160|184:209|256:176,1,139.999995727539,0|2,0:0|0:0,0:0:0:0:
337,193,6991,2,0,L|330:340,1,139.999995727539
241,311,7441,1,2,0:0:0:0:
150,309,7591,1,0,0:0:0:0:
20,343,7741,2,0,L|9:263,1,69.9999978637696
65,201,8041,1,2,0:0:0:0:
69,195,8641,6,0,P|35:149|16:134,1,69.9999978637696,2|0,0:0|0:0,0:0:0:0:
10,273,8941,2,0,P|97:288|150:245,1,139.999995727539,0|2,0:0|0:0,0:0:0:0:
193,161,9391,2,0,P|268:155|336:214,1,139.999995727539
327,293,9841,1,2,0:0:0:0:
239,242,9991,1,0,0:0:0:0:
237,362,10141,5,0,0:0:0:0:
146,331,10291,2,0,L|136:257,1,69.9999978637696,0|2,0:0|0:0,0:0:0:0:
41,207,10591,1,0,0:0:0:0:
41,207,10741,2,0,B|28:149|47:95|47:95|61:120,1,139.999995727539,0|2,0:0|0:0,0:0:0:0:
152,176,11191,1,0,0:0:0:0:
367,202,11341,6,0,P|452:190|485:113,1,160,2|8,0:0|0:0,0:0:0:0:
374,83,11791,1,0,0:0:0:0:
291,170,11941,2,0,P|288:226|309:263,1,80,2|0,0:0|0:0,0:0:0:0:
406,298,12241,1,8,0:0:0:0:
311,372,12391,1,0,0:0:0:0:
189,264,12541,6,0,P|197:218|301:172,2,160,2|8|2,0:0|0:0|0:0,0:0:0:0:
246,340,13291,1,0,0:0:0:0:
108,280,13441,2,0,P|105:230|98:191,1,80,8|0,0:0|0:0,0:0:0:0:
12,105,13741,6,0,L|105:100,1,80,2|0,0:0|0:0,0:0:0:0:
178,147,14041,1,8,0:0:0:0:
0,69,14191,2,0,L|102:69,1,80,0|2,0:0|0:0,0:0:0:0:
178,147,14491,1,0,0:0:0:0:
263,103,14641,1,8,0:0:0:0:
349,62,14791,1,0,0:0:0:0:
286,212,14941,6,0,P|280:267|284:315,1,80,2|0,0:0|0:0,0:0:0:0:
403,231,15241,2,0,P|409:176|405:128,1,80,8|0,0:0|0:0,0:0:0:0:
349,62,15541,1,2,0:0:0:0:
349,62,15841,5,8,0:0:0:0:
286,212,15991,1,0,0:0:0:0:
412,156,16141,1,2,0:0:0:0:
415,167,16441,1,8,0:0:0:0:
240,126,16591,1,0,0:0:0:0:
245,136,16891,5,0,0:0:0:0:
177,225,17041,1,8,0:0:0:0:
107,312,17191,1,0,0:0:0:0:
265,335,17341,2,0,L|429:323,2,160,2|8|2,0:0|0:0|0:0,0:0:0:0:
164,380,18091,1,0,0:0:0:0:
16,284,18241,6,0,P|40:224|72:200,1,80,8|0,0:0|0:0,0:0:0:0:
193,224,18541,2,0,P|116:208|72:136,1,160,2|8,0:0|0:0,0:0:0:0:
304,112,18991,2,0,B|328:168|328:168|324:292,1,160
193,224,19441,1,8,0:0:0:0:
256,192,19591,12,0,20641,0:0:0:0:
287,292,20941,6,0,P|274:193|157:143,1,200,0|8,0:0|0:3,0:0:0:0:
26,199,21391,1,0,0:0:0:0:
123,82,21541,1,0,0:0:0:0:
166,236,21691,1,0,0:0:0:0:
13,324,21841,1,8,3:0:0:0:
147,362,21991,2,0,L|260:356,1,100
361,321,22291,1,0,0:0:0:0:
463,198,22441,6,0,P|408:152|345:142,1,100,8|0,3:0|0:0,0:0:0:0:
271,152,22741,1,0,0:0:0:0:
364,240,22891,1,0,0:0:0:0:
438,35,23041,2,0,L|283:33,1,150,10|0,3:0|0:0,0:0:0:0:
253,52,23341,6,0,P|198:84|141:95,1,100
63,65,23641,1,8,3:0:0:0:
201,174,23791,2,0,P|145:178|97:157,1,100
253,52,24091,1,0,0:0:0:0:
332,133,24241,1,8,3:0:0:0:
277,285,24391,6,0,B|190:316|190:316|79:286,1,200
104,162,24841,1,8,3:0:0:0:
172,49,24991,1,0,0:0:0:0:
295,66,25141,1,0,0:0:0:0:
379,152,25291,1,0,0:0:0:0:
379,152,25366,1,0,0:0:0:0:
379,152,25441,2,0,L|371:309,1,150,10|0,3:0|0:0,0:0:0:0:
331,319,25741,6,0,B|283:325|283:325|204:298,1,100,4|0,0:0|0:0,0:0:0:0:
104,162,26041,2,0,B|159:157|159:157|218:178,1,100,8|0,3:0|0:0,0:0:0:0:
138,273,26341,1,0,0:0:0:0:
22,175,26491,1,0,0:0:0:0:
204,86,26641,1,8,3:0:0:0:
234,308,26791,6,0,P|195:354|53:334,1,200
104,162,27241,1,8,3:0:0:0:
52,53,27391,1,0,0:0:0:0:
204,86,27541,2,0,L|198:193,1,100
280,255,27841,1,10,3:0:0:0:
382,98,27991,1,0,0:0:0:0:
382,98,28066,1,0,0:0:0:0:
382,98,28141,6,0,P|323:70|270:69,1,100
388,237,28441,2,0,P|451:217|483:177,1,100,8|0,3:0|0:0,0:0:0:0:
313,167,28741,1,0,0:0:0:0:
330,346,28891,2,0,L|432:339,1,100,0|8,0:0|3:0,0:0:0:0:
303,167,29191,2,0,B|250:148|250:148|216:168|216:168|175:130|108:147,1,200
148,245,29641,1,8,3:0:0:0:
218,64,29791,1,0,0:0:0:0:
407,95,29941,5,8,0:0:0:0:
428,128,30016,1,8,0:0:0:0:
435,167,30091,1,8,0:0:0:0:
428,206,30166,1,8,0:0:0:0:
409,241,30241,2,8,L|356:224,1,50,8|8,3:0|0:0,0:0:0:0:
398,322,30391,2,8,L|463:316,1,50
316,298,30541,2,0,P|250:280|182:298,1,120
160,345,30841,6,0,L|164:121,1,200,12|0,3:0|0:0,0:0:0:0:
288,74,31291,1,0,0:0:0:0:
260,191,31441,1,8,3:0:0:0:
109,49,31591,2,0,P|55:63|10:92,1,100
39,229,31891,1,0,0:0:0:0:
163,145,32041,5,8,3:0:0:0:
206,326,32191,1,0,0:0:0:0:
260,191,32341,1,0,0:0:0:0:
101,306,32491,1,0,0:0:0:0:
305,347,32641,2,0,B|339:309|339:309|359:175,1,150,10|0,3:0|0:0,0:0:0:0:
354,178,32941,6,0,P|329:99|306:57,1,100
203,67,33241,1,8,3:0:0:0:
397,49,33391,2,0,P|360:13|312:4,1,100
191,192,33691,1,0,0:0:0:0:
215,72,33841,1,8,3:0:0:0:
354,178,33991,6,0,P|429:188|519:109,1,200
397,49,34441,1,8,3:0:0:0:
224,77,34591,1,0,0:0:0:0:
354,178,34741,1,0,0:0:0:0:
135,156,34891,1,0,0:0:0:0:
135,156,34966,1,0,0:0:0:0:
135,156,35041,2,0,P|129:225|141:321,1,150,10|0,3:0|0:0,0:0:0:0:
166,314,35341,6,0,L|276:313,1,100
354,178,35641,1,8,3:0:0:0:
401,325,35791,1,0,0:0:0:0:
422,124,35941,2,0,P|366:92|321:98,1,100
219,149,36241,1,8,3:0:0:0:
401,325,36391,6,0,B|436:269|502:243|502:243|467:242|429:194,1,200
279,214,36841,2,0,L|264:324,1,100,8|0,3:0|0:0,0:0:0:0:
123,239,37141,1,0,0:0:0:0:
219,149,37291,1,0,0:0:0:0:
265,313,37441,1,10,3:0:0:0:
85,363,37591,5,0,0:0:0:0:
85,363,37666,1,0,0:0:0:0:
85,363,37741,2,0,P|29:327|7:263,1,100,4|0,0:0|0:0,0:0:0:0:
119,148,38041,2,0,L|231:149,1,100,8|0,3:0|0:0,0:0:0:0:
305,104,38341,1,0,0:0:0:0:
311,112,38641,1,8,3:0:0:0:
340,239,38791,1,0,0:0:0:0:
138,245,38941,6,0,P|72:234|36:204,1,100
230,57,39241,2,0,P|292:88|317:124,1,100,8|0,3:0|0:0,0:0:0:0:
340,239,39541,1,0,0:0:0:0:
335,268,39616,1,0,0:0:0:0:
324,295,39691,1,0,0:0:0:0:
310,321,39766,1,0,0:0:0:0:
281,349,39841,1,8,3:0:0:0:
243,362,39916,1,0,0:0:0:0:
203,359,39991,2,0,L|113:350,1,50
71,363,40141,6,0,P|76:317|184:278,1,160,4|0,0:0|0:0,0:0:0:0:
169,272,40591,1,0,0:0:0:0:
248,204,40741,2,0,P|245:145|233:110,1,80
143,82,41041,1,0,0:0:0:0:
143,82,41191,2,0,P|190:92|310:74,2,160
38,94,41941,2,0,L|16:173,1,80
87,247,42241,1,0,0:0:0:0:
180,202,42391,1,0,0:0:0:0:
375,226,42541,6,0,L|372:338,1,80
284,361,42841,1,0,0:0:0:0:
402,214,42991,2,0,L|399:326,1,80
284,361,43291,1,0,0:0:0:0:
249,262,43441,1,0,0:0:0:0:
338,152,43591,1,0,0:0:0:0:
338,152,43741,2,0,P|396:128|440:139,1,80
246,272,44041,2,0,P|209:237|193:194,1,80
252,69,44341,6,0,B|296:43|296:43|442:45,1,160
484,112,44791,1,0,0:0:0:0:
420,249,44941,2,0,P|360:259|318:255,1,80
276,175,45241,1,0,0:0:0:0:
481,192,45391,2,0,P|504:256|494:292,1,80
433,343,45691,1,0,0:0:0:0:
329,334,45841,1,0,0:0:0:0:
207,263,45991,6,0,L|206:174,1,80
124,107,46291,1,0,0:0:0:0:
124,107,46441,2,0,P|193:128|284:119,1,160
380,96,46891,2,0,P|425:93|472:103,1,80
510,189,47191,1,0,0:0:0:0:
305,266,47341,6,0,P|268:205|282:114,1,160
391,247,47791,2,0,P|387:302|287:356,1,160
207,323,48241,2,0,P|169:286|121:272,1,80
53,325,48541,1,0,0:0:0:0:
23,225,48691,1,0,0:0:0:0:
142,153,48841,2,0,L|235:152,1,80
303,217,49141,1,0,0:0:0:0:
314,221,49441,5,0,0:0:0:0:
412,310,49591,1,0,0:0:0:0:
478,196,49741,2,0,L|480:24,1,160
376,50,50191,1,0,0:0:0:0:
276,79,50341,2,0,L|183:76,1,80
96,109,50641,1,0,0:0:0:0:
183,251,50791,6,0,P|233:242|266:222,1,80
362,230,51091,2,0,L|357:391,1,160
255,365,51541,1,0,0:0:0:0:
155,333,51691,2,0,P|101:324|51:328,1,80
32,229,51991,1,0,0:0:0:0:
96,109,52141,6,0,B|144:82|144:82|271:88,1,160
311,169,52591,1,0,0:0:0:0:
370,254,52741,2,0,L|470:263,1,80
502,351,53041,1,0,0:0:0:0:
398,351,53191,1,0,0:0:0:0:
247,328,53341,6,0,P|185:292|171:269,1,80
311,169,53641,2,0,L|311:258,1,80
218,203,53941,1,0,0:0:0:0:
217,193,54241,5,0,0:0:0:0:
120,91,54391,1,0,0:0:0:0:
42,221,54541,2,0,P|36:287|42:332,1,80
136,325,54841,1,0,0:0:0:0:
217,193,54991,2,0,L|218:91,1,80
314,75,55291,1,0,0:0:0:0:
400,133,55441,1,0,0:0:0:0:
217,193,55591,6,0,P|206:259|212:360,1,160
313,333,56041,2,0,P|375:313|412:314,1,80
491,336,56341,1,0,0:0:0:0:
469,215,56491,6,0,L|381:210,1,80
321,131,56791,1,0,0:0:0:0:
501,127,56941,2,0,L|324:116,1,160
236,120,57391,2,0,P|178:152|52:152,1,160
92,56,57841,1,0,0:0:0:0:
185,10,57991,1,0,0:0:0:0:
236,120,58141,6,0,L|229:248,2,120
336,89,58741,1,0,0:0:0:0:
384,237,58941,1,0,0:0:0:0:
466,125,59141,1,0,0:0:0:0:
455,295,59341,6,0,P|412:323|296:268,1,160
212,246,59716,1,0,0:0:0:0:
198,230,59791,2,0,P|133:232|86:247,1,80
57,319,60091,1,0,0:0:0:0:
34,172,60241,6,0,L|26:47,1,120
124,57,60541,2,0,P|196:67|264:47,1,120
323,91,60841,2,0,B|351:127|351:127|348:254,1,160
241,325,61291,6,0,P|186:334|141:335,1,80
133,235,61591,1,0,0:0:0:0:
348,241,61741,2,0,P|403:248|487:180,1,160
323,91,62191,2,0,L|255:86,2,40
350,97,62416,1,0,0:0:0:0:
377,101,62491,1,0,0:0:0:0:
404,94,62566,1,0,0:0:0:0:
428,80,62641,1,0,0:0:0:0:
441,55,62716,1,0,0:0:0:0:
440,27,62791,1,0,0:0:0:0:
418,9,62866,1,0,0:0:0:0:
390,6,62941,6,0,L|230:12,1,139.999995727539
155,74,63380,2,0,L|149:170,1,69.9999978637696
201,239,63672,1,0,0:0:0:0:
345,294,63819,6,0,P|402:273|438:218,1,104.999996795654
378,155,64111,2,0,L|243:149,1,104.999996795654
201,239,64404,2,0,P|203:306|193:368,1,104.999996795654
56,254,64697,6,0,P|62:180|77:127,1,104.999996795654
273,150,64989,2,0,P|308:201|304:272,1,104.999996795654
149,69,65282,2,0,L|272:53,1,104.999996795654
371,173,65575,2,0,P|318:172|251:128,1,104.999996795654
462,123,65867,2,0,P|497:194|490:241,1,104.999996795654
406,312,66160,5,0,0:0:0:0:
363,302,66233,1,0,0:0:0:0:
319,297,66306,1,0,0:0:0:0:
275,297,66380,1,0,0:0:0:0:
232,308,66453,1,0,0:0:0:0:
178,335,66526,1,0,0:0:0:0:
119,346,66599,1,0,0:0:0:0:
75,331,66672,1,0,0:0:0:0:
28,308,66745,2,0,L|29:180,1,104.999996795654
100,137,67038,6,0,P|153:118|201:109,1,100
275,297,67330,1,0,0:0:0:0:
398,201,67477,2,0,L|399:86,1,100
195,109,67769,1,0,0:0:0:0:
406,294,67916,2,0,P|456:278|487:228,1,100
181,199,68208,2,0,B|158:240|158:240|155:407,1,200
275,297,68647,1,0,0:0:0:0:
181,199,68794,6,0,P|103:173|49:175,1,100
383,381,69086,2,0,P|453:368|500:329,1,100
336,148,69379,1,0,0:0:0:0:
275,297,69525,1,0,0:0:0:0:
421,264,69672,1,0,0:0:0:0:
234,195,69818,1,0,0:0:0:0:
391,60,69964,1,0,0:0:0:0:
335,234,70111,1,0,0:0:0:0:
230,84,70257,1,0,0:0:0:0:
129,281,70403,1,0,0:0:0:0:
36,108,70550,6,0,B|77:85|77:85|237:83,1,200
335,234,70989,1,0,0:0:0:0:
391,60,71135,1,0,0:0:0:0:
463,276,71281,1,0,0:0:0:0:
402,150,71428,1,0,0:0:0:0:
335,234,71574,1,0,0:0:0:0:
286,306,71720,2,0,P|344:322|384:306,1,100
221,232,72013,6,0,P|121:210|-6:248,2,200
150,327,72745,1,0,0:0:0:0:
219,134,72891,2,0,P|143:103|91:100,1,100
344,85,73184,2,0,P|398:61|465:54,1,100
335,209,73477,2,0,P|345:284|338:332,1,100
221,232,73769,1,0,0:0:0:0:
438,199,73916,1,0,0:0:0:0:
344,85,74062,5,0,0:0:0:0:
343,308,74208,1,0,0:0:0:0:
216,91,74355,1,0,0:0:0:0:
200,328,74501,1,0,0:0:0:0:
438,199,74647,1,0,0:0:0:0:
274,24,74794,1,0,0:0:0:0:
501,48,74940,2,0,L|499:155,1,100
328,204,75233,5,0,0:0:0:0:
287,184,75306,1,0,0:0:0:0:
242,184,75379,1,0,0:0:0:0:
202,202,75452,1,0,0:0:0:0:
172,235,75525,1,0,0:0:0:0:
159,276,75598,1,0,0:0:0:0:
119,305,75671,1,0,0:0:0:0:
70,309,75744,1,0,0:0:0:0:
26,287,75817,5,0,0:0:0:0:
0,245,75890,1,0,0:0:0:0:
1,195,75963,1,0,0:0:0:0:
18,150,76037,1,0,0:0:0:0:
71,155,76110,1,0,0:0:0:0:
118,129,76183,1,0,0:0:0:0:
141,80,76256,1,0,0:0:0:0:
144,28,76330,1,0,0:0:0:0:
68,10,76403,6,0,P|9:34|-23:72,1,100
18,150,76696,1,0,0:0:0:0:
225,152,76842,2,0,P|256:98|263:34,1,100
144,28,77135,1,0,0:0:0:0:
170,228,77281,2,0,P|236:244|301:213,1,100
477,306,77574,2,0,P|410:271|287:319,1,200
387,378,78013,5,0,0:0:0:0:
466,201,78159,2,0,L|469:80,1,100
314,75,78452,1,0,0:0:0:0:
265,236,78598,1,0,0:0:0:0:
109,102,78745,6,0,P|76:158|69:221,1,100
150,318,79037,1,0,0:0:0:0:
265,236,79184,1,0,0:0:0:0:
158,174,79330,1,0,0:0:0:0:
266,359,79477,1,0,0:0:0:0:
374,181,79623,2,0,L|376:60,1,100
243,60,79916,5,0,0:0:0:0:
158,174,80062,1,0,0:0:0:0:
283,150,80208,1,0,0:0:0:0:
72,127,80355,2,0,P|62:199|81:237,1,100
158,174,80647,1,0,0:0:0:0:
158,174,80720,1,0,0:0:0:0:
158,174,80794,1,0,0:0:0:0:
121,44,80940,1,0,0:0:0:0:
254,241,81086,5,0,0:0:0:0:
254,241,81159,1,0,0:0:0:0:
254,241,81233,1,0,0:0:0:0:
361,328,81379,1,0,0:0:0:0:
407,131,81525,1,0,0:0:0:0:
407,131,81598,1,0,0:0:0:0:
407,131,81672,1,0,0:0:0:0:
235,128,81818,1,0,0:0:0:0:
431,260,81964,5,0,0:0:0:0:
431,260,82037,1,0,0:0:0:0:
431,260,82111,1,0,0:0:0:0:
502,126,82257,1,0,0:0:0:0:
339,56,82403,1,0,0:0:0:0:
333,218,82550,1,0,0:0:0:0:
166,57,82696,1,0,0:0:0:0:
129,274,82842,1,0,0:0:0:0:
359,325,82989,2,0,P|411:290|437:240,1,100
240,162,83281,5,0,0:0:0:0:
56,224,83428,2,0,P|44:306|138:358,1,200
