osu file format v14

[General]
AudioFilename: audio.mp3
AudioLeadIn: 0
PreviewTime: -1
Countdown: 0
SampleSet: None
StackLeniency: 0.7
Mode: 0
LetterboxInBreaks: 0
WidescreenStoryboard: 0

[Editor]
DistanceSpacing: 1
BeatDivisor: 5
GridSize: 8
TimelineZoom: 1

[Metadata]
Title:VIKLUCHATEL
TitleUnicode:VIKLUCHATEL
Artist:163ONMYNECK
ArtistUnicode:163ONMYNECK
Creator:tempifly
Version:Insane
Source:
Tags:
BeatmapID:4556584
BeatmapSetID:2160770

[Difficulty]
HPDrainRate:6
CircleSize:3
OverallDifficulty:6
ApproachRate:9
SliderMultiplier:1.4
SliderTickRate:1

[Events]
//Background and Video events
0,0,"maxresdefault.jpg",0,0
//Break Periods
//Storyboard Layer 0 (Background)
//Storyboard Layer 1 (Fail)
//Storyboard Layer 2 (Pass)
//Storyboard Layer 3 (Foreground)
//Storyboard Layer 4 (Overlay)
//Storyboard Sound Samples

[TimingPoints]
0,292.682926829268,4,1,0,100,1,0

[HitObjects]
96,205,1170,6,0,L|129:203,1,28
200,202,1521,2,0,L|229:196,1,28
317,204,1756,2,0,L|356:204,1,35
236,198,2048,1,0,0:0:0:0:
160,143,2341,2,0,P|220:118|299:167,2,140
229,185,3094,2,0,L|197:170,1,20
178,151,3219,2,0,L|198:129,1,28
299,192,3512,1,0,0:0:0:0:
211,276,3658,2,0,P|269:277|270:278,2,35
292,108,3951,1,0,0:0:0:0:
128,144,4097,1,0,0:0:0:0:
190,211,4243,2,0,L|242:149,1,70
286,187,4536,2,0,L|322:122,1,70
127,212,4829,1,0,0:0:0:0:
127,212,4975,2,0,P|176:160|178:160,2,70
251,108,5414,1,0,0:0:0:0:
251,255,5560,1,0,0:0:0:0:
160,189,5707,1,0,0:0:0:0:
197,190,5853,1,0,0:0:0:0:
195,278,5970,2,0,L|225:272,3,28
173,110,6292,1,0,0:0:0:0:
173,110,6365,1,0,0:0:0:0:
173,110,6439,1,0,0:0:0:0:
300,69,6585,1,0,0:0:0:0:
300,69,6731,2,0,L|210:197,1,140
224,241,7317,2,0,L|322:124,1,140
72,76,7902,2,0,L|197:173,1,140
268,306,8487,2,0,L|318:154,1,140
196,170,9073,2,0,L|215:179,11,15.5555555555556
215,179,9398,2,0,L|276:194,1,62.2222222222222
137,190,10536,5,0,0:0:0:0:
204,147,10829,2,0,P|283:138|311:189,1,140
142,253,11414,2,0,L|204:274,3,46.6666666666667
135,188,11853,1,0,0:0:0:0:
138,120,11999,1,0,0:0:0:0:
190,177,12000,1,0,0:0:0:0:
107,111,12175,1,0,0:0:0:0:
106,125,12292,2,0,P|184:52|232:69,1,140
154,210,12780,1,0,0:0:0:0:
205,154,12878,2,0,P|239:205|279:227,2,93.3333333333333
293,136,13346,5,0,0:0:0:0:
262,172,13463,2,0,L|286:144,5,28
134,223,14048,1,0,0:0:0:0:
134,223,14195,2,0,L|183:209,1,35
242,198,14341,1,0,0:0:0:0:
240,85,14634,1,0,0:0:0:0:
322,183,14780,2,0,L|311:141,1,35
322,183,14926,1,0,0:0:0:0:
272,75,15219,2,0,L|299:107,1,28
215,149,15512,1,0,0:0:0:0:
131,182,15658,1,0,0:0:0:0:
261,187,15804,2,0,L|297:162,1,35
104,164,16097,1,0,0:0:0:0:
217,69,16243,2,0,L|213:127,1,35
341,111,16390,1,0,0:0:0:0:
223,249,16565,1,0,0:0:0:0:
223,249,16682,2,0,L|195:222,1,28
159,162,16975,1,0,0:0:0:0:
285,148,17268,1,0,0:0:0:0:
225,253,17414,2,0,L|226:198,1,35
178,223,17678,2,0,L|218:209,1,28
215,96,17853,1,0,0:0:0:0:
359,174,18029,1,0,0:0:0:0:
359,174,18146,1,0,0:0:0:0:
175,191,18439,1,0,0:0:0:0:
265,117,18731,2,0,L|306:259,1,140
303,251,19024,2,0,L|152:225,1,140
165,227,19317,2,0,L|192:86,1,140
191,89,19609,2,0,L|336:111,1,140
329,110,19902,1,0,0:0:0:0:
199,218,20195,1,0,0:0:0:0:
108,77,20487,1,0,0:0:0:0:
205,83,20707,6,0,L|231:85,4,17.5
171,251,21073,6,0,P|192:181|234:108,2,140
121,165,21834,2,0,L|158:155,4,28
216,78,22243,1,0,0:0:0:0:
373,157,22419,1,0,0:0:0:0:
398,176,22536,1,0,0:0:0:0:
162,286,22712,1,0,0:0:0:0:
125,288,22829,1,0,0:0:0:0:
179,152,23004,1,0,0:0:0:0:
205,178,23121,1,0,0:0:0:0:
360,157,23297,1,0,0:0:0:0:
360,172,23414,1,0,0:0:0:0:
265,267,23707,1,0,0:0:0:0:
255,77,23999,1,0,0:0:0:0:
126,203,24175,1,0,0:0:0:0:
108,196,24292,1,0,0:0:0:0:
226,226,24468,1,0,0:0:0:0:
226,264,24585,2,0,L|230:233,1,28
183,119,24878,2,0,L|181:156,1,28
265,110,25053,2,0,L|264:160,1,28
191,267,25346,2,0,L|388:163,1,196
208,149,26048,2,0,L|229:188,1,28
310,183,26165,1,0,0:0:0:0:
169,248,26341,1,0,0:0:0:0:
123,95,26634,1,0,0:0:0:0:
357,89,26926,1,0,0:0:0:0:
241,178,27219,1,0,0:0:0:0:
317,211,27512,1,0,0:0:0:0:
121,190,27687,1,0,0:0:0:0:
121,190,27804,2,0,L|151:170,1,28
251,255,28097,2,0,B|264:197|259:173|241:159|226:157|213:159|194:172|186:186,1,140
