osu file format v14

[General]
AudioFilename: audio.mp3
AudioLeadIn: 0
PreviewTime:52096
Countdown: 0
SampleSet: Soft
StackLeniency: 1
Mode: 0
LetterboxInBreaks: 0
WidescreenStoryboard: 1

[Editor]
Bookmarks: 12800,21421,52121,61721,116921,126521,161321,166121
DistanceSpacing: 2.3
BeatDivisor: 4
GridSize: 4
TimelineZoom: 2.3

[Metadata]
Title:Makeinu Shijou Shugi
TitleUnicode:負け犬至上主義
Artist:150P
ArtistUnicode:150P
Creator:Nevo
Version:synderes' Insane
Source:終焉ノ栞プロジェクト
Tags:vocaloid japanese IA bookmark of demise project Shuuen no Shiori Underdog Supremacy supermacist Doctrine A-ya aya C-ta cta D-ne dne B-ko bko neko anime boy glaceon frostwich lieeleid novelty synderes
BeatmapID:2261266
BeatmapSetID:958419

[Difficulty]
HPDrainRate:5
CircleSize:4
OverallDifficulty:7
ApproachRate:8.5
SliderMultiplier:1.4
SliderTickRate:1

[Events]
//Background and Video events
0,0,"8791bf17-386e-4f2b-a8a7-d321aad8f47f.jpg",0,0
//Break Periods
2,89500,95525
//Storyboard Layer 0 (Background)
//Storyboard Layer 1 (Fail)
//Storyboard Layer 2 (Pass)
//Storyboard Layer 3 (Foreground)
//Storyboard Layer 4 (Overlay)
//Storyboard Sound Samples

[TimingPoints]
500,300,4,2,1,80,1,0
500,-83.3333333333333,4,2,1,80,0,0
18500,-86.9565217391304,4,2,1,80,0,0
20900,-100,4,2,1,60,0,0
29900,-90.9090909090909,4,2,1,60,0,0
30500,-90.9090909090909,4,2,1,70,0,0
30537,-86.9565217391304,4,2,1,70,0,0
40100,-142.857142857143,4,2,1,60,0,0
43700,-86.9565217391304,4,2,1,70,0,0
44900,-100,4,2,1,60,0,0
48500,-100,4,2,1,70,0,0
52100,-83.3333333333333,4,2,1,85,0,1
71300,-83.3333333333333,4,2,1,60,0,0
73400,-142.857142857143,4,2,1,60,0,0
73700,-142.857142857143,4,2,1,70,0,0
78500,-86.9565217391304,4,2,1,70,0,0
89300,-86.9565217391304,4,2,1,60,0,0
96200,-86.9565217391304,4,2,1,70,0,0
96500,-83.3333333333333,4,2,1,85,0,1
110900,-83.3333333333333,4,2,1,65,0,1
113000,-142.857142857143,4,2,1,65,0,0
115700,-83.3333333333333,4,2,1,80,0,0
136700,-83.3333333333333,4,2,1,65,0,0
138950,-83.3333333333333,4,2,1,30,0,0

[Colours]
Combo1 : 254,84,135
Combo2 : 252,95,86
Combo3 : 0,142,210
Combo4 : 251,196,94

[HitObjects]
206,76,500,5,6,3:2:0:0:
141,112,650,2,0,B|148:153|146:195,1,83.9999974365235,0|8,3:2|0:0,0:0:0:0:
261,341,950,2,0,B|254:300|255:257,1,83.9999974365235,2|0,3:2|3:2,0:0:0:0:
77,310,1250,2,0,B|118:303|160:304,1,83.9999974365235,0|8,3:2|0:0,0:0:0:0:
276,173,1550,6,0,B|380:153|363:53,1,167.999994873047,2|0,3:2|3:2,0:0:0:0:
292,11,2000,2,0,B|251:18|208:16,1,83.9999974365235,8|2,0:0|3:2,0:0:0:0:
45,129,2300,2,0,B|128:114|215:117,1,167.999994873047,0|8,3:2|0:0,0:0:0:0:
274,246,2750,5,2,3:2:0:0:
274,246,2825,1,0,0:0:0:0:
274,246,2900,1,2,3:2:0:0:
231,309,3050,1,0,3:2:0:0:
293,352,3200,2,0,B|336:350|377:357,1,83.9999974365235,8|2,0:0|3:2,0:0:0:0:
461,227,3500,1,0,3:2:0:0:
457,152,3650,2,0,B|371:163|305:84,1,167.999994873047,0|2,3:2|3:2,0:0:0:0:
210,23,4100,6,0,B|229:60|214:105,1,83.9999974365235,2|0,3:2|3:2,0:0:0:0:
284,211,4400,2,0,B|204:195|196:272|128:283,1,167.999994873047,8|0,0:0|3:2,0:0:0:0:
348,264,4850,1,0,3:2:0:0:
473,376,5000,1,8,0:0:0:0:
473,376,5075,1,0,0:0:0:0:
473,376,5150,1,2,3:2:0:0:
473,376,5225,1,8,0:0:0:0:
473,376,5300,6,0,B|503:304|478:211,1,167.999994873047,2|8,3:2|0:0,0:0:0:0:
444,145,5750,1,2,3:2:0:0:
305,188,5900,1,0,3:2:0:0:
299,109,6050,2,0,B|256:111|215:104,1,83.9999974365235,0|8,3:2|0:0,0:0:0:0:
77,173,6350,6,0,B|171:201|178:292,1,167.999994873047,2|0,3:2|3:2,0:0:0:0:
273,374,6800,2,0,B|266:333|268:290,1,83.9999974365235,8|2,0:0|3:2,0:0:0:0:
363,190,7100,1,0,3:2:0:0:
422,240,7250,1,0,3:2:0:0:
494,211,7400,2,0,B|492:254|499:295,1,83.9999974365235,8|2,0:0|3:2,0:0:0:0:
368,98,7700,6,0,B|370:55|363:14,1,83.9999974365235,2|0,3:2|3:2,0:0:0:0:
152,49,8000,2,0,B|230:48|288:138,1,167.999994873047,8|0,0:0|3:2,0:0:0:0:
171,181,8450,1,0,3:2:0:0:
117,236,8600,2,0,B|76:229|33:231,1,83.9999974365235,8|2,0:0|3:2,0:0:0:0:
195,333,8900,6,0,B|307:313|261:375|362:371,1,167.999994873047,2|8,3:2|0:0,0:0:0:0:
421,209,9350,1,6,3:2:0:0:
411,132,9500,2,0,B|452:139|495:137,1,83.9999974365235,6|6,3:2|3:2,0:0:0:0:
494,137,9725,1,8,0:0:0:0:
494,137,9800,1,8,0:0:0:0:
422,47,9950,1,6,3:2:0:0:
302,157,10100,5,6,3:2:0:0:
237,200,10250,2,0,B|196:193|153:195,1,83.9999974365235,0|8,3:2|0:0,0:0:0:0:
75,335,10550,2,0,B|82:294|80:251,1,83.9999974365235,2|0,3:2|3:2,0:0:0:0:
13,105,10850,2,0,B|6:146|8:189,1,83.9999974365235,0|8,3:2|0:0,0:0:0:0:
181,308,11150,6,0,B|267:322|357:318,1,167.999994873047,2|0,3:2|3:2,0:0:0:0:
432,370,11600,2,0,B|458:331|441:283,1,83.9999974365235,8|2,0:0|3:2,0:0:0:0:
344,99,11900,2,0,B|374:191|471:203,1,167.999994873047,0|8,3:2|0:0,0:0:0:0:
251,128,12350,5,2,3:2:0:0:
251,128,12425,1,0,0:0:0:0:
251,128,12500,1,2,3:2:0:0:
182,167,12650,1,0,3:2:0:0:
251,208,12800,2,0,B|258:249|256:292,1,83.9999974365235,8|2,0:0|3:2,0:0:0:0:
58,369,13100,1,0,3:2:0:0:
40,294,13250,2,0,B|140:289|110:337|197:346,1,167.999994873047,0|2,3:2|3:2,0:0:0:0:
265,377,13700,6,0,B|306:370|349:372,1,83.9999974365235,2|0,3:2|3:2,0:0:0:0:
415,255,14000,2,0,B|320:271|221:266,1,167.999994873047,8|0,0:0|3:2,0:0:0:0:
432,340,14450,1,0,3:2:0:0:
428,176,14600,1,8,0:0:0:0:
428,176,14675,1,0,0:0:0:0:
428,176,14750,1,2,3:2:0:0:
428,176,14825,1,8,0:0:0:0:
428,176,14900,6,0,B|327:146|312:44,1,167.999994873047,2|8,3:2|0:0,0:0:0:0:
245,24,15350,1,2,3:2:0:0:
155,136,15500,1,0,3:2:0:0:
81,132,15650,2,0,B|88:173|86:216,1,83.9999974365235,0|8,3:2|0:0,0:0:0:0:
223,303,15950,6,0,B|219:231|235:135,1,167.999994873047,2|0,3:2|3:2,0:0:0:0:
283,47,16400,2,0,B|242:54|199:52,1,83.9999974365235,8|2,0:0|3:2,0:0:0:0:
392,117,16700,1,0,3:2:0:0:
329,163,16850,1,0,3:2:0:0:
392,209,17000,2,0,B|433:202|476:204,1,83.9999974365235,8|2,0:0|3:2,0:0:0:0:
356,356,17300,5,10,3:2:0:0:
309,261,17450,1,8,0:0:0:0:
214,308,17600,1,8,0:0:0:0:
167,213,17750,1,8,0:0:0:0:
72,260,17900,1,8,0:0:0:0:
72,260,18125,1,0,0:0:0:0:
72,260,18200,2,0,B|79:301|77:344,1,83.9999974365235,8|0,0:0|0:0,0:0:0:0:
4,190,18500,6,0,B|45:103|131:111,1,161.000003070831,6|8,3:2|0:0,0:0:0:0:
131,111,18950,1,2,3:2:0:0:
332,80,19100,2,0,B|253:87|215:7,1,120.750002303124,8|0,0:0|0:0,0:0:0:0:
228,31,19400,2,0,L|194:40,4,20.1250003838539,8|0|0|0|2,0:0|0:0|0:0|0:0|3:2,0:0:0:0:
444,272,20900,5,6,3:2:0:0:
354,127,21050,2,0,B|404:199|469:197,1,140,0|0,3:2|0:0,0:0:0:0:
468,197,21500,1,0,1:0:0:0:
468,197,21800,1,0,1:0:0:0:
368,307,21950,6,0,B|313:313|228:350,1,140,6|6,3:2|3:2,0:0:0:0:
196,279,22400,2,0,B|214:255|233:208,1,70,0|0,1:0|0:0,0:0:0:0:
229,217,22700,1,0,1:0:0:0:
229,217,23000,2,0,B|265:232|296:236,1,70,0|0,1:0|0:0,0:0:0:0:
137,88,23300,5,6,3:2:0:0:
37,162,23450,2,0,B|59:97|55:23,1,140,0|0,3:2|0:0,0:0:0:0:
55,24,23900,1,0,1:0:0:0:
55,24,24200,1,0,1:0:0:0:
217,106,24350,6,0,B|284:117|341:176,1,140,6|6,3:2|3:2,0:0:0:0:
418,30,24800,2,0,B|441:93|419:172,2,140,2|2|2,3:2|3:2|3:2,0:0:0:0:
507,107,25550,1,0,0:0:0:0:
374,237,25700,5,6,3:2:0:0:
380,310,25850,2,0,B|320:295|240:295,1,140,0|0,3:2|0:0,0:0:0:0:
241,295,26300,1,0,1:0:0:0:
241,295,26600,1,0,1:0:0:0:
45,257,26750,6,0,B|105:242|185:242,1,140,6|6,3:2|3:2,0:0:0:0:
150,155,27200,2,0,B|115:163|80:163,1,70,0|0,1:2|0:0,0:0:0:0:
80,163,27500,1,0,1:2:0:0:
80,163,27800,2,0,B|114:154|149:154,1,70,0|0,1:2|0:0,0:0:0:0:
297,214,28100,5,6,3:2:0:0:
261,355,28250,1,0,3:2:0:0:
62,34,29900,5,14,0:0:0:0:
182,71,30050,1,0,3:0:0:0:
302,108,30200,2,0,B|291:63|291:18,1,77.0000023498536,14|0,0:0|0:0,0:0:0:0:
302,108,30500,5,6,3:2:0:0:
256,174,30650,2,0,B|256:205|244:253,1,80.5000015354157,2|8,3:2|0:0,0:0:0:0:
291,312,30950,1,0,3:2:0:0:
58,253,31100,1,0,3:2:0:0:
125,220,31250,2,0,B|156:278|139:377,1,161.000003070831,0|2,3:2|3:2,0:0:0:0:
86,148,31700,6,0,B|94:98|92:67,1,80.5000015354157,2|2,3:2|3:2,0:0:0:0:
220,5,32000,2,0,B|220:91|319:134,1,161.000003070831,8|0,0:0|0:0,0:0:0:0:
216,215,32450,1,0,3:2:0:0:
216,290,32600,2,0,B|166:282|135:284,1,80.5000015354157,8|2,0:0|3:2,0:0:0:0:
334,211,32900,5,2,3:2:0:0:
411,228,33050,2,0,B|403:178|405:147,1,80.5000015354157,2|8,3:2|0:0,0:0:0:0:
441,81,33350,1,0,3:2:0:0:
504,283,33500,1,2,3:2:0:0:
441,319,33650,2,0,B|352:304|368:381|270:384,1,161.000003070831,0|6,3:2|3:2,0:0:0:0:
169,265,34100,5,8,0:0:0:0:
169,265,34175,1,8,0:0:0:0:
169,265,34250,1,8,0:0:0:0:
152,340,34400,1,8,0:0:0:0:
49,164,34625,1,8,0:0:0:0:
49,164,34700,1,10,0:0:0:0:
124,147,34850,1,0,0:0:0:0:
199,130,35000,2,0,B|249:138|280:136,1,80.5000015354157,14|0,0:0|0:0,0:0:0:0:
395,233,35300,5,6,3:2:0:0:
339,279,35450,2,0,B|347:329|345:360,1,80.5000015354157,0|8,3:2|0:0,0:0:0:0:
273,383,35750,1,0,3:2:0:0:
188,239,35900,1,2,3:2:0:0:
119,264,36050,2,0,B|28:249|21:147,1,161.000003070831,0|2,3:2|3:2,0:0:0:0:
255,194,36500,6,0,B|268:156|249:113,1,80.5000015354157,2|0,3:2|3:2,0:0:0:0:
155,12,36800,2,0,B|106:65|112:161,1,161.000003070831,8|2,0:0|3:2,0:0:0:0:
261,32,37250,1,0,3:2:0:0:
333,67,37400,2,0,B|383:59|414:61,1,80.5000015354157,8|2,0:0|3:2,0:0:0:0:
428,195,37700,6,0,B|378:203|347:201,1,80.5000015354157,2|0,3:2|3:0,0:0:0:0:
502,267,38000,2,0,B|412:284|379:385,1,161.000003070831,8|2,0:0|3:2,0:0:0:0:
315,334,38450,1,0,3:0:0:0:
240,353,38600,2,0,B|242:322|234:272,1,80.5000015354157,8|2,0:0|3:2,0:0:0:0:
46,153,38900,6,0,B|139:126|123:224|223:200,2,161.000003070831,2|8|8,3:2|0:0|0:0,0:0:0:0:
215,92,39650,1,0,0:0:0:0:
155,46,39800,2,0,L|160:5,3,40.2500007677078,8|0|0|0,0:0|0:0|0:0|0:0,0:0:0:0:
155,46,40100,6,0,B|209:0|270:47|335:81|398:29,1,244.999992523194,2|0,3:2|0:0,0:0:0:0:
454,78,41000,1,2,0:0:0:0:
387,193,41300,2,0,B|367:278|367:338,1,146.999995513916,6|2,3:2|0:0,0:0:0:0:
288,376,41900,2,0,B|289:340|275:280,1,97.9999970092774,2|0,0:0|1:0,0:0:0:0:
274,279,42350,1,0,0:0:0:0:
33,223,42500,6,0,B|139:226|154:125,1,171.499994766236,6|0,3:2|0:0,0:0:0:0:
153,127,43100,2,0,B|213:141|249:140,1,97.9999970092774,0|2,0:0|0:0,0:0:0:0:
466,312,43700,6,0,B|458:262|460:231,1,80.5000015354157,14|8,0:0|0:0,0:0:0:0:
338,56,44000,2,0,B|346:106|344:137,1,80.5000015354157,8|8,0:0|0:0,0:0:0:0:
283,322,44300,1,14,0:0:0:0:
186,270,44450,1,8,0:0:0:0:
238,173,44600,1,8,0:0:0:0:
335,225,44750,1,8,0:0:0:0:
261,248,44900,5,2,0:0:0:0:
238,173,45050,2,0,L|254:133,2,35,0|0|2,0:0|0:0|0:0,0:0:0:0:
238,173,45350,1,0,0:0:0:0:
146,108,45500,5,2,0:0:0:0:
73,140,45650,2,0,L|40:127,2,35,0|0|2,0:0|0:0|0:0,0:0:0:0:
73,140,45950,1,0,0:0:0:0:
152,244,46100,5,2,0:0:0:0:
117,310,46250,2,0,L|104:342,2,35,0|0|2,0:0|0:0|0:0,0:0:0:0:
117,310,46550,1,0,0:0:0:0:
268,363,46700,5,2,0:0:0:0:
372,250,46850,1,0,0:0:0:0:
372,250,47000,2,0,B|361:194|359:145,1,105,2|0,0:0|0:0,0:0:0:0:
359,145,47300,5,14,0:0:0:0:
207,105,47450,1,8,0:0:0:0:
44,285,47900,5,14,0:0:0:0:
196,245,48050,1,8,0:0:0:0:
431,372,48500,6,0,B|460:302|432:226,1,140,14|10,0:0|0:0,0:0:0:0:
236,178,48950,2,0,B|207:248|235:324,1,140,2|0,3:2|0:0,0:0:0:0:
289,115,49400,2,0,B|282:82|276:44,1,70,8|0,0:0|0:0,0:0:0:0:
135,0,49700,6,0,B|132:65|116:138,1,140,14|0,0:0|0:0,0:0:0:0:
115,138,50150,1,14,0:0:0:0:
120,361,50300,2,0,B|104:288|101:223,1,140,10|8,0:0|0:0,0:0:0:0:
28,198,50750,1,0,0:0:0:0:
204,250,50900,6,0,B|267:237|305:224,1,105,2|8,0:0|0:0,0:0:0:0:
305,224,51200,2,0,L|301:266,3,35,8|8|8|8,0:0|0:0|0:0|0:0,0:0:0:0:
362,165,51500,1,8,0:0:0:0:
384,185,51575,1,8,0:0:0:0:
413,192,51650,1,8,0:0:0:0:
448,188,51725,1,8,0:0:0:0:
448,188,51800,2,0,B|442:233|442:292,1,105,14|0,0:0|0:0,0:0:0:0:
441,292,52100,6,0,B|349:296|293:392,1,167.999994873047,6|8,3:2|0:0,0:0:0:0:
227,350,52550,1,0,0:0:0:0:
311,229,52700,1,2,3:2:0:0:
299,151,52850,2,0,B|352:158|382:153,1,83.9999974365235,0|8,3:2|0:0,0:0:0:0:
244,42,53150,6,0,B|134:27|70:37,1,167.999994873047,2|0,0:0|0:0,0:0:0:0:
15,108,53600,2,0,B|8:161|13:191,1,83.9999974365235,8|0,0:0|0:0,0:0:0:0:
164,304,53900,2,0,B|171:251|166:221,1,83.9999974365235,2|0,3:2|3:2,0:0:0:0:
295,339,54200,1,8,0:0:0:0:
226,365,54350,1,2,0:0:0:0:
263,157,54500,5,6,3:2:0:0:
332,183,54650,1,0,0:0:0:0:
165,220,54800,2,0,B|172:167|167:137,1,83.9999974365235,8|0,0:0|0:0,0:0:0:0:
310,30,55100,1,2,3:2:0:0:
379,68,55250,2,0,B|469:104|476:213,1,167.999994873047,0|2,3:2|0:0,0:0:0:0:
256,247,55700,6,0,B|305:226|328:207,1,83.9999974365235,0|0,3:0|0:0,0:0:0:0:
414,331,56000,2,0,B|409:301|416:248,1,83.9999974365235,8|0,0:0|0:0,0:0:0:0:
335,384,56300,2,0,B|292:351|264:341,1,83.9999974365235,2|0,3:2|3:2,0:0:0:0:
59,255,56600,1,8,0:0:0:0:
59,255,56675,1,2,0:0:0:0:
59,255,56750,1,2,0:0:0:0:
59,255,56825,1,2,0:0:0:0:
59,255,56900,6,0,B|149:235|154:130,1,167.999994873047,6|8,3:2|0:0,0:0:0:0:
231,142,57350,1,0,0:0:0:0:
322,19,57500,1,2,3:2:0:0:
373,78,57650,2,0,B|366:131|371:161,1,83.9999974365235,0|8,3:2|0:0,0:0:0:0:
484,275,57950,6,0,B|499:160|488:96,1,167.999994873047,2|0,0:0|0:0,0:0:0:0:
334,256,58400,1,8,0:0:0:0:
415,328,58550,1,0,0:0:0:0:
280,378,58700,2,0,B|227:371|197:376,1,83.9999974365235,2|0,3:2|3:2,0:0:0:0:
27,360,59000,2,0,B|58:291|126:291,1,125.999996154785,8|0,0:0|0:0,0:0:0:0:
123,291,59300,6,0,B|27:262|-6:154,1,167.999994873047,6|8,3:2|0:0,0:0:0:0:
127,64,59750,1,0,0:0:0:0:
194,98,59900,2,0,B|300:90|272:140|374:153,1,167.999994873047,2|8,3:2|0:0,0:0:0:0:
300,304,60350,1,2,0:0:0:0:
282,220,60500,5,6,3:2:0:0:
234,366,60725,5,2,3:2:0:0:
384,334,60950,5,0,0:0:0:0:
152,376,61100,2,0,B|157:346|150:293,1,83.9999974365235,2|0,3:2|3:2,0:0:0:0:
4,263,61400,1,8,0:0:0:0:
21,241,61475,1,0,0:0:0:0:
44,226,61550,1,2,0:0:0:0:
72,221,61625,1,0,0:0:0:0:
72,221,61700,6,0,B|116:151|135:66,1,167.999994873047,6|8,3:2|0:0,0:0:0:0:
197,20,62150,1,0,0:0:0:0:
380,167,62300,1,2,3:2:0:0:
310,131,62450,2,0,B|285:93|275:47,1,83.9999974365235,0|8,3:2|0:0,0:0:0:0:
204,159,62750,6,0,B|194:246|170:323,1,167.999994873047,2|0,0:0|0:0,0:0:0:0:
89,373,63200,2,0,B|59:335|67:293,1,83.9999974365235,8|0,0:0|0:0,0:0:0:0:
0,179,63500,2,0,B|17:134|58:119,1,83.9999974365235,2|0,3:2|3:2,0:0:0:0:
203,56,63800,1,8,0:0:0:0:
135,32,63950,1,2,0:0:0:0:
267,151,64100,5,6,3:2:0:0:
335,127,64250,1,0,0:0:0:0:
234,233,64400,2,0,B|181:226|151:231,1,83.9999974365235,8|0,0:0|0:0,0:0:0:0:
15,320,64700,1,2,3:2:0:0:
87,333,64850,2,0,B|202:321|165:378|268:381,1,167.999994873047,0|2,3:2|0:0,0:0:0:0:
352,304,65300,6,0,B|358:259|341:221,1,83.9999974365235,0|0,3:0|0:0,0:0:0:0:
215,126,65600,2,0,B|250:153|291:158,1,83.9999974365235,8|0,0:0|0:0,0:0:0:0:
437,96,65900,2,0,B|395:113|370:146,1,83.9999974365235,2|0,3:2|3:2,0:0:0:0:
261,306,66200,1,8,0:0:0:0:
261,306,66275,1,8,0:0:0:0:
261,306,66350,1,8,0:0:0:0:
261,306,66425,1,8,0:0:0:0:
261,306,66500,6,0,B|181:275|95:280,1,167.999994873047,6|8,3:2|0:0,0:0:0:0:
47,224,66950,1,0,0:0:0:0:
158,121,67100,1,2,3:2:0:0:
97,80,67250,2,0,B|51:97|3:94,1,83.9999974365235,0|8,3:2|0:0,0:0:0:0:
255,4,67550,6,0,B|247:86|243:171,1,167.999994873047,2|0,0:0|0:0,0:0:0:0:
435,111,68000,1,8,0:0:0:0:
353,170,68150,1,0,0:0:0:0:
459,250,68300,2,0,B|466:303|461:333,1,83.9999974365235,2|0,3:2|3:2,0:0:0:0:
349,371,68600,2,0,B|286:365|223:368,1,125.999996154785,8|0,0:0|0:0,0:0:0:0:
223,367,68900,6,0,B|187:283|215:191,1,167.999994873047,6|8,3:2|0:0,0:0:0:0:
88,112,69350,1,0,0:0:0:0:
24,151,69500,2,0,B|30:241|18:318,1,167.999994873047,2|8,3:2|0:0,0:0:0:0:
222,71,69950,1,2,0:0:0:0:
127,12,70100,5,6,3:2:0:0:
70,104,70325,5,14,0:0:0:0:
163,162,70550,5,14,0:0:0:0:
328,82,70700,2,0,B|323:112|330:165,1,83.9999974365235,8|0,0:0|0:0,0:0:0:0:
355,178,70925,1,8,0:0:0:0:
380,167,71000,1,8,0:0:0:0:
405,178,71075,1,8,0:0:0:0:
423,199,71150,1,8,0:0:0:0:
430,226,71225,1,8,0:0:0:0:
430,226,71300,5,2,0:0:0:0:
430,226,73100,5,0,1:0:0:0:
238,314,73250,1,0,3:2:0:0:
381,352,73400,2,0,B|415:357|455:351,1,73.4999977569581,8|0,0:2|0:0,0:0:0:0:
454,351,73700,5,10,0:2:0:0:
398,147,73850,1,2,3:2:0:0:
312,28,74300,5,10,0:2:0:0:
256,232,74450,1,2,3:2:0:0:
154,369,74900,5,12,0:2:0:0:
125,267,75200,1,14,0:2:0:0:
96,165,75500,1,14,0:2:0:0:
276,29,75800,6,0,L|273:48,6,12.2499996261597,14|0|8|0|8|0|8,0:2|0:0|0:2|0:0|0:2|0:0|0:2,0:0:0:0:
276,29,76100,5,10,0:2:0:0:
493,99,76250,1,2,3:2:0:0:
257,179,76700,5,8,0:2:0:0:
40,249,76850,1,2,3:2:0:0:
284,308,77300,5,14,0:2:0:0:
392,342,77600,1,14,0:2:0:0:
500,376,77900,1,14,0:2:0:0:
161,295,78200,5,8,0:2:0:0:
136,299,78275,1,8,0:2:0:0:
112,303,78350,1,8,0:2:0:0:
88,308,78425,1,8,0:2:0:0:
88,308,78500,6,0,B|101:215|202:198,1,161.000003070831,2|8,3:2|0:2,0:0:0:0:
210,68,78950,2,0,B|239:97|247:138,1,80.5000015354157,0|0,3:2|0:0,0:0:0:0:
366,37,79250,1,0,0:0:0:0:
427,89,79400,2,0,B|461:81|506:75,1,80.5000015354157,8|0,0:2|0:0,0:0:0:0:
411,210,79700,2,0,B|435:236|462:271,1,80.5000015354157,0|0,3:0|3:0,0:0:0:0:
255,357,80000,2,0,B|260:271|331:190,2,161.000003070831,10|0|8,0:2|3:0|0:2,0:0:0:0:
255,357,80750,1,0,0:0:0:0:
104,231,80900,6,0,B|108:312|166:377,1,161.000003070831,0|8,3:0|0:2,0:0:0:0:
42,172,81350,2,0,B|55:125|58:93,1,80.5000015354157,0|0,3:0|3:0,0:0:0:0:
216,16,81650,1,0,3:0:0:0:
289,40,81800,2,0,B|292:72|305:119,1,80.5000015354157,8|0,0:2|0:0,0:0:0:0:
473,22,82100,6,0,B|466:89|439:189,1,161.000003070831,0|8,3:0|0:2,0:0:0:0:
496,276,82550,1,0,3:0:0:0:
391,365,82700,2,0,B|374:307|370:258,1,80.5000015354157,0|0,3:0|3:0,0:0:0:0:
254,188,83000,1,8,0:0:0:0:
249,214,83075,1,0,0:0:0:0:
245,240,83150,1,8,0:0:0:0:
241,267,83225,1,8,0:0:0:0:
241,267,83300,6,0,B|198:258|161:253,1,80.5000015354157,6|0,3:2|3:0,0:0:0:0:
23,84,83600,2,0,B|66:75|102:70,1,80.5000015354157,8|0,0:0|3:0,0:0:0:0:
308,24,83900,2,0,B|309:88|245:120,1,120.750002303124,8|0,0:0|0:0,0:0:0:0:
246,119,84200,1,8,0:0:0:0:
389,224,84350,1,0,3:0:0:0:
280,357,84500,2,0,B|289:314|294:278,1,80.5000015354157,8|0,0:0|3:0,0:0:0:0:
462,94,84800,2,0,B|467:135|483:212,1,120.750002303124,8|0,0:0|0:0,0:0:0:0:
483,212,85100,2,0,L|441:206,2,40.2500007677078,8|0|0,0:0|0:0|3:0,0:0:0:0:
354,127,85400,1,8,0:0:0:0:
314,134,85475,1,8,0:0:0:0:
274,142,85550,1,0,3:0:0:0:
235,149,85625,1,0,0:0:0:0:
5,236,86900,6,0,B|76:286|70:375,1,161.000003070831,8|0,0:0|3:0,0:0:0:0:
241,190,87350,1,8,0:0:0:0:
211,121,87500,2,0,B|221:73|217:40,1,80.5000015354157,8|0,0:0|3:0,0:0:0:0:
217,41,87800,1,0,3:0:0:0:
301,263,87950,2,0,B|291:311|295:344,1,80.5000015354157,8|0,0:0|0:0,0:0:0:0:
434,196,88250,1,8,0:0:0:0:
316,36,88400,2,0,B|358:116|447:114,2,161.000003070831,8|8|6,0:0|0:0|0:0,0:0:0:0:
196,348,89300,5,2,0:0:0:0:
196,348,96200,6,0,L|225:344,6,20.1250003838539,8|0|0|0|0|0|0,0:0|0:0|0:0|0:0|0:0|0:0|0:0,0:0:0:0:
196,348,96500,6,0,B|259:279|279:185,1,167.999994873047,6|8,3:2|0:0,0:0:0:0:
346,223,96950,1,0,0:0:0:0:
454,115,97100,1,2,3:2:0:0:
386,92,97250,2,0,B|381:62|388:9,1,83.9999974365235,0|8,3:2|0:0,0:0:0:0:
190,32,97550,6,0,B|203:136|193:199,1,167.999994873047,2|0,0:0|0:0,0:0:0:0:
144,300,98000,2,0,B|174:295|227:302,1,83.9999974365235,8|0,0:0|0:0,0:0:0:0:
417,343,98300,2,0,B|387:348|334:341,1,83.9999974365235,2|0,3:2|3:2,0:0:0:0:
411,154,98600,1,8,0:0:0:0:
480,185,98750,1,2,0:0:0:0:
293,254,98900,5,6,3:2:0:0:
224,223,99050,1,0,0:0:0:0:
285,178,99200,1,8,0:0:0:0:
354,209,99350,1,0,0:0:0:0:
172,373,99500,2,0,B|204:330|229:312,1,83.9999974365235,2|0,3:2|3:2,0:0:0:0:
436,373,99800,2,0,B|403:330|379:313,1,83.9999974365235,8|2,0:0|0:0,0:0:0:0:
378,312,100025,1,0,0:0:0:0:
378,312,100100,6,0,B|446:321|503:311,2,125.999996154785,0|0|0,3:0|0:0|0:0,0:0:0:0:
281,180,100700,2,0,B|227:172|182:180,1,83.9999974365235,2|0,3:2|3:2,0:0:0:0:
80,238,101000,1,8,0:0:0:0:
66,213,101075,1,0,0:0:0:0:
59,186,101150,1,2,0:0:0:0:
59,158,101225,1,0,0:0:0:0:
59,158,101300,6,0,B|154:132|180:53,1,167.999994873047,6|8,3:2|0:0,0:0:0:0:
253,74,101750,1,0,0:0:0:0:
207,250,101900,1,2,3:2:0:0:
269,294,102050,2,0,B|263:323|271:377,1,83.9999974365235,0|8,3:2|0:0,0:0:0:0:
503,300,102350,6,0,B|450:213|356:226,1,167.999994873047,2|0,0:0|0:0,0:0:0:0:
441,83,102800,1,8,0:0:0:0:
356,127,102950,1,0,0:0:0:0:
228,40,103100,2,0,B|282:48|311:42,1,83.9999974365235,2|0,3:2|3:2,0:0:0:0:
168,171,103400,1,8,0:0:0:0:
140,100,103550,1,2,0:0:0:0:
285,199,103700,5,6,3:2:0:0:
257,270,103850,1,0,0:0:0:0:
382,363,104000,2,0,B|368:315|362:281,1,83.9999974365235,8|0,0:0|0:0,0:0:0:0:
418,50,104300,1,2,3:2:0:0:
488,79,104450,2,0,B|452:188|339:170,1,167.999994873047,0|2,3:2|0:0,0:0:0:0:
202,334,104900,6,0,B|232:329|285:336,1,83.9999974365235,6|0,3:2|0:0,0:0:0:0:
170,188,105200,2,0,B|159:216|126:258,1,83.9999974365235,8|0,0:0|0:0,0:0:0:0:
312,233,105500,2,0,B|292:209|272:160,1,83.9999974365235,2|0,3:2|3:2,0:0:0:0:
503,103,105800,1,8,0:0:0:0:
503,103,105875,1,2,0:0:0:0:
503,103,105950,1,2,0:0:0:0:
503,103,106025,1,2,0:0:0:0:
503,103,106100,6,0,B|505:197|399:234,1,167.999994873047,6|8,3:2|0:0,0:0:0:0:
370,294,106550,1,0,0:0:0:0:
502,355,106700,1,2,3:2:0:0:
427,381,106850,2,0,B|374:374|344:379,1,83.9999974365235,0|8,3:2|0:0,0:0:0:0:
183,293,107150,6,0,B|103:270|99:352|24:352,1,167.999994873047,2|0,0:0|0:0,0:0:0:0:
224,207,107600,1,8,0:0:0:0:
117,140,107750,1,0,0:0:0:0:
237,56,107900,2,0,B|290:63|320:58,1,83.9999974365235,2|0,3:2|3:2,0:0:0:0:
497,148,108200,2,0,B|428:154|405:226,1,125.999996154785,8|0,0:0|0:0,0:0:0:0:
406,223,108500,6,0,B|301:242|245:270,1,167.999994873047,6|8,3:2|0:0,0:0:0:0:
53,153,108950,1,0,0:0:0:0:
101,96,109100,2,0,B|206:115|261:143,1,167.999994873047,2|8,3:2|0:0,0:0:0:0:
384,88,109550,1,2,0:0:0:0:
302,204,109700,5,0,3:0:0:0:
161,228,109925,5,0,3:0:0:0:
44,145,110150,5,0,3:0:0:0:
54,16,110300,2,0,B|84:11|137:18,1,83.9999974365235,2|0,3:2|3:2,0:0:0:0:
161,37,110525,1,8,0:0:0:0:
184,55,110600,1,8,0:0:0:0:
190,84,110675,1,8,0:0:0:0:
178,111,110750,1,8,0:0:0:0:
152,125,110825,1,8,0:0:0:0:
152,125,112700,5,0,1:0:0:0:
216,340,112850,1,0,3:2:0:0:
390,251,113000,2,0,P|353:250|317:249,1,73.4999977569581,8|0,0:2|0:0,0:0:0:0:
316,249,113300,5,10,0:2:0:0:
493,144,113450,1,2,3:2:0:0:
333,362,113900,5,10,0:2:0:0:
156,257,114050,1,2,3:2:0:0:
1,146,114500,5,12,0:2:0:0:
89,93,114800,1,14,0:2:0:0:
177,40,115100,1,14,0:2:0:0:
274,275,115400,6,0,L|269:296,6,12.2499996261597,14|0|8|0|8|0|8,0:2|0:0|0:2|0:0|0:2|0:0|0:2,0:0:0:0:
274,275,115700,5,6,3:2:0:0:
409,186,115850,2,0,B|387:212|336:226,1,83.9999974365235,0|8,3:2|0:0,0:0:0:0:
173,138,116150,2,0,B|206:143|244:181,1,83.9999974365235,2|0,3:2|3:2,0:0:0:0:
249,367,116450,2,0,B|237:334|250:283,1,83.9999974365235,0|8,3:2|0:0,0:0:0:0:
41,244,116750,6,0,B|128:274|131:387,1,167.999994873047,2|0,3:2|3:2,0:0:0:0:
164,163,117200,2,0,B|131:175|80:162,1,83.9999974365235,8|2,0:0|3:2,0:0:0:0:
0,47,117500,2,0,B|92:43|166:29,1,167.999994873047,0|8,3:2|0:0,0:0:0:0:
293,119,117950,5,2,3:2:0:0:
293,119,118025,1,0,0:0:0:0:
293,119,118100,1,2,3:2:0:0:
241,176,118250,1,0,3:2:0:0:
298,228,118400,2,0,B|319:273|322:307,1,83.9999974365235,8|2,0:0|3:2,0:0:0:0:
145,205,118700,1,0,3:2:0:0:
85,159,118850,2,0,B|92:91|137:-7,1,167.999994873047,0|2,3:2|3:2,0:0:0:0:
4,257,119300,6,0,B|52:252|87:259,1,83.9999974365235,2|0,3:2|3:2,0:0:0:0:
241,361,119600,2,0,B|139:371|63:355,1,167.999994873047,8|0,0:0|3:2,0:0:0:0:
276,288,120050,1,0,3:2:0:0:
414,371,120200,1,8,0:0:0:0:
442,365,120275,1,0,0:0:0:0:
469,359,120350,1,2,3:2:0:0:
497,354,120425,1,8,0:0:0:0:
497,354,120500,6,0,B|473:257|378:241,1,167.999994873047,2|8,3:2|0:0,0:0:0:0:
323,195,120950,1,2,3:2:0:0:
443,94,121100,1,0,3:2:0:0:
368,81,121250,2,0,B|379:37|389:0,1,83.9999974365235,0|8,3:2|0:0,0:0:0:0:
232,176,121550,6,0,B|208:83|187:4,1,167.999994873047,2|0,3:2|3:2,0:0:0:0:
95,7,122000,2,0,B|73:40|77:88,1,83.9999974365235,8|2,0:0|3:2,0:0:0:0:
95,234,122300,1,0,3:2:0:0:
168,265,122450,1,0,3:2:0:0:
240,295,122600,2,0,B|230:333|219:377,1,83.9999974365235,8|2,0:0|3:2,0:0:0:0:
338,240,122900,6,0,B|327:196|317:158,1,83.9999974365235,2|0,3:2|3:2,0:0:0:0:
338,240,123200,2,0,B|435:201|425:265|516:243,1,167.999994873047,10|0,0:0|3:2,0:0:0:0:
291,359,123650,1,0,3:2:0:0:
219,376,123800,2,0,B|184:369|136:374,1,83.9999974365235,8|2,0:0|3:2,0:0:0:0:
13,266,124100,6,0,B|40:172|148:181,1,167.999994873047,2|8,3:2|0:0,0:0:0:0:
212,208,124550,1,6,3:2:0:0:
96,2,124700,2,0,B|101:50|94:85,1,83.9999974365235,6|6,3:2|3:2,0:0:0:0:
93,85,124925,1,8,0:0:0:0:
93,85,125000,1,8,0:0:0:0:
208,31,125150,1,6,3:2:0:0:
370,142,125300,5,6,3:2:0:0:
489,64,125450,2,0,B|441:69|406:62,1,83.9999974365235,0|8,3:2|0:0,0:0:0:0:
299,224,125750,2,0,B|347:219|382:226,1,83.9999974365235,2|0,3:2|3:2,0:0:0:0:
193,186,126050,2,0,B|198:234|191:269,1,83.9999974365235,0|8,3:2|0:0,0:0:0:0:
315,374,126350,6,0,B|363:299|462:305,1,167.999994873047,2|0,3:2|3:2,0:0:0:0:
495,235,126800,2,0,B|454:206|436:175,1,83.9999974365235,8|2,0:0|3:2,0:0:0:0:
341,71,127100,2,0,B|346:165|328:238,1,167.999994873047,0|8,3:2|0:0,0:0:0:0:
244,25,127550,5,2,3:2:0:0:
244,25,127625,1,0,0:0:0:0:
244,25,127700,1,2,3:2:0:0:
186,76,127850,1,0,3:2:0:0:
244,127,128000,2,0,B|241:180|251:222,1,83.9999974365235,8|2,0:0|3:2,0:0:0:0:
88,338,128300,1,0,3:2:0:0:
159,359,128450,2,0,B|175:290|169:191,1,167.999994873047,0|2,3:2|3:2,0:0:0:0:
112,142,128900,6,0,B|64:147|29:140,1,83.9999974365235,2|0,3:2|3:2,0:0:0:0:
235,24,129200,2,0,B|321:26|365:123,1,167.999994873047,8|0,0:0|3:2,0:0:0:0:
448,176,129650,1,0,3:2:0:0:
240,227,129800,1,8,0:0:0:0:
243,199,129875,1,0,0:0:0:0:
247,171,129950,1,2,3:2:0:0:
250,143,130025,1,8,0:0:0:0:
250,143,130100,6,0,B|164:145|120:242,1,167.999994873047,2|8,3:2|0:0,0:0:0:0:
179,286,130550,1,2,3:2:0:0:
63,362,130700,1,0,3:2:0:0:
11,303,130850,2,0,B|19:273|16:220,1,83.9999974365235,0|8,3:2|0:0,0:0:0:0:
179,323,131150,6,0,B|265:289|274:374|348:374,1,167.999994873047,2|0,3:2|3:2,0:0:0:0:
456,276,131600,2,0,B|408:288|372:281,1,83.9999974365235,8|2,0:0|3:2,0:0:0:0:
261,147,131900,1,0,3:2:0:0:
322,102,132050,1,0,3:2:0:0:
367,163,132200,2,0,B|415:151|450:157,1,83.9999974365235,8|2,0:0|3:2,0:0:0:0:
248,20,132500,6,0,B|200:32|164:25,1,83.9999974365235,10|8,3:2|0:0,0:0:0:0:
55,121,132800,1,8,0:0:0:0:
185,177,132950,1,8,0:0:0:0:
115,206,133100,1,8,0:0:0:0:
274,357,133325,1,0,0:0:0:0:
274,357,133400,2,0,B|262:309|268:273,1,83.9999974365235,8|0,0:0|0:0,0:0:0:0:
399,153,133700,6,0,B|478:217|446:307,1,167.999994873047,6|8,3:2|0:0,0:0:0:0:
448,301,134150,1,2,3:2:0:0:
456,41,134300,2,0,B|405:56|322:60,1,125.999996154785,8|0,0:0|0:0,0:0:0:0:
331,60,134600,2,0,L|327:89,4,20.9999993591309,8|0|0|0|2,0:0|0:0|0:0|0:0|3:2,0:0:0:0:
