osu file format v14

[General]
AudioFilename: audio.mp3
AudioLeadIn: 0
PreviewTime:52096
Countdown: 0
SampleSet: Soft
StackLeniency: 0.7
Mode: 0
LetterboxInBreaks: 0
WidescreenStoryboard: 1

[Editor]
Bookmarks: 500,10100
DistanceSpacing: 2.2
BeatDivisor: 4
GridSize: 8
TimelineZoom: 0.9000001

[Metadata]
Title:Makeinu Shijou Shugi
TitleUnicode:負け犬至上主義
Artist:150P
ArtistUnicode:150P
Creator:Nevo
Version:lieeleid's Hard
Source:終焉ノ栞プロジェクト
Tags:vocaloid japanese IA bookmark of demise project Shuuen no Shiori Underdog Supremacy supermacist Doctrine A-ya aya C-ta cta D-ne dne B-ko bko neko anime boy glaceon frostwich lieeleid novelty synderes
BeatmapID:2220419
BeatmapSetID:958419

[Difficulty]
HPDrainRate:5
CircleSize:3.8
OverallDifficulty:6.5
ApproachRate:8
SliderMultiplier:1.3
SliderTickRate:1

[Events]
//Background and Video events
0,0,"8791bf17-386e-4f2b-a8a7-d321aad8f47f.jpg",0,0
//Break Periods
2,89300,92675
//Storyboard Layer 0 (Background)
//Storyboard Layer 1 (Fail)
//Storyboard Layer 2 (Pass)
//Storyboard Layer 3 (Foreground)
//Storyboard Layer 4 (Overlay)
//Storyboard Sound Samples

[TimingPoints]
500,300,4,2,1,80,1,0
19100,-133.333333333333,4,2,1,80,0,0
19700,-133.333333333333,4,2,1,80,0,0
20900,-133.333333333333,4,2,1,60,0,0
30500,-100,4,2,1,70,0,0
40100,-133.333333333333,4,2,1,60,0,0
43700,-133.333333333333,4,2,1,70,0,0
44900,-133.333333333333,4,2,1,60,0,0
48500,-100,4,2,1,70,0,0
50300,-133.333333333333,4,2,1,70,0,0
52100,-80,4,2,1,85,0,0
71300,-80,4,2,1,60,0,0
73700,-80,4,2,1,70,0,0
78500,-100,4,2,1,70,0,0
89300,-133.333333333333,4,2,1,60,0,0
93500,-166.666666666667,4,2,1,60,0,0
96200,-100,4,2,1,70,0,0
96500,-80,4,2,1,85,0,0
109100,-100,4,2,1,85,0,0
109700,-80,4,2,1,85,0,0
110900,-90.9090909090909,4,2,1,65,0,0
115700,-100,4,2,1,80,0,0
136700,-100,4,2,1,65,0,0
138950,-100,4,2,1,30,0,0

[Colours]
Combo1 : 254,84,135
Combo2 : 252,95,86
Combo3 : 0,142,210
Combo4 : 251,196,94

[HitObjects]
104,36,500,6,0,L|172:32,2,65,6|0|8,3:2|3:2|0:0,0:0:0:0:
42,99,950,2,0,P|34:130|39:162,1,65,2|0,3:2|3:2,0:0:0:0:
88,229,1250,2,0,P|95:260|90:292,1,65,0|8,3:2|0:0,0:0:0:0:
13,358,1550,6,0,P|66:325|125:346,1,130,2|0,3:2|3:2,0:0:0:0:
214,330,2000,1,8,0:0:0:0:
214,330,2150,1,2,3:2:0:0:
285,384,2300,2,0,P|296:353|298:321,2,65,0|0|8,3:2|3:2|0:0,0:0:0:0:
214,330,2750,1,2,3:2:0:0:
240,243,2900,6,0,P|273:233|303:234,1,65,2|0,3:2|3:2,0:0:0:0:
377,283,3200,2,0,P|410:293|440:291,1,65,8|2,0:0|3:2,0:0:0:0:
504,239,3500,2,0,L|508:175,2,65,0|0|8,3:2|3:2|0:0,0:0:0:0:
377,283,3950,6,0,L|365:147,1,130,2|0,3:2|3:2,0:0:0:0:
412,75,4400,2,0,P|381:65|348:66,1,65,8|2,0:0|3:2,0:0:0:0:
279,124,4700,2,0,P|248:133|215:132,1,65,0|0,3:2|3:2,0:0:0:0:
139,86,5000,1,8,0:0:0:0:
136,102,5075,1,8,0:0:0:0:
133,118,5150,1,10,0:2:0:0:
130,134,5225,1,8,0:0:0:0:
127,151,5300,6,0,P|131:190|141:217,1,65,2|0,3:2|3:2,0:0:0:0:
133,295,5600,2,0,P|168:311|197:315,1,65,8|2,0:0|3:2,0:0:0:0:
259,372,5900,1,0,3:2:0:0:
259,371,6050,2,0,P|279:347|308:333,1,65,0|8,3:2|0:0,0:0:0:0:
413,365,6350,6,0,B|401:338|401:338|409:226,1,130,2|0,3:2|3:2,0:0:0:0:
470,178,6800,1,8,0:0:0:0:
470,178,6950,1,2,3:2:0:0:
424,104,7100,2,0,P|391:100|359:104,1,65,0|0,3:2|3:2,0:0:0:0:
306,170,7400,2,0,P|273:173|241:169,1,65,8|2,0:0|3:2,0:0:0:0:
162,129,7700,6,0,L|155:204,1,65,2|0,3:2|3:2,0:0:0:0:
79,167,8000,2,0,L|72:242,1,65,8|2,0:0|3:2,0:0:0:0:
2,284,8300,1,0,3:2:0:0:
2,284,8450,1,0,3:2:0:0:
59,351,8600,2,0,P|88:364|120:363,1,65,8|2,0:0|3:2,0:0:0:0:
174,278,8900,6,0,P|205:270|237:275,1,65,2|6,3:2|3:2,0:0:0:0:
285,211,9200,2,0,P|307:234|318:264,1,65,8|6,0:0|3:2,0:0:0:0:
404,384,9500,2,0,P|381:360|370:330,1,65,6|6,3:2|3:2,0:0:0:0:
290,321,9800,2,0,P|299:290|319:264,1,65,8|6,0:0|3:2,0:0:0:0:
461,207,10100,6,0,L|393:211,2,65,6|0|8,3:2|3:2|0:0,0:0:0:0:
512,135,10550,2,0,P|492:109|464:93,1,65,2|0,3:2|3:2,0:0:0:0:
418,22,10850,2,0,P|386:25|358:41,1,65,0|8,3:2|0:0,0:0:0:0:
336,156,11150,6,0,P|283:123|224:144,1,130,2|0,3:2|3:2,0:0:0:0:
204,238,11600,1,8,0:0:0:0:
204,238,11750,1,2,3:2:0:0:
134,170,11900,2,0,P|123:139|121:107,2,65,0|0|8,3:2|3:2|0:0,0:0:0:0:
204,238,12350,1,2,3:2:0:0:
156,331,12500,6,0,P|186:343|218:339,1,65,2|0,3:2|3:2,0:0:0:0:
283,278,12800,2,0,P|313:270|346:276,1,65,8|2,0:0|3:2,0:0:0:0:
423,320,13100,2,0,L|428:387,2,65,0|0|8,3:2|3:2|0:0,0:0:0:0:
495,238,13550,6,0,P|434:218|406:162,1,130,2|0,3:2|3:2,0:0:0:0:
492,85,14000,2,0,L|485:156,1,65,8|2,0:0|3:2,0:0:0:0:
400,16,14300,2,0,L|406:87,1,65,0|0,3:2|3:2,0:0:0:0:
314,55,14600,1,8,0:0:0:0:
312,71,14675,1,0,0:0:0:0:
310,87,14750,1,2,3:2:0:0:
309,103,14825,1,8,0:0:0:0:
307,120,14900,6,0,L|300:195,1,65,2|0,3:2|3:2,0:0:0:0:
215,233,15200,2,0,L|220:168,1,65,8|2,0:0|3:2,0:0:0:0:
144,119,15500,1,0,3:2:0:0:
144,119,15650,2,0,L|138:183,1,65,0|8,3:2|0:0,0:0:0:0:
0,251,15950,6,0,P|61:238|111:278,1,130,2|0,3:2|3:2,0:0:0:0:
160,359,16400,1,8,0:0:0:0:
160,359,16550,1,2,3:2:0:0:
204,274,16700,2,0,P|232:259|269:260,1,65,0|0,3:2|3:2,0:0:0:0:
303,184,17000,2,0,P|330:200|348:230,1,65,8|2,0:0|3:2,0:0:0:0:
422,319,17300,6,0,L|430:242,1,65,8|8,0:0|0:0,0:0:0:0:
432,156,17600,2,0,L|424:79,1,65,8|8,0:0|0:0,0:0:0:0:
337,75,17900,2,0,P|290:66|213:114,1,130,8|8,0:0|0:0,0:0:0:0:
311,277,18500,6,0,B|289:240|289:240|297:149,1,130,6|8,3:2|0:0,0:0:0:0:
358,92,18950,1,2,3:2:0:0:
420,155,19100,2,0,P|451:163|483:165,3,48.750001859665,8|2|8|2,0:0|3:2|0:0|3:2,0:0:0:0:
34,362,20900,5,6,3:2:0:0:
11,243,21050,1,0,3:2:0:0:
495,190,21950,6,0,P|451:171|404:178,1,97.50000371933,6|6,3:2|3:2,0:0:0:0:
502,205,22400,1,0,1:0:0:0:
130,0,23300,5,6,3:2:0:0:
24,27,23450,2,0,P|14:49|13:74,1,48.750001859665,0|0,3:2|1:0,0:0:0:0:
365,354,24350,6,0,P|369:296|352:247,1,97.50000371933,6|6,3:2|3:2,0:0:0:0:
350,369,24800,2,0,P|327:374|303:372,1,48.750001859665,2|0,3:2|0:0,0:0:0:0:
235,314,25100,2,0,P|199:306|165:318,1,73.1250027894975,2|0,3:2|0:0,0:0:0:0:
154,339,25400,2,0,P|177:346|202:343,1,48.750001859665,2|0,3:2|0:0,0:0:0:0:
279,200,25700,5,6,3:2:0:0:
259,100,25850,1,0,3:2:0:0:
35,6,26750,6,0,P|15:50|22:97,1,97.50000371933,6|6,3:2|3:2,0:0:0:0:
49,0,27200,1,0,1:2:0:0:
414,157,28100,5,6,3:2:0:0:
465,239,28250,2,0,P|461:263|451:285,1,48.750001859665,0|2,3:2|0:0,0:0:0:0:
460,281,29900,2,0,P|436:273|412:270,1,48.750001859665,14|0,0:0|3:0,0:0:0:0:
506,349,30200,1,14,0:0:0:0:
244,374,30500,6,0,P|239:341|240:309,1,65,6|2,3:2|3:2,0:0:0:0:
286,238,30799,1,8,0:0:0:0:
286,238,30950,1,0,3:2:0:0:
390,309,31100,2,0,P|358:317|326:315,2,65,0|0|8,3:2|3:2|0:0,0:0:0:0:
286,238,31550,2,0,P|263:178|285:118,1,130,2|2,3:2|3:2,0:0:0:0:
347,44,32000,2,0,L|276:37,1,65,8|0,0:0|3:2,0:0:0:0:
207,78,32300,2,0,L|136:85,1,65,2|0,3:2|3:2,0:0:0:0:
81,30,32600,1,8,0:0:0:0:
5,142,32900,6,0,P|3:174|16:203,1,65,2|2,3:2|3:2,0:0:0:0:
93,259,33200,1,8,0:0:0:0:
93,259,33350,1,0,3:2:0:0:
153,196,33500,2,0,P|184:187|216:190,1,65,2|0,3:2|3:2,0:0:0:0:
274,257,33800,2,0,P|305:263|337:260,1,65,8|6,0:0|3:2,0:0:0:0:
409,205,34100,6,0,P|425:203|441:203,2,32.5,8|8|8,0:0|0:0|0:0,0:0:0:0:
336,259,34400,2,0,P|316:235|308:203,1,65,8|8,0:0|0:0,0:0:0:0:
311,182,34625,1,8,0:0:0:0:
317,171,34700,2,0,P|319:136|311:102,1,65,10|0,0:0|0:0,0:0:0:0:
251,34,35000,2,0,L|285:38,3,32.5,14|0|0|0,0:0|0:0|0:0|0:0,0:0:0:0:
208,61,35300,6,0,L|141:68,1,65,6|0,3:2|3:2,0:0:0:0:
73,24,35600,1,8,0:0:0:0:
73,24,35750,1,0,3:2:0:0:
9,86,35900,2,0,P|3:118|10:152,2,65,2|0|8,3:2|3:2|0:0,0:0:0:0:
81,198,36350,2,0,P|125:234|199:225,1,130,2|0,3:2|3:2,0:0:0:0:
254,167,36800,2,0,P|286:165|317:175,1,65,8|0,0:0|3:2,0:0:0:0:
379,243,37100,2,0,P|411:239|441:228,1,65,2|0,3:2|3:2,0:0:0:0:
489,155,37400,1,8,0:0:0:0:
219,92,37700,5,2,3:2:0:0:
175,156,37850,1,0,3:0:0:0:
193,229,38000,2,0,P|221:243|253:251,1,65,8|0,0:0|3:0,0:0:0:0:
219,92,38300,5,2,3:2:0:0:
139,82,38450,1,0,3:0:0:0:
108,44,38600,1,8,0:0:0:0:
108,17,38750,1,2,3:2:0:0:
218,92,38900,2,0,P|188:147|126:160,1,130,2|8,3:2|0:0,0:0:0:0:
63,106,39350,1,0,3:0:0:0:
1,162,39500,2,0,P|1:194|12:224,1,65,8|0,0:0|0:0,0:0:0:0:
101,240,39800,2,0,P|100:272|89:302,1,65,8|0,0:0|0:0,0:0:0:0:
0,351,40100,6,0,B|-3:329|-20:308|-20:308|71:370|136:323|136:323|90:345|52:323,1,292.50001115799,2|2,3:2|0:0,0:0:0:0:
177,255,41300,2,0,P|242:274|136:324,1,292.50001115799,6|0,3:2|1:0,0:0:0:0:
348,324,42500,6,0,B|382:366|382:366|443:308|407:195|334:169,1,292.50001115799,6|2,3:2|0:0,0:0:0:0:
198,261,43700,6,0,P|222:263|245:255,1,48.750001859665,14|8,0:0|0:0,0:0:0:0:
335,169,44000,2,0,P|310:166|287:174,1,48.750001859665,8|8,0:0|0:0,0:0:0:0:
198,261,44300,1,14,0:0:0:0:
167,251,44450,1,8,0:0:0:0:
99,201,44600,1,8,0:0:0:0:
68,211,44750,1,8,0:0:0:0:
480,17,47300,5,14,0:0:0:0:
465,134,47450,1,8,0:0:0:0:
301,70,47900,5,14,0:0:0:0:
316,187,48050,1,8,0:0:0:0:
129,195,48500,6,0,P|121:137|184:112,1,130,14|10,0:0|0:0,0:0:0:0:
121,203,48950,6,0,P|113:145|176:120,1,130,2|0,3:2|0:0,0:0:0:0:
113,211,49400,6,0,P|94:168|105:122,1,65,8|0,0:0|0:0,0:0:0:0:
105,219,49700,6,0,P|132:256|225:243,1,130,14|0,0:0|0:0,0:0:0:0:
224,174,50150,1,14,0:0:0:0:
97,227,50300,6,0,P|90:274|97:339,1,97.50000371933,10|8,0:0|0:0,0:0:0:0:
326,111,52100,6,0,P|406:117|473:161,2,162.5,6|8|2,3:2|0:0|3:2,0:0:0:0:
243,197,52850,2,0,L|236:111,1,81.25,0|8,3:2|0:0,0:0:0:0:
182,0,53150,6,0,P|223:11|223:127,1,162.5,2|0,0:0|0:0,0:0:0:0:
94,123,53600,2,0,P|75:158|80:198,1,81.25,8|0,0:0|0:0,0:0:0:0:
222,224,53900,2,0,P|203:188|167:170,1,81.25,2|0,3:2|3:2,0:0:0:0:
98,237,54200,1,8,0:0:0:0:
81,268,54350,1,2,0:0:0:0:
222,224,54500,6,0,P|318:237|394:288,2,162.5,6|8|2,3:2|0:0|3:2,0:0:0:0:
132,277,55250,2,0,L|139:191,1,81.25,0|8,3:2|0:0,0:0:0:0:
193,80,55550,6,0,P|152:91|152:207,1,162.5,2|0,0:0|0:0,0:0:0:0:
254,299,56000,2,0,L|341:291,1,81.25,8|0,0:0|0:0,0:0:0:0:
407,205,56300,2,0,L|319:197,1,81.25,2|0,3:2|3:2,0:0:0:0:
201,151,56600,1,8,0:0:0:0:
207,130,56675,1,2,0:0:0:0:
213,109,56750,1,2,0:0:0:0:
219,88,56825,1,2,0:0:0:0:
226,67,56900,6,0,B|281:62|281:62|331:81|331:81|387:76,2,162.5,6|8|2,3:2|0:0|3:2,0:0:0:0:
145,38,57650,2,0,L|57:45,1,81.25,0|8,3:2|0:0,0:0:0:0:
0,151,57950,2,0,B|55:146|55:146|105:165|105:165|161:160,1,162.5,2|0,0:0|0:0,0:0:0:0:
214,88,58400,2,0,P|239:119|250:157,1,81.25,8|0,0:0|0:0,0:0:0:0:
344,168,58700,2,0,P|329:205|301:234,1,81.25,2|0,3:2|3:2,0:0:0:0:
133,280,59000,2,0,P|172:273|213:283,1,81.25,8|2,0:0|0:0,0:0:0:0:
234,298,59225,1,0,0:0:0:0:
254,311,59300,6,0,P|292:322|331:315,1,81.25,6|0,3:2|0:0,0:0:0:0:
458,237,59600,2,0,P|420:221|379:220,1,81.25,8|0,0:0|0:0,0:0:0:0:
353,227,59825,1,0,0:0:0:0:
330,234,59900,2,0,P|290:235|254:219,1,81.25,2|0,3:2|3:2,0:0:0:0:
213,109,60200,1,8,0:0:0:0:
205,85,60350,1,2,0:0:0:0:
107,164,60500,6,0,B|94:200|94:200|107:297,2,121.875,6|2|0,3:2|3:2|0:0,0:0:0:0:
187,241,61100,2,0,L|197:321,1,81.25,2|0,3:2|3:2,0:0:0:0:
211,338,61325,1,0,0:0:0:0:
228,350,61400,2,0,P|268:350|307:338,1,81.25,8|2,0:0|0:0,0:0:0:0:
344,174,61700,6,0,P|267:147|188:159,2,162.5,6|8|2,3:2|0:0|3:2,0:0:0:0:
419,240,62450,2,0,L|427:144,1,81.25,0|8,3:2|0:0,0:0:0:0:
478,46,62750,6,0,P|497:104|413:156,1,162.5,2|0,0:0|0:0,0:0:0:0:
361,81,63200,2,0,P|324:64|283:65,1,81.25,8|0,0:0|0:0,0:0:0:0:
224,142,63500,2,0,P|192:166|152:167,1,81.25,2|0,3:2|3:2,0:0:0:0:
88,97,63800,1,8,0:0:0:0:
71,78,63950,1,2,0:0:0:0:
4,163,64100,6,0,L|13:348,2,162.5,6|8|2,3:2|0:0|3:2,0:0:0:0:
86,274,64850,2,0,P|124:283|162:271,1,81.25,0|8,3:2|0:0,0:0:0:0:
291,255,65150,6,0,P|221:221|162:270,1,162.5,2|0,0:0|0:0,0:0:0:0:
324,334,65600,2,0,P|356:311|372:272,1,81.25,8|0,0:0|0:0,0:0:0:0:
371,250,65825,1,0,0:0:0:0:
369,231,65900,2,0,L|377:136,1,81.25,2|0,3:2|3:2,0:0:0:0:
363,21,66200,1,8,0:0:0:0:
342,27,66275,1,8,0:0:0:0:
321,33,66350,1,8,0:0:0:0:
300,39,66425,1,8,0:0:0:0:
280,47,66500,6,0,B|224:51|224:51|179:79|179:79|123:83,2,162.5,6|8|2,3:2|0:0|3:2,0:0:0:0:
332,131,67250,2,0,L|236:139,1,81.25,0|8,3:2|0:0,0:0:0:0:
160,236,67550,6,0,P|234:213|251:138,1,162.5,2|0,0:0|0:0,0:0:0:0:
83,200,68000,2,0,P|72:238|82:277,1,81.25,8|0,0:0|0:0,0:0:0:0:
24,346,68300,2,0,P|52:374|91:384,1,81.25,2|0,3:2|3:2,0:0:0:0:
173,313,68600,1,8,0:0:0:0:
375,384,68900,6,0,L|389:216,1,162.5,6|8,3:2|0:0,0:0:0:0:
318,160,69350,1,0,0:0:0:0:
318,160,69500,2,0,B|307:279|307:279|263:323,1,162.5,2|8,3:2|0:0,0:0:0:0:
232,242,69950,1,2,0:0:0:0:
174,362,70100,6,0,P|120:378|93:329,2,121.875,6|14|14,3:2|0:0|0:0,0:0:0:0:
76,176,70700,2,0,P|46:203|37:242,1,81.25,8|0,0:0|3:0,0:0:0:0:
42,263,70925,2,0,P|72:236|81:197,1,81.25,8|8,0:0|0:0,0:0:0:0:
164,225,73250,5,0,3:2:0:0:
256,192,73400,1,8,0:2:0:0:
512,0,73700,5,10,0:2:0:0:
497,117,73850,1,2,3:2:0:0:
333,53,74300,5,10,0:2:0:0:
348,170,74450,1,2,3:2:0:0:
146,366,74900,6,0,P|201:377|246:330,1,121.875,12|0,0:2|0:0,0:0:0:0:
294,317,75200,6,0,P|238:328|193:281,1,121.875,14|0,0:2|0:0,0:0:0:0:
150,261,75500,6,0,P|223:268|244:191,1,162.5,14|14,0:2|0:2,0:0:0:0:
0,0,76100,5,10,0:2:0:0:
15,117,76250,1,2,3:2:0:0:
179,53,76700,5,8,0:2:0:0:
164,170,76850,1,2,3:2:0:0:
309,345,77300,6,0,P|369:354|416:309,1,121.875,14|0,0:2|0:0,0:0:0:0:
459,301,77600,6,0,P|399:310|352:265,1,121.875,14|0,0:2|0:0,0:0:0:0:
315,243,77900,6,0,P|375:252|422:207,1,121.875,14|0,0:2|0:0,0:0:0:0:
430,186,78200,2,0,P|425:145|409:108,1,81.25,8|8,0:2|0:2,0:0:0:0:
272,14,78500,6,0,P|250:91|184:109,1,130,2|8,3:2|0:2,0:0:0:0:
126,46,78950,2,0,L|119:111,1,65,0|0,3:2|0:0,0:0:0:0:
33,160,79250,2,0,L|27:80,2,65,0|8|0,0:0|0:2|0:0,0:0:0:0:
0,283,79700,6,0,P|30:292|63:290,1,65,0|0,3:0|3:0,0:0:0:0:
137,234,80000,2,0,P|166:220|198:220,1,65,10|0,0:2|0:0,0:0:0:0:
268,322,80300,2,0,L|274:250,1,65,0|0,3:0|0:0,0:0:0:0:
345,203,80600,1,8,0:2:0:0:
354,231,80750,1,0,0:0:0:0:
356,345,80900,6,0,P|384:357|419:272,1,130,0|8,3:0|0:2,0:0:0:0:
384,163,81350,2,0,P|376:194|377:226,1,65,0|0,3:0|3:0,0:0:0:0:
433,291,81650,1,0,3:0:0:0:
499,237,81800,2,0,P|506:205|505:173,1,65,8|0,0:2|0:0,0:0:0:0:
456,42,82100,6,0,P|410:25|361:22,1,97.5,0|0,3:0|3:0,0:0:0:0:
342,37,82400,1,8,0:2:0:0:
342,37,82550,1,0,3:0:0:0:
293,117,82700,2,0,P|263:131|232:138,1,65,0|0,3:0|3:0,0:0:0:0:
159,89,83000,2,0,L|155:49,2,32.5,8|0|8,0:0|0:0|0:0,0:0:0:0:
60,160,83300,5,6,3:2:0:0:
16,224,83450,1,0,3:0:0:0:
53,291,83600,2,0,P|84:296|116:290,1,65,8|0,0:0|3:0,0:0:0:0:
211,210,83900,1,8,0:0:0:0:
279,178,84050,1,0,3:0:0:0:
338,230,84200,2,0,P|343:261|336:298,1,65,8|0,0:0|3:0,0:0:0:0:
206,361,84500,6,0,L|200:297,1,65,8|0,0:0|3:0,0:0:0:0:
192,209,84800,2,0,L|186:145,1,65,8|0,0:0|3:0,0:0:0:0:
184,119,85025,1,0,0:0:0:0:
183,93,85100,2,0,P|213:82|245:80,1,65,8|0,0:0|3:0,0:0:0:0:
313,136,85400,2,0,L|344:133,2,32.5,8|8|0,0:0|0:0|3:0,0:0:0:0:
499,384,86900,5,8,0:0:0:0:
384,21,87350,5,8,0:0:0:0:
384,21,87500,1,8,0:0:0:0:
43,138,87950,5,8,0:0:0:0:
231,371,88250,5,8,0:0:0:0:
231,371,88400,1,8,0:0:0:0:
291,80,88700,5,8,0:0:0:0:
256,192,93500,12,0,96200,0:0:0:0:
286,231,96500,6,0,P|357:193|437:185,2,162.5,6|8|2,3:2|0:0|3:2,0:0:0:0:
200,280,97250,2,0,L|192:192,1,81.25,0|8,3:2|0:0,0:0:0:0:
210,71,97550,6,0,P|159:128|192:198,1,162.5,2|0,0:0|0:0,0:0:0:0:
334,155,98000,2,0,P|372:147|419:164,1,81.25,8|0,0:0|0:0,0:0:0:0:
495,235,98300,2,0,L|502:147,1,81.25,2|0,3:2|3:2,0:0:0:0:
403,251,98600,2,0,L|410:331,1,81.25,8|2,0:0|0:0,0:0:0:0:
236,357,98900,6,0,L|251:181,2,162.5,6|8|2,3:2|0:0|3:2,0:0:0:0:
157,285,99650,1,0,3:2:0:0:
250,194,99800,2,0,P|289:186|329:193,1,81.25,8|2,0:0|0:0,0:0:0:0:
384,312,100100,6,0,B|389:271|389:271|413:245|413:245|420:193,2,121.875,0|0|0,3:0|0:0|0:0,0:0:0:0:
305,384,100700,2,0,P|265:384|233:359,1,81.25,2|0,3:2|3:2,0:0:0:0:
226,340,100925,1,0,0:0:0:0:
219,323,101000,2,0,L|227:283,2,40.625,8|0|2,0:0|0:0|0:0,0:0:0:0:
269,206,101300,6,0,B|214:201|214:201|164:220|164:220|108:215,2,162.5,6|8|2,3:2|0:0|3:2,0:0:0:0:
345,270,102050,2,0,P|364:234|365:194,1,81.25,0|8,3:2|0:0,0:0:0:0:
360,58,102350,6,0,P|324:127|365:193,1,162.5,2|0,0:0|0:0,0:0:0:0:
490,127,102800,2,0,L|402:119,1,81.25,8|0,0:0|0:0,0:0:0:0:
283,200,103100,2,0,L|370:192,1,81.25,2|0,3:2|3:2,0:0:0:0:
409,119,103400,1,8,0:0:0:0:
425,105,103550,1,2,0:0:0:0:
332,47,103700,6,0,P|236:60|160:111,2,162.5,6|8|2,3:2|0:0|3:2,0:0:0:0:
282,170,104450,2,0,P|272:207|278:252,1,81.25,0|8,3:2|0:0,0:0:0:0:
342,327,104750,6,0,P|350:255|262:276,1,162.5,2|0,0:0|0:0,0:0:0:0:
217,372,105200,2,0,L|169:367,3,40.625,8|0|0|0,0:0|0:0|0:0|0:0,0:0:0:0:
148,336,105500,2,0,L|100:340,3,40.625,2|0|0|0,3:2|0:0|3:2|0:0,0:0:0:0:
68,367,105800,1,8,0:0:0:0:
62,346,105875,1,2,0:0:0:0:
56,325,105950,1,2,0:0:0:0:
50,304,106025,1,2,0:0:0:0:
44,282,106100,6,0,B|49:227|49:227|30:177|30:177|35:121,2,162.5,6|8|2,3:2|0:0|3:2,0:0:0:0:
117,169,106850,2,0,L|124:87,1,81.25,0|8,3:2|0:0,0:0:0:0:
210,281,107150,6,0,P|280:259|264:187,1,162.5,2|0,0:0|0:0,0:0:0:0:
124,88,107600,2,0,P|97:117|94:157,1,81.25,8|0,0:0|0:0,0:0:0:0:
281,80,107900,2,0,P|242:71|206:88,1,81.25,2|0,3:2|3:2,0:0:0:0:
222,208,108200,2,0,P|260:216|296:199,1,81.25,8|2,0:0|0:0,0:0:0:0:
407,45,108500,6,0,L|423:228,1,162.5,6|8,3:2|0:0,0:0:0:0:
431,293,108950,1,0,0:0:0:0:
330,166,109100,2,0,L|341:295,1,130,2|8,3:2|0:0,0:0:0:0:
350,384,109550,1,2,0:0:0:0:
178,378,109700,6,0,P|153:333|175:269,2,121.875,0|0|0,3:0|0:0|0:0,0:0:0:0:
97,222,110300,2,0,P|123:177|189:164,1,121.875,2|0,3:2|0:0,0:0:0:0:
262,220,110675,1,8,0:0:0:0:
442,292,112850,5,0,3:2:0:0:
512,384,113000,1,8,0:2:0:0:
372,82,113300,5,10,0:2:0:0:
219,42,113450,1,2,3:2:0:0:
302,245,113900,5,10,0:2:0:0:
160,283,114050,1,2,3:2:0:0:
298,350,114500,6,0,P|353:361|398:314,1,107.25000327301,12|0,0:2|0:0,0:0:0:0:
446,301,114800,6,0,P|390:312|345:265,1,107.25000327301,14|0,0:2|0:0,0:0:0:0:
302,245,115100,6,0,P|375:252|396:175,1,143.000004364014,14|14,0:2|0:2,0:0:0:0:
117,145,115700,6,0,L|122:80,2,65,6|0|8,3:2|3:2|0:0,0:0:0:0:
73,243,116150,2,0,P|102:228|134:228,1,65,2|0,3:2|3:2,0:0:0:0:
193,290,116450,2,0,P|222:304|254:304,1,65,0|8,3:2|0:0,0:0:0:0:
332,184,116750,6,0,P|284:165|213:211,1,130,2|0,3:2|3:2,0:0:0:0:
193,290,117200,1,8,0:0:0:0:
193,290,117350,1,2,3:2:0:0:
241,367,117500,2,0,L|312:373,2,65,0|0|8,3:2|3:2|0:0,0:0:0:0:
193,290,117950,1,2,3:2:0:0:
219,200,118100,6,0,L|290:193,1,65,2|0,3:2|3:2,0:0:0:0:
412,263,118400,2,0,L|340:256,1,65,8|2,0:0|3:2,0:0:0:0:
302,115,118700,2,0,P|332:125|351:150,2,65,0|0|8,3:2|3:2|0:0,0:0:0:0:
185,42,119150,6,0,L|328:29,1,130,2|0,3:2|3:2,0:0:0:0:
416,76,119600,2,0,P|431:104|433:136,1,65,8|2,0:0|3:2,0:0:0:0:
490,189,119900,2,0,P|473:216|446:234,1,65,0|0,3:2|3:2,0:0:0:0:
353,186,120200,1,8,0:0:0:0:
337,187,120275,1,8,0:0:0:0:
321,189,120350,1,10,0:2:0:0:
305,190,120425,1,8,0:0:0:0:
287,192,120500,6,0,B|234:198|234:198|213:221|213:221|164:228,1,130,2|8,3:2|0:0,0:0:0:0:
84,237,120950,1,2,3:2:0:0:
84,237,121100,1,0,3:2:0:0:
37,325,121250,2,0,L|101:319,1,65,0|8,3:2|0:0,0:0:0:0:
170,148,121550,6,0,P|119:110|57:125,1,130,2|0,3:2|3:2,0:0:0:0:
217,69,122000,2,0,P|246:57|278:61,1,65,8|2,0:0|3:2,0:0:0:0:
360,146,122300,2,0,P|415:124|401:66,1,130,0|8,3:2|0:0,0:0:0:0:
478,302,122900,6,0,L|398:295,1,65,2|0,3:2|3:2,0:0:0:0:
349,352,123200,2,0,L|269:358,1,65,10|0,0:0|3:2,0:0:0:0:
216,278,123500,2,0,P|180:265|107:325,1,130,0|8,3:2|0:0,0:0:0:0:
31,107,124100,6,0,L|119:99,1,65,2|6,3:2|3:2,0:0:0:0:
160,39,124400,2,0,L|247:46,1,65,8|6,0:0|3:2,0:0:0:0:
287,110,124700,1,6,3:2:0:0:
318,104,124850,1,6,3:2:0:0:
377,46,125000,1,8,0:0:0:0:
408,52,125150,1,6,3:2:0:0:
488,105,125300,6,0,L|493:40,2,65,6|0|8,3:2|3:2|0:0,0:0:0:0:
437,182,125750,2,0,P|408:197|376:197,1,65,2|0,3:2|3:2,0:0:0:0:
321,125,126050,2,0,P|292:111|260:111,1,65,0|8,3:2|0:0,0:0:0:0:
173,227,126350,6,0,P|221:246|292:200,1,130,2|0,3:2|3:2,0:0:0:0:
345,291,126800,1,8,0:0:0:0:
345,291,126950,1,2,3:2:0:0:
417,239,127100,2,0,L|423:168,2,65,0|0|8,3:2|3:2|0:0,0:0:0:0:
345,291,127550,1,2,3:2:0:0:
286,211,127700,6,0,L|215:204,1,65,2|0,3:2|3:2,0:0:0:0:
103,275,128000,2,0,L|175:268,1,65,8|2,0:0|3:2,0:0:0:0:
201,124,128300,2,0,P|171:134|152:159,2,65,0|0|8,3:2|3:2|0:0,0:0:0:0:
386,69,128750,6,0,P|413:127|417:192,1,130,2|0,3:2|3:2,0:0:0:0:
321,218,129200,2,0,P|306:246|304:278,1,65,8|2,0:0|3:2,0:0:0:0:
394,310,129500,2,0,P|409:338|411:370,1,65,0|0,3:2|3:2,0:0:0:0:
306,384,129800,1,8,0:0:0:0:
290,383,129875,1,8,0:0:0:0:
274,381,129950,1,8,3:2:0:0:
258,380,130025,1,8,0:0:0:0:
240,378,130100,6,0,B|187:372|187:372|166:349|166:349|117:342,1,130,2|8,3:2|0:0,0:0:0:0:
42,384,130550,1,2,3:2:0:0:
42,384,130700,1,0,3:2:0:0:
6,297,130850,2,0,P|-1:265|0:232,1,65,0|8,3:2|0:0,0:0:0:0:
118,155,131150,6,0,P|135:216|98:268,1,130,2|0,3:2|3:2,0:0:0:0:
50,101,131600,2,0,P|71:77|101:67,1,65,8|2,0:0|3:2,0:0:0:0:
215,174,131900,2,0,P|271:154|260:96,1,130,0|8,3:2|0:0,0:0:0:0:
34,302,132500,6,0,L|113:295,1,65,10|8,3:2|0:0,0:0:0:0:
163,352,132800,2,0,L|242:358,1,65,8|8,0:0|0:0,0:0:0:0:
296,278,133100,2,0,P|332:265|405:325,1,130,8|8,0:0|0:0,0:0:0:0:
480,107,133700,6,0,L|392:99,1,65,6|0,3:2|0:0,0:0:0:0:
352,39,134000,2,0,L|264:46,1,65,8|2,0:0|3:2,0:0:0:0:
209,98,134300,1,8,0:0:0:0:
203,67,134450,1,2,3:2:0:0:
111,92,134600,1,8,0:0:0:0:
117,61,134750,1,2,3:2:0:0:
